osu file format v5

[General]
AudioFilename: 03 Caramelldansen (Ryu Remix).ogg
AudioLeadIn: 0
PreviewTime: 26779
Countdown: 0
SampleSet: Normal
StackLeniency: 0.3
Mode: 0
LetterboxInBreaks: 1
EditorBookmarks: 14845,28105,40038,61253,82468,93076,105010,126225,136833,158049,187220,197828,209761,233629

[Metadata]
Title:Caramelldansen (Ryu* Remix)
Artist:Caramell
Creator:silasw
Version:BuraiFULL
Source:
Tags:

[Difficulty]
HPDrainRate:6
CircleSize:5
OverallDifficulty:6
SliderMultiplier:1.5
SliderTickRate:2

[Events]
//Background and Video events
0,0,"Uu Uu Uma Uma.jpg"
//Break Periods
2,1786,13795
2,22834,27055
2,82668,86722
2,137033,156998
2,197694,207715
//Storyboard Layer 0 (Background)
//Storyboard Layer 1 (Failing)
//Storyboard Layer 2 (Passing)
//Storyboard Layer 3 (Foreground)
//Storyboard Sound Samples
//Background Colour Transformations
3,100,225,142,81

[TimingPoints]
1586,331.491712707182,4,1,0,100,1
38713,1325.96685082873,4,2,0,100,1
40038,331.491712707182,4,1,0,100,1
156723,662.983425414365,4,2,0,100,1
159706,662.983425414365,4,1,0,100,1
160700,331.491712707182,4,1,0,100,1
187219,662.983425414365,4,2,0,100,1
203130,331.491712707182,4,1,0,100,1

[HitObjects]
256,192,135,12,0,1586
256,208,14845,5,0
368,200,15177,1,0
480,192,15508,2,0,B|501:19|96:96,1,450
56,160,16668,1,0
40,232,16834,1,0
352,128,17497,5,0
400,192,17663,2,0,B|496:224,1,75
464,288,17994,1,0
384,288,18160,1,0
336,224,18326,2,0,B|272:288,1,75
288,352,18657,1,0
288,352,18823,1,0
216,320,18989,5,0
216,320,19155,1,0
200,240,19320,2,0,B|104:272,1,75
64,224,19652,1,0
64,152,19818,1,0
96,80,19983,1,0
168,48,20149,1,0
240,48,20315,5,0
240,128,20481,2,0,B|240:224,1,75
304,160,20812,2,0,B|304:256,1,75
368,272,21144,2,0,B|368:176,1,75
432,320,21475,2,0,B|432:224,1,75
504,168,21806,6,0,B|408:168,1,75
344,96,22138,6,0,B|344:192,1,75
272,256,22469,6,0,B|368:256,1,75
144,64,28105,6,0,B|240:64,1,75
304,64,28436,2,0,B|400:64,1,75
464,168,28768,1,0
360,168,28934,1,0
248,168,29099,1,0
144,168,29265,1,0
256,192,29431,12,0,30094
256,192,30425,5,6
368,320,30757,6,0,B|272:320,1,75
208,320,31088,2,0,B|112:320,1,75
48,216,31420,1,0
152,216,31586,1,0
264,216,31751,1,0
368,216,31917,1,0
256,192,32083,12,0,32746
256,192,32911,5,2
256,192,33077,1,6
112,96,33409,5,0
256,96,33740,1,0
400,96,34072,2,0,B|496:96,2,75
400,96,34569,1,0
400,240,34735,1,0
400,240,34900,1,0
400,240,35066,1,0
400,240,35232,1,0
400,240,35398,1,0
224,240,35729,5,6
48,240,36061,5,0
48,96,36392,1,0
192,96,36724,2,0,B|288:96,3,75
384,160,37387,2,0,B|288:224,1,75
400,240,37718,2,0,B|448:304,1,75
336,288,38050,2,0,B|320:368,1,75
256,304,38381,2,0,B|176:336,1,75
96,272,38713,6,4,B|96:112,1,150,4|4
144,48,40203,1,0
224,64,40369,2,0,B|384:64,1,150
464,64,40866,1,0
432,144,41032,2,0,B|400:224,4,75
404,213,41861,1,0
368,272,42026,5,0
368,272,42192,1,2
312,312,42358,1,0
312,312,42524,1,2
224,288,42689,6,0,B|193:309|144:304,1,75
112,240,43021,2,2,B|143:261|192:256,1,75
224,192,43352,2,0,B|193:213|144:208,1,75
112,144,43684,2,2,B|143:165|192:160,1,75
240,112,44015,2,6,B|259:70|320:72,1,75,6|0
352,128,44347,2,2,B|464:160|400:272,1,150
415,239,44844,1,0
415,239,45010,1,2
415,239,45176,1,2
288,256,45341,6,0,B|192:224|160:304,2,150
176,160,46336,1,2
48,80,46667,2,0,B|144:48|176:128,2,150
48,160,47496,1,2
48,240,47662,1,2
160,336,47993,6,0,B|256:368|288:272,1,150
176,176,48656,1,2
448,64,49319,1,0
448,64,49485,5,4
400,128,49651,1,0
400,128,49817,5,4
472,160,49982,1,0
472,160,50148,5,4
440,232,50314,1,4
440,232,50479,5,0
384,288,50645,2,2,B|341:331|304:304,4,75
272,208,51640,2,2,B|224:224|240:272,5,75
288,320,52634,1,0
224,352,52800,1,2
192,288,52966,1,6
64,352,53297,5,0
64,272,53463,1,0
64,192,53629,1,2
144,192,53794,1,2
224,192,53960,1,2
224,48,54292,1,0
304,48,54457,1,0
384,56,54623,2,2,B|431:50|467:81,1,75
416,128,54955,2,2,B|470:137|453:192,1,75
392,200,55286,2,2,B|437:229|383:257,1,75
320,208,55618,1,6
176,192,55949,6,0,B|16:192,2,150
256,192,56778,1,2
336,192,56944,2,0,B|496:192,2,150
256,192,57772,1,2
176,192,57938,1,0
16,192,58270,1,0
96,192,58435,5,2
176,192,58601,1,0
96,192,58767,1,2
112,336,59098,1,2
192,336,59264,2,2,B|272:336,3,75
256,192,59927,12,4,61253
400,48,61584,5,0
320,48,61750,2,0,B|240:48,1,75
176,48,62082,1,0
176,128,62247,2,2,B|97:192|235:222|144:288,2,150,2|2|2
256,128,63076,1,0
336,128,63242,2,2,B|336:224|448:208,1,150
320,112,63905,6,2,B|224:112|240:224,1,150
304,256,64402,1,2
352,192,64568,2,2,B|266:134|224:240,1,150
176,288,65065,1,0
96,304,65231,2,2,B|64:256|112:240,5,75
56,176,66225,1,6
160,96,66557,6,0,B|320:96,1,150
384,128,67054,1,2
464,112,67220,2,2,B|400:256,1,150
336,288,67717,1,2
272,240,67883,1,2
208,288,68049,5,0
144,240,68214,1,2
80,288,68380,5,0
16,240,68546,1,6
80,192,68712,5,6
16,144,68877,1,2
144,80,69209,2,2,B|79:141|196:154|112:240,1,150
208,152,69706,1,2
272,80,69872,2,2,B|337:141|220:154|304:240,1,150
352,152,70369,5,2
416,224,70535,2,2,B|448:192|384:176|432:144,1,75
416,224,70866,6,6,B|384:192|368:256|336:208,1,75
416,224,71198,6,6,B|448:256|464:192|496:240,1,75
416,224,71529,6,6,B|384:256|448:272|400:304,1,75
256,192,71861,6,0,B|96:192,2,150
256,192,72689,1,2
256,192,72855,1,0
256,192,73021,1,2
256,192,73187,1,0
256,336,73518,2,2,B|416:336,1,150
416,192,74181,6,0,B|256:192,3,150
192,192,75341,1,2
266,192,75507,1,0
192,192,75673,1,2
266,192,75839,1,0
336,192,76004,2,2,B|416:192,1,75
416,112,76336,1,2
272,112,76667,1,2
272,112,76833,1,6
128,112,77165,6,0,B|128:272,2,150
128,32,77993,1,2
208,32,78159,1,0
208,112,78325,2,2,B|208:352,1,225
384,352,79154,1,2
240,176,79485,1,6
432,64,79817,1,0
256,192,79899,12,0,82468
256,192,87772,12,0,90424
432,192,91916,5,2
288,192,92247,1,2
144,192,92579,1,2
64,192,92745,1,6
160,80,93076,6,0,B|256:80|256:176,2,150
80,80,93905,1,0
80,160,94071,1,0
160,160,94236,1,0
160,240,94402,5,2
160,320,94568,1,2
240,320,94734,1,2
320,320,94899,1,2
320,240,95065,1,2
240,144,95397,5,6
384,144,95728,6,0,B|384:240|480:240,2,150
464,144,96557,1,0
416,80,96723,1,0
344,48,96888,1,0
272,80,97054,5,2
224,144,97220,1,2
144,144,97386,1,2
80,192,97551,1,2
32,128,97717,1,2
176,64,97883,5,2
304,64,98049,1,6
256,192,98380,6,0,B|322:261|194:279|288:336,1,150
272,160,99043,2,0,B|288:80,1,75
288,16,99375,2,0,B|368:32,1,75
384,144,99706,6,2,B|464:112,1,75
464,272,100203,2,2,B|368:288,3,75
296,296,100866,5,6
256,192,101032,12,0,101363
256,192,101695,12,0,102026
256,192,102358,12,0,103518
256,192,103684,12,0,104678
160,224,104844,5,0
96,176,105010,2,4,B|60:137|112:96,1,75,4|0
160,64,105341,2,0,B|199:25|240:64,1,75
272,112,105673,2,4,B|296:153|256:192,1,75,4|0
208,240,106004,1,0
256,304,106170,1,0
320,256,106336,2,4,B|336:208|384:224,2,75
240,264,106833,1,4
112,336,107165,6,2,B|71:324|80:272,1,75
88,200,107496,1,2
168,192,107662,2,0,B|264:224|296:112,1,150,0|2
392,144,108159,1,0
344,208,108325,2,2,B|248:240|216:128,1,150,2|2
256,32,108822,1,0
272,112,108988,2,2,B|105:221|435:254|224:384,1,300,2|4
112,336,109982,2,4,B|31:328|-6:239|110:131|191:241,1,300
272,272,110811,6,2,B|413:266|475:193|425:103|266:101,1,375
192,128,111805,1,0
192,272,112137,1,0
336,288,112468,1,0
256,272,112634,2,2,B|128:256|96:144|256:80,1,300
320,128,113463,2,4,B|460:232|405:321|288:352,1,300,4|0
256,192,114457,12,0,115452
208,240,115618,6,0,B|112:224,1,75
80,176,115949,2,0,B|160:144,1,75
192,80,116281,2,0,B|224:160,1,75
288,192,116612,2,0,B|368:208,1,75
432,176,116944,1,2
448,96,117109,2,2,B|384:48,1,75
320,80,117441,2,2,B|288:160,1,75
320,224,117772,1,0
240,224,117938,1,0
96,240,118270,6,0,B|96:320,1,75
176,320,118601,2,2,B|256:320,1,75
288,256,118933,2,0,B|384:272,1,75
432,240,119264,2,2,B|464:320,1,75
384,336,119596,1,2
304,320,119761,2,2,B|240:240|336:176,1,150
224,304,120424,1,2
144,304,120590,1,2
64,304,120756,2,0,B|64:256,2,37.5
64,160,121253,5,0
64,160,121419,1,0
192,160,121750,1,0
192,160,121916,1,0
320,160,122247,1,0
448,160,122579,1,0
448,160,122745,1,0
432,296,123076,5,0
312,296,123242,5,0
200,296,123408,5,0
80,296,123573,5,0
256,192,123739,12,0,124734
264,120,125231,6,0,B|198:183|331:210|232:280,2,150
400,80,126225,2,0,B|496:160|384:224,1,150,4|0
360,144,126723,1,0
320,80,126888,2,0,B|224:160|336:224,1,150
368,272,127386,1,2
368,352,127551,2,2,B|288:352,1,75
240,296,127883,2,2,B|160:296,1,75
112,352,128214,2,2,B|10:340|64:240,1,150
144,112,128877,6,0,B|208:32|272:112,2,150
208,160,129706,1,2
272,208,129872,2,0,B|208:288|144:208,2,150
336,152,130700,1,2
416,176,130866,2,2,B|512:218|347:252|448:288,1,150
304,352,131529,5,0
168,328,131861,1,0
96,208,132192,1,4
160,80,132524,1,4
296,48,132855,1,2
408,128,133187,1,2
256,192,133518,12,2,133850
256,224,134181,6,0,B|256:64,1,150
256,224,134844,2,2,B|179:268|340:313|224:368,1,150,2|2
176,192,135507,6,2,B|132:115|87:276|32:160,1,150,2|2
256,192,136170,12,4,136833
400,240,158048,5,2
344,336,158380,1,2
232,352,158711,1,2
112,240,159209,2,2,B|176:176,3,75
165,186,160368,1,2
288,112,160700,6,2,B|288:192,1,75
288,272,161031,1,0
400,112,161362,2,2,B|400:208,1,75
400,272,161694,1,0
512,112,162025,2,2,B|512:208,1,75
512,272,162357,1,0
320,192,162688,1,2
224,112,163351,6,0,B|224:192,1,75
224,272,163682,1,4
112,112,164013,2,0,B|112:208,1,75
112,272,164345,1,4
112,352,164512,2,0,B|64:352,2,37.5
192,352,164843,1,6
272,352,165009,2,6,B|352:352,1,75,6|2
416,352,165340,2,6,B|416:272,1,75,6|2
336,272,165672,1,4
336,128,166003,6,0,B|336:48,2,75
256,128,166501,1,2
256,208,166666,2,0,B|176:208,2,75
368,208,167164,1,2
368,288,167329,2,4,B|448:288,2,75
288,288,167827,1,0
288,288,167909,1,0
288,288,167992,1,6
144,288,168324,1,0
144,112,168655,5,0
144,112,168821,1,0
144,112,168987,1,2
368,112,169318,1,0
368,112,169484,1,0
368,112,169650,1,2
304,160,169816,1,0
304,160,169898,1,0
304,160,169981,1,2
224,144,170147,1,0
160,192,170313,1,2
224,240,170479,1,0
160,288,170644,1,2
256,192,170810,12,0,171141
320,288,171307,5,4
320,288,171473,1,0
320,288,171639,1,2
400,288,171804,1,0
400,208,171970,1,4
400,208,172136,1,0
400,208,172302,1,2
480,208,172467,1,0
432,144,172633,1,4
432,144,172799,1,0
328,144,172965,1,6
328,144,173130,1,0
224,144,173296,1,6
256,288,173628,1,0
112,288,173959,5,0
112,208,174125,1,0
112,128,174291,1,2
192,128,174456,2,0,B|192:176,2,37.5
272,128,174788,1,0
352,128,174954,1,2
400,192,175119,2,0,B|448:192,2,37.5
400,264,175451,2,2,B|352:264,2,37.5
400,336,175782,2,4,B|448:336,2,37.5
288,336,176114,1,0
176,336,176280,1,6
48,336,176445,5,0
48,336,176528,1,0
48,336,176611,1,4
48,256,176777,1,2
48,176,176943,1,2
128,176,177108,1,0
128,176,177191,1,0
128,176,177274,1,4
208,176,177440,1,2
288,176,177606,5,2
288,96,177771,1,0
288,96,177854,1,0
288,96,177937,1,4
368,96,178103,1,0
368,96,178186,1,0
368,96,178269,1,4
368,176,178434,1,0
368,176,178517,1,0
368,176,178600,1,6
368,256,178766,1,2
368,256,178932,1,4
288,256,179097,5,0
288,256,179180,1,0
288,256,179263,2,4,B|208:256,1,75
192,336,179595,2,2,B|288:336,1,75
288,256,179926,2,4,B|208:256,1,75
192,176,180258,6,4,B|288:176,1,75
288,96,180589,2,2,B|208:96,1,75
192,176,180920,2,4,B|272:176,1,75
288,96,181252,2,2,B|208:96,1,75
256,192,181583,12,0,181915
256,192,181998,12,0,183241
256,192,183407,12,4,183572
256,192,183738,12,4,183904
256,192,184070,12,4,184235
256,192,184401,12,0,184567
256,192,185893,5,2
336,192,186059,1,2
256,192,186224,1,2
176,192,186390,1,2
256,192,186556,1,2
256,336,186887,1,2
96,336,187219,5,4
96,224,187550,2,0,B|176:224,2,75
96,112,188544,1,0
208,112,188876,1,0
208,224,189207,2,0,B|208:304,1,75
208,224,189870,1,2
336,224,190202,6,0,B|384:224,2,37.5
416,168,190865,2,2,B|464:168,1,37.5
456,280,191362,2,2,B|408:280,2,37.5
408,280,191859,2,2,B|328:280,1,75
192,288,192522,5,0
80,288,192854,1,0
80,176,193185,1,0
256,176,193683,1,0
368,176,194014,1,0
416,176,194180,1,0
416,224,194346,1,0
464,224,194511,1,0
464,336,194843,1,0
352,336,195174,2,0,B|272:336,1,75
224,336,195672,6,4,B|224:288,1,37.5
224,192,196169,2,6,B|176:192,1,37.5
112,104,196666,2,6,B|160:104,1,37.5
320,112,197163,2,2,B|320:192,1,75
64,192,208765,5,0
256,192,209096,1,0
448,192,209428,1,0
256,16,210091,1,0
64,192,210754,1,0
64,192,210920,1,0
256,368,211251,1,0
256,368,211417,1,0
256,192,211748,1,0
256,16,212080,1,0
432,80,212411,5,4
432,224,212743,1,0
352,224,212909,1,0
352,304,213074,2,0,B|192:304,1,150
112,304,213571,1,0
96,224,213737,2,0,B|176:224,1,75
128,160,214069,2,0,B|208:160,1,75
160,96,214400,2,0,B|240:96,1,75
288,160,214732,1,6
224,320,215063,6,0,B|64:320,1,150
16,64,215726,2,2,B|176:64,1,150
288,320,216389,2,2,B|448:320,1,150
496,64,217052,2,4,B|336:64,1,150,4|6
240,208,217715,5,0
96,240,218047,2,0,B|48:176,1,75
96,104,218378,2,0,B|192:120,1,75
240,176,218710,2,2,B|288:96,1,75
360,80,219041,2,0,B|408:160,1,75
416,240,219373,2,2,B|336:272,1,75
352,184,219704,2,6,B|272:184,2,75,6|6|6
112,176,220367,5,0
208,288,220699,1,2
304,176,221030,1,0
400,288,221362,1,2
480,32,221693,1,6
32,32,222025,1,6
32,352,222356,1,6
480,352,222688,1,6
256,192,223019,12,2,225339
256,192,225671,12,2,227991
384,192,228323,6,0,B|272:304,1,150
208,256,228820,1,0
256,192,228986,2,0,B|392:112,1,150
312,88,229483,1,0
240,128,229649,2,0,B|160:144,1,75
88,176,229980,2,0,B|120:256,1,75
160,320,230312,2,0,B|264:312,2,75,0|2|2
256,192,230975,5,0
400,192,231306,1,0
400,272,231472,1,0
320,304,231638,1,0
168,296,231969,1,0
88,280,232135,1,0
120,120,232467,1,0
200,88,232632,1,4
344,120,232964,1,4
232,216,233295,1,4
256,192,233461,12,4,233627
