osu file format v9

[General]
AudioFilename: Nightcore - CaramellDansen DJ Ryu Re.mp3
AudioLeadIn: 0
PreviewTime: 56336
Countdown: 0
SampleSet: Normal
StackLeniency: 0.4
Mode: 0
LetterboxInBreaks: 1

[Editor]
Bookmarks: 36938,38733,56355,75773,96404,115821,147375,171646,194705,214122
DistanceSpacing: 1.5
BeatDivisor: 4
GridSize: 4

[Metadata]
Title:Caramelldansen (Ryu* Remix) (Nightcore Mix)
Artist:Caramell
Creator:Star Stream
Version:Collab
Source:
Tags:LKs wmfchris ryutaro nakahara Starmine

[Difficulty]
HPDrainRate:6
CircleSize:4
OverallDifficulty:8
ApproachRate:9
SliderMultiplier:1.7
SliderTickRate:2

[Events]
//Background and Video events
0,0,"229085.jpg"
//Break Periods
2,171827,180737
//Storyboard Layer 0 (Background)
//Storyboard Layer 1 (Fail)
//Storyboard Layer 2 (Pass)
//Storyboard Layer 3 (Foreground)
Sprite,Foreground,Centre,"LKs.png",320,240 M,0,16129,,490,350 F,0,16129,16280,0,1 F,0,36761,37064,1,0 S,0,36761,37064,1,0.3 F,0,56179,56331,0,1 S,0,56179,56331,0.3,1 F,0,75749,75901,1,0 S,0,75749,75901,1,0.3 F,0,96230,96381,0,1 S,0,96230,96381,0.3,1 F,0,115648,115952,1,0 S,0,115648,115952,1,0.3 F,0,147203,147355,0,1 S,0,147203,147355,0.3,1 F,0,171628,172842,1,0 F,0,194536,194687,0,1 S,0,194536,194687,0.3,1 F,0,213954,214258,1,0
Sprite,Foreground,Centre,"LKs.png",320,240 L,16129,1 F,0,0,151,0,1 S,0,0,455,1,1.3 F,0,151,455,1,0 L,56179,1 F,0,0,151,0,1 S,0,0,455,1,1.3 F,0,151,455,1,0 L,96230,1 F,0,0,151,0,1 S,0,0,455,1,1.3 F,0,151,455,1,0 L,147203,1 F,0,0,151,0,1 S,0,0,455,1,1.3 F,0,151,455,1,0 L,194536,1 F,0,0,151,0,1 S,0,0,455,1,1.3 F,0,151,455,1,0 M,0,16129,,490,350 F,0,171476,171628,0,1 S,0,171476,172842,1,1.3 F,0,171628,172842,1,0
Sprite,Foreground,Centre,"Star Stream.png",320,240 M,0,36761,,150,130 F,0,36761,36912,0,1 F,0,56179,56483,1,0 S,0,56179,56483,1,0.3 S,0,75749,,1 F,0,75749,76811,0,1 F,0,96230,96533,1,0 S,0,96230,96533,1,0.3 S,0,115648,,1 F,0,115648,115800,0,1 F,0,147203,147507,1,0 F,0,180124,181337,0,1 F,0,194536,194839,1,0 S,0,194536,194839,1,0.3 S,0,213954,,1 F,0,213954,214106,0,1 F,0,234738,239593,1,0
Sprite,Foreground,Centre,"Star Stream.png",320,240 L,36761,1 F,0,0,151,0,1 S,0,0,455,1,1.3 F,0,151,455,1,0 L,115648,1 F,0,0,151,0,1 S,0,0,455,1,1.3 F,0,151,455,1,0 L,213954,1 F,0,0,151,0,1 S,0,0,455,1,1.3 F,0,151,455,1,0 M,0,36761,,150,130 F,0,75598,76811,0,1 S,0,75598,76811,1.3,1 F,0,76811,,0
//Storyboard Sound Samples
//Background Colour Transformations
3,100,163,162,255

[TimingPoints]
1717,303.413400758534,4,1,1,60,1,0
55421,-100,4,1,0,60,0,0
56331,-83.3333333333333,4,1,1,60,0,1
66040,-100,4,1,1,60,0,0
96380,-125,4,1,1,60,0,0
106091,-100,4,1,1,60,0,0
114890,-100,4,1,0,60,0,0
115800,-83.3333333333333,4,1,1,60,0,1
125509,-100,4,1,1,60,0,0
144928,-100,4,2,1,20,0,0
146445,-100,4,1,0,10,0,0
147355,-100,4,1,1,60,0,0
170414,-100,4,1,0,60,0,0
171628,-100,4,1,0,30,0,0
181337,-100,4,1,1,30,0,0
182551,-100,4,1,1,40,0,0
183765,-100,4,1,1,50,0,0
184978,-100,4,1,1,60,0,0
186192,-100,4,1,1,40,0,0
187406,-100,4,1,1,50,0,0
188619,-100,4,1,1,60,0,0
189833,-100,4,1,1,70,0,0
191046,-100,4,1,0,60,0,0
194687,-83.3333333333333,4,1,1,60,0,1
214106,-100,4,1,1,60,0,0
235345,-100,4,2,1,75,0,0
235952,-100,4,2,1,65,0,0
236558,-100,4,2,1,55,0,0
237165,-100,4,2,1,45,0,0
237772,-100,4,2,1,35,0,0
238379,-100,4,2,1,25,0,0
238986,-100,4,2,1,15,0,0
239593,-100,4,2,1,5,0,0

[Colours]
Combo1 : 0,0,255
Combo2 : 255,255,0
Combo3 : 174,240,230
Combo4 : 240,5,5

[HitObjects]
401,17,16280,1,4
416,113,16432,1,0
321,82,16584,1,8
348,176,16735,1,0
348,176,16811,1,0
348,176,16887,2,0,B|372:268,1,85,0|0
288,336,17191,2,0,B|266:253,1,85,8|0
192,188,17494,5,0
108,144,17646,1,0
88,235,17797,1,8
0,200,17949,2,0,B|-40:108|28:44,1,170
128,44,18404,2,0,B|224:24,1,85,8|8
308,64,18708,5,4
324,148,18859,1,0
468,124,19011,1,8
456,40,19163,1,0
248,160,19314,5,0
264,244,19466,1,0
408,220,19618,1,8
396,136,19770,1,0
396,136,19845,1,0
396,136,19921,2,0,B|380:40,1,85,8|8
382,52,20225,1,0
168,36,20376,1,0
168,36,20452,1,0
168,36,20528,2,0,B|184:132,1,85,8|8
181,119,20832,1,0
92,184,20983,6,0,B|48:176,2,42.5,0|0|4
140,284,21287,1,0
224,356,21438,2,0,B|320:360,1,85,8|0
424,368,21742,1,0
504,304,21893,1,0
408,252,22045,1,8
512,180,22197,1,0
388,136,22349,6,0,B|292:132,1,85,0|0
224,64,22652,1,8
120,52,22804,2,0,B|32:96|52:204,1,170,0|0
44,308,23259,2,0,B|140:288,1,85,8|8
239,266,23562,5,4
330,208,23714,1,0
272,117,23866,1,8
181,175,24017,1,0
242,294,24169,5,0
358,205,24321,1,0
269,89,24473,1,8
153,178,24624,1,0
124,180,24700,1,0
96,181,24776,6,0,B|-4:185,1,85,8|8
176,64,25079,2,0,B|76:68,1,85,8|8
416,203,25534,2,0,B|516:199,1,85,8|0
336,320,25838,2,0,B|436:316,1,85,8|4
379,92,26293,5,8
336,320,26596,1,0
248,360,26748,1,0
160,316,26900,1,8
152,220,27052,1,0
152,220,27127,1,0
152,220,27203,2,0,B|168:128,1,85
52,48,27507,2,0,B|76:140,1,85,8|0
252,164,27810,2,0,B|324:232|412:184,1,170,0|8
408,186,28265,1,0
492,128,28417,5,4
216,52,28720,1,8
40,276,29024,1,0
20,178,29175,1,0
116,208,29327,1,8
141,109,29479,1,0
141,109,29555,1,0
141,109,29631,1,8
234,153,29782,1,8
340,152,29934,2,0,B|480:144,1,127.5,8|0
467,144,30237,5,8
412,240,30389,1,8
340,152,30541,1,8
284,247,30692,1,0
184,304,30844,6,0,B|112:368|24:316,1,170,4|8
0,92,31451,1,0
88,39,31603,1,0
184,72,31754,1,8
278,23,31906,1,0
376,68,32058,2,0,B|464:84,1,85
404,176,32361,2,0,B|492:192,1,85,8|0
432,280,32665,1,0
512,364,32816,1,8
512,364,32892,1,0
512,364,32968,1,8
404,384,33120,1,0
300,352,33271,5,4
4,320,33575,1,8
284,264,33878,1,4
188,288,34030,1,0
180,260,34106,1,0
172,236,34182,1,8
72,200,34333,1,0
80,172,34409,1,0
88,148,34485,1,12
68,48,34637,5,8
168,48,34789,1,8
264,48,34940,1,8
384,264,35244,1,8
360,48,35547,1,8
284,264,35851,1,8
208,328,36002,5,8
112,328,36154,1,8
16,328,36306,2,0,B|4:264|4:264|20:232|20:232|8:164,1,170,8|0
80,104,36761,1,0
164,144,36912,6,0,B|192:172|192:172|256:172,1,85,4|0
304,108,37216,2,0,B|332:80|332:80|396:80,1,85,8|0
464,116,37519,2,0,B|464:300,1,170,0|8
464,286,37974,1,0
392,344,38126,2,0,B|420:372|420:372|484:372,2,85,0|0|8
318,286,38581,1,0
318,286,38657,1,0
318,286,38733,1,0
244,344,38885,2,0,B|216:372|216:372|152:372,2,85,0|8|0
318,286,39340,6,0,B|384:216,1,85
444,96,39643,2,0,B|444:192,1,85,8|0
300,204,39947,2,0,B|234:134,1,85
164,20,40250,2,0,B|164:116,1,85,8|0
164,112,40478,1,0
164,120,40553,1,8
48,208,40705,1,8
464,208,41009,1,8
464,208,41312,1,8
324,264,41464,1,8
252,129,41615,1,8
112,185,41767,6,0,B|185:228|99:307|168:331,1,170,0|8
166,330,42222,1,0
316,356,42374,2,0,B|244:280,1,85
252,129,42677,2,0,B|324:205,1,85,8|0
392,252,42981,2,0,B|392:344,2,85,0|0|8
460,176,43436,2,0,B|496:104|496:104|444:92|416:48,1,170
328,20,43891,1,8
328,20,44043,1,8
233,57,44194,6,0,B|211:92|159:104|159:104|195:176,1,170,0|8
244,268,44649,1,0
296,360,44801,2,0,B|188:360,1,85
108,356,45105,1,8
52,272,45256,1,0
52,252,45332,1,0
52,232,45408,6,0,B|8:232,2,42.5
212,164,45711,1,8
188,333,45863,1,8
117,165,46015,6,0,B|99:116,2,42.5
229,250,46318,1,8
117,290,46470,1,8
212,164,46622,5,4
365,262,46773,1,0
483,122,46925,1,8
365,262,47077,1,0
212,164,47229,2,0,B|136:112,1,85
132,208,47532,2,0,B|40:200,1,85,8|0
96,284,47835,2,0,B|12:323,2,85,0|0|8
180,244,48290,1,0
264,284,48442,2,0,B|347:323,2,85,4|0|8
180,244,48897,1,0
96,204,49049,5,4
12,164,49201,2,0,B|12:264,2,85,0|8|0
68,88,49656,2,0,B|112:80|144:44,1,85
224,88,49959,1,8
308,48,50111,1,0
328,60,50187,1,0
348,72,50263,1,12
264,192,50414,1,8
68,88,50718,1,8
68,324,51021,2,0,B|68:236,2,85,8|8|0
156,292,51476,6,0,B|196:232|196:232|228:268|292:268,1,170,4|8
364,320,51931,1,0
440,268,52083,2,0,B|440:364,2,85,0|0|8
436,172,52538,1,0
368,104,52690,2,0,B|328:164|328:164|296:128|232:128,1,170,4|8
160,76,53145,1,0
80,128,53297,2,0,B|80:32,2,85,0|0|8
88,224,53752,1,0
156,292,53904,6,0,B|132:328,2,42.5,12|0|0
356,292,54207,2,0,B|380:328,2,42.5,8|0|0
256,176,54510,1,8
256,156,54586,1,0
256,136,54662,1,0
256,116,54738,1,0
256,96,54814,1,8
256,76,54890,1,0
256,56,54966,1,0
256,36,55041,1,0
256,16,55117,5,8
68,192,55421,1,8
444,192,55724,1,8
256,368,56027,1,8
68,192,56331,6,0,B|28:120|44:56|120:20,1,203.999993774414,4|8
181,96,56786,1,0
280,88,56938,2,0,B|332:88|332:88|368:56,2,102.00000243187,0|0|8
264,184,57393,6,0,B|312:296|440:256,1,204.000004863739
512,208,57848,2,0,B|496:96,1,102.00000243187,8|0
376,32,58151,1,2
304,168,58303,1,0
426,244,58455,1,10
497,107,58607,1,0
492,80,58682,1,0
484,56,58758,6,0,B|424:0|336:40,1,153.000003647804,4|0
312,56,59062,2,0,B|208:48,1,102.00000243187,8|0
104,40,59365,1,0
155,137,59517,1,0
48,128,59668,1,8
88,224,59820,6,0,B|56:288|56:288|80:344|80:344|152:352,1,204.000004863739
256,328,60275,1,8
360,351,60427,2,0,B|428:344,2,51.0000012159348,0|0|2
256,328,60730,1,0
320,248,60882,1,10
256,168,61034,1,0
192,248,61186,6,0,B|88:248,1,102.00000243187,4|0
256,168,61489,2,0,B|256:64,1,102.00000243187,8|0
320,248,61792,2,0,B|432:248,1,102.00000243187
256,328,62096,1,8
440,320,62247,6,0,B|516:297|515:189|425:173,1,204.000004863739
432,80,62703,1,8
336,120,62854,1,0
312,24,63006,1,2
312,24,63309,1,10
312,24,63613,5,0
204,24,63765,1,0
176,120,63916,1,8
80,80,64068,1,0
86,174,64220,1,0
40,264,64371,2,0,B|0:232,2,51.0000012159348,0|0|8
88,352,64675,1,0
128,343,64751,1,0
168,352,64826,6,0,B|184:248,1,102.00000243187,10|0
344,352,65130,2,0,B|328:248,1,102.00000243187,10|0
256,176,65433,1,10
256,176,65737,1,10
264,152,65813,1,0
256,128,65888,1,0
248,104,65964,1,0
256,80,66040,6,0,B|288:48|344:56,1,85,4|0
504,156,66344,1,8
436,80,66495,1,0
400,176,66647,6,0,B|424:220|400:264,1,85
272,384,66950,1,8
360,344,67102,1,0
360,344,67178,1,0
360,344,67254,5,0
272,384,67406,1,0
184,320,67557,1,8
96,352,67709,1,0
32,224,67861,5,0
120,264,68012,1,10
208,200,68164,1,10
296,232,68316,1,0
384,264,68467,6,0,B|416:232|400:176,1,85
312,24,68771,1,8
376,96,68923,1,0
280,112,69074,6,0,B|240:128|192:120,1,85
20,80,69378,1,8
104,120,69529,1,0
104,120,69605,1,0
104,120,69681,6,0,B|72:208,1,85,8|8
136,312,69985,2,0,B|165:232,1,85,8|0
280,184,70288,2,0,B|248:272,1,85,8|10
312,376,70591,2,0,B|341:296,1,85,10|0
432,320,70895,6,0,B|528:312,1,85,4|0
432,136,71198,1,8
504,208,71350,1,0
336,104,71502,6,0,B|328:200,1,85
152,104,71805,1,8
224,176,71957,1,0
224,176,72033,1,0
224,176,72108,5,4
124,200,72260,1,0
152,104,72412,1,8
288,240,72564,1,0
96,284,72715,1,0
152,104,72867,1,2
224,176,73019,1,10
124,200,73170,1,0
40,192,73322,6,0,B|16:104,1,85,4|0
152,104,73625,2,0,B|128:16,1,85,8|0
304,128,73929,2,0,B|280:40,2,85,4|0|8
448,152,74384,1,0
448,152,74460,1,0
448,152,74536,2,0,B|425:69,1,85,12|8
488,312,74991,6,0,B|424:384|328:328,1,170,8|8
238,287,75446,2,0,B|190:303,4,42.5,8|0|8|0|4
256,172,76963,5,8
256,172,77115,1,8
408,64,77418,1,8
104,64,77722,1,8
176,124,77873,1,8
336,124,78025,1,8
256,172,78177,1,4
176,124,79390,5,8
76,232,79542,1,8
200,308,79694,1,8
336,124,79997,1,8
436,232,80149,1,8
312,308,80301,1,8
256,48,80604,1,4
256,212,81818,5,8
256,212,81969,1,8
408,320,82273,1,8
104,320,82576,1,8
176,260,82728,1,8
336,260,82880,1,8
256,212,83031,5,12
256,212,83183,1,0
316,144,83335,1,8
316,144,83486,1,0
256,72,83638,1,8
256,72,83790,1,0
196,144,83942,1,8
196,144,84093,1,0
256,212,84245,5,12
148,296,84397,1,8
256,380,84548,1,8
364,296,84700,1,8
256,72,85003,1,10
256,72,85155,1,10
68,108,85459,6,0,B|24:124|24:124|4:156,1,85,4|0
4,252,85762,2,0,B|24:284|24:284|68:300,1,85,8|0
144,356,86065,1,0
220,300,86217,1,0
304,340,86369,1,8
376,280,86521,1,0
464,316,86672,5,0
376,280,86824,1,0
464,316,86976,2,0,B|500:288|504:236,1,85,8|0
428,184,87279,1,0
428,184,87431,1,8
472,100,87582,1,8
472,100,87734,1,0
392,52,87886,6,0,B|304:88,1,85,4|0
120,52,88189,2,0,B|208:88,1,85,8|0
296,160,88493,2,0,B|356:236,1,85
216,160,88796,2,0,B|156:236,1,85,8|0
148,244,89024,1,0
136,260,89100,6,0,B|76:336,2,85,8|0|8
376,260,89706,2,0,B|436:336,2,85,8|0|8
244,128,90313,6,0,B|176:80,1,85,4|0
84,56,90617,1,8
12,116,90768,1,0
84,172,90920,2,0,B|128:252,1,85
220,256,91223,2,0,B|176:176,1,85,8|0
140,96,91527,5,8
140,96,91679,1,8
428,96,91982,1,8
316,188,92134,1,8
388,316,92285,1,8
244,316,92437,1,8
244,316,92589,1,0
244,316,92665,1,0
244,316,92741,6,0,B|164:280,1,85,4|0
212,200,93044,2,0,B|160:128,1,85,8|0
256,136,93347,2,0,B|247:48,1,85
332,92,93651,1,8
420,124,93802,1,0
420,124,93878,1,0
420,124,93954,5,8
304,272,94106,1,8
304,180,94258,1,8
420,324,94409,1,8
208,228,94713,2,0,B|156:228|156:228|132:208|132:208|108:228|108:228|52:228,1,170,8|8
208,180,95320,5,8
92,324,95471,1,8
92,124,95623,1,8
208,272,95775,2,0,B|260:272|260:272|284:292|284:292|308:272|308:272|364:272,1,170,8|8
472,76,96381,6,0,B|524:140|472:212,1,136,4|0
388,172,96837,1,0
196,88,97140,1,0
196,88,97216,1,0
196,88,97292,2,0,B|332:92,1,136,8|0
100,84,97899,1,0
28,144,98050,2,0,B|20:188|40:216,1,68
80,296,98354,2,0,B|98:336|131:348,1,68,0|8
304,380,98809,6,0,B|352:320|436:356,1,136
512,304,99264,1,0
444,152,99567,2,0,B|460:232,1,68,0|8
368,260,99871,1,0
368,260,99947,1,0
368,260,100022,2,0,B|354:193,1,68
264,240,100326,2,0,B|280:320,1,68
48,80,100781,1,0
140,100,100933,1,8
228,64,101084,1,0
320,88,101236,6,0,B|392:120|464:88,1,136
452,92,101691,1,0
512,264,101995,1,0
512,264,102070,1,0
512,264,102146,2,0,B|440:256,1,68,8|0
352,244,102450,1,0
352,244,102753,1,0
288,328,102905,2,0,B|224:288|256:208,1,136
255,209,103360,1,8
56,352,103663,6,0,B|136:344,1,68
0,260,103967,2,0,B|80:252,1,68,0|0
255,209,104422,1,0
168,168,104574,1,8
80,128,104725,1,0
288,40,105029,1,0
296,64,105105,1,0
304,88,105180,2,0,B|328:160,1,68,8|0
416,120,105484,2,0,B|448:192|408:256,1,136,0|8
411,250,105939,1,0
480,352,106091,6,0,B|392:344,1,85,4|0
248,288,106394,2,0,B|336:272,1,85,8|0
184,360,106698,2,0,B|96:344,1,85
88,320,106925,1,0
76,296,107001,1,8
0,224,107153,1,0
16,120,107304,1,8
40,32,107456,6,0,B|94:60|119:108|86:174,2,170,8|8|10
16,120,108215,1,10
184,72,108366,1,0
272,40,108518,6,0,B|288:128,1,85,4|0
416,168,108821,2,0,B|400:80,1,85,8|0
303,197,109125,2,0,B|319:285,1,85,0|0
449,324,109428,2,0,B|433:236,1,85,8|0
334,352,109732,1,8
216,336,109883,2,0,B|128:296|160:192,2,170,8|8|10
240,248,110642,1,10
240,248,110718,1,0
240,248,110794,2,0,B|280:214,2,42.5
40,344,111249,5,8
0,256,111400,1,0
24,248,111476,1,0
48,240,111552,1,0
144,96,111704,2,0,B|128:184,1,85,0|8
16,24,112007,2,0,B|32:112,1,85
144,16,112311,1,0
264,80,112462,1,8
376,24,112614,1,0
472,156,112766,2,0,B|480:72,2,85,0|0|8
368,128,113221,1,0
360,232,113373,5,6
352,336,113524,1,0
456,216,113676,1,10
448,320,113828,1,0
264,248,113979,1,6
256,352,114131,1,0
168,264,114283,1,10
152,248,114359,1,0
136,232,114435,1,2
120,216,114510,1,0
104,200,114586,5,0
16,80,114890,1,8
120,96,115193,1,8
0,184,115497,1,8
444,192,115800,6,0,B|480:272|416:336,1,153.000003647804,4|0
420,333,116103,1,8
332,280,116255,1,0
232,296,116407,2,0,B|180:296|180:296|144:328,2,102.00000243187,0|0|8
332,280,116862,1,0
432,260,117014,6,0,B|432:152,1,102.00000243187
316,44,117317,2,0,B|316:152,1,102.00000243187,8|0
244,220,117620,1,2
244,116,117772,1,0
156,168,117924,1,10
156,64,118076,1,0
68,116,118227,5,0
68,116,118379,1,0
68,220,118531,2,0,B|68:328,1,102.00000243187,8|0
156,268,118834,2,0,B|156:160,1,102.00000243187
244,116,119137,2,0,B|244:224,1,102.00000243187,8|0
156,268,119441,5,0
248,324,119593,1,0
332,268,119744,1,8
432,268,119896,1,0
432,268,119972,1,0
432,268,120048,1,2
496,192,120199,1,0
428,116,120351,1,10
428,116,120427,1,0
428,116,120503,1,0
344,60,120655,6,0,B|335:147|247:170,1,153.000003647804,4|0
252,170,120958,1,8
160,120,121110,1,0
64,152,121261,2,0,B|-8:232,1,102.00000243187
96,244,121565,2,0,B|168:324,1,102.00000243187,8|0
260,352,121868,5,0
320,268,122020,1,0
420,244,122172,1,8
424,140,122323,1,0
260,32,122475,5,2
200,116,122627,1,0
100,140,122778,1,10
96,244,122930,1,0
261,353,123082,6,0,B|168:312,1,102.00000243187
417,186,123385,2,0,B|376:280,1,102.00000243187,8|0
250,30,123689,2,0,B|344:72,1,102.00000243187
152,56,123992,1,8
60,104,124144,5,0
60,128,124220,1,0
60,152,124296,1,10
60,204,124447,1,8
60,256,124599,1,10
60,308,124751,1,8
60,360,124902,5,10
452,360,125206,1,10
256,48,125509,6,0,B|204:48|172:84,1,85,4|0
116,148,125813,2,0,B|168:148|200:184,1,85,10|0
244,256,126116,1,0
348,168,126268,1,0
244,256,126419,1,10
348,168,126571,1,0
432,212,126723,6,0,B|480:188|480:132,1,85
396,100,127026,2,0,B|372:52|316:52,1,85,10|0
244,96,127330,1,0
112,60,127481,1,2
244,96,127633,1,10
112,60,127785,1,0
40,120,127936,6,0,B|8:152|0:200,2,85,0|0|10
112,60,128392,1,0
164,140,128543,2,0,B|184:180|232:192,1,85
312,236,128847,2,0,B|267:247|247:287,1,85,10|0
232,304,129074,1,0
220,320,129150,5,10
136,356,129302,1,8
48,320,129454,1,10
292,64,129757,1,10
376,28,129909,1,8
464,64,130060,1,10
320,184,130364,6,0,B|320:284,1,85,4|0
400,320,130667,2,0,B|400:220,1,85,10|0
400,140,130971,1,0
476,184,131122,1,0
400,235,131274,1,10
320,184,131426,1,0
240,236,131577,6,0,B|240:136,1,85,4|0
160,100,131881,2,0,B|160:200,1,85,10|0
160,280,132184,1,0
84,236,132336,1,2
160,185,132488,1,10
240,236,132639,1,0
320,184,132791,6,0,B|388:128,1,85,4|0
192,184,133095,2,0,B|124:128,1,85,10|0
256,36,133398,2,0,B|256:220,1,170,0|10
256,300,133853,1,0
256,300,133929,1,0
256,300,134005,1,10
256,208,134156,1,10
64,340,134460,1,10
448,340,134763,2,0,B|536:340,2,85,10|10|0
364,300,135218,5,4
310,376,135370,1,0
256,300,135522,2,0,B|256:200,1,85,10|0
364,192,135825,2,0,B|264:192,1,85
392,168,136129,2,0,B|392:68,1,85,10|0
304,44,136432,5,0
392,83,136584,1,0
304,44,136735,1,10
392,83,136887,1,0
304,44,137039,2,0,B|212:16,2,85,0|2|10
392,83,137494,1,0
476,124,137646,6,0,B|476:212,1,85
392,252,137949,2,0,B|392:164,1,85,10|0
304,132,138253,1,0
212,152,138404,1,0
164,72,138556,1,10
84,24,138708,1,0
84,24,138784,1,0
84,24,138859,5,10
36,104,139011,1,8
72,192,139163,1,10
428,360,139466,1,10
476,280,139618,1,8
440,192,139770,1,10
268,120,140073,6,0,B|352:64,1,85,12|0
428,100,140376,1,10
428,100,140528,1,0
440,192,140680,1,10
440,192,140832,1,0
476,280,140983,1,10
476,280,141135,1,0
396,328,141287,6,0,B|316:280,1,85,12|0
240,328,141590,1,10
240,328,141742,1,0
156,292,141893,1,10
156,292,142045,1,0
124,204,142197,1,10
124,204,142349,1,0
76,124,142500,5,4
92,112,142576,1,0
112,104,142652,1,0
132,104,142728,1,0
152,108,142804,1,8
172,116,142880,1,0
188,128,142955,1,0
204,144,143031,1,0
216,160,143107,5,4
228,176,143183,1,0
240,192,143259,1,0
256,208,143335,1,0
272,224,143411,1,8
292,232,143486,1,0
312,236,143562,1,0
332,236,143638,1,0
352,228,143714,1,4
256,192,143790,12,0,144928
256,40,146445,5,8
256,124,146748,1,8
256,208,147052,1,8
256,292,147355,5,4
168,328,147507,1,0
80,304,147658,2,0,B|64:264|80:216,1,85,8|0
256,208,147962,5,0
344,244,148113,1,0
432,220,148265,2,0,B|448:180|432:132,1,85,8|0
256,124,148569,5,0
168,160,148720,1,0
80,136,148872,2,0,B|64:96|80:48,1,85,8|0
256,40,149175,2,0,B|344:8|424:40,1,170,0|8
512,96,149631,1,0
432,160,149782,5,0
512,224,149934,1,0
432,296,150086,2,0,B|344:288,1,85,8|0
264,144,150389,5,0
344,208,150541,1,0
264,280,150692,2,0,B|176:272,1,85,8|0
137,266,150920,1,0
96,260,150996,5,8
176,196,151148,1,8
96,124,151299,2,0,B|8:132,1,85,8|8
0,32,151603,2,0,B|88:40|184:48,1,170,8|8
336,184,152210,5,4
424,152,152361,1,0
484,76,152513,2,0,B|520:108|520:152,1,85,8|0
484,292,152816,5,0
396,260,152968,1,0
336,184,153120,2,0,B|300:216|300:260,1,85,8|0
216,200,153423,5,0
128,232,153575,1,0
68,308,153727,2,0,B|32:276|32:232,1,85,8|0
144,368,154030,2,0,B|232:408|312:360,1,170,0|8
307,362,154485,1,8
416,360,154637,6,0,B|432:272,1,85
431,276,154940,1,8
496,124,155244,2,0,B|512:212,1,85
511,207,155547,1,8
420,180,155699,1,0
420,180,155775,1,0
420,180,155851,2,0,B|324:172,1,85,4|0
184,228,156154,2,0,B|268:235,1,85,8|0
144,136,156457,2,0,B|59:187|104:288,1,170,0|8
112,304,156837,1,0
124,324,156912,1,0
136,344,156988,1,0
148,364,157064,5,4
32,344,157216,1,0
16,224,157368,2,0,B|8:144|16:48,1,170,8|0
208,24,157823,5,0
224,144,157974,2,0,B|232:224|224:320,1,170,8|0
408,336,158430,5,0
392,216,158581,2,0,B|384:136|392:40,2,170,8|0|8
504,264,159340,1,8
408,336,159491,5,4
296,288,159643,1,0
272,296,159719,1,0
248,304,159795,2,0,B|160:328|160:328,1,85,8|0
31,302,160098,5,0
0,168,160250,1,0
27,176,160326,1,0
54,184,160402,2,0,B|144:165|144:165,1,85,8|0
168,171,160629,1,0
200,176,160705,1,12
264,88,160857,1,8
360,144,161009,1,8
264,88,161160,1,0
200,176,161312,1,12
264,88,161464,1,8
360,144,161615,1,8
464,104,161767,1,0
476,80,161843,1,0
488,56,161919,6,0,B|392:40,1,85,12|0
512,184,162222,2,0,B|416:168,1,85,8|0
412,370,162526,2,0,B|496:384,1,85,8|0
388,242,162829,2,0,B|472:256,1,85,8|0
312,232,163132,6,0,B|228:218,1,85,12|0
336,360,163436,2,0,B|252:346,1,85,8|0
268,146,163739,2,0,B|351:159,1,85,8|0
244,18,164043,2,0,B|327:31,1,85,8|0
168,56,164346,5,12
135,62,164422,1,0
103,68,164498,1,0
70,74,164574,1,0
59,106,164649,1,8
80,132,164725,1,0
100,157,164801,1,0
121,183,164877,1,0
157,184,164953,5,8
178,210,165029,1,0
198,235,165105,1,0
219,261,165180,1,0
208,293,165256,1,8
175,299,165332,1,0
143,305,165408,1,0
110,312,165484,1,0
78,318,165560,6,0,B|30:310,3,42.5,12|0|0|0
72,240,165863,2,0,B|24:232,3,42.5,8|0|0|0
207,128,166167,6,0,B|255:136,3,42.5,8|0|0|0
201,50,166470,2,0,B|249:58,3,42.5,8|0|0|0
256,192,166773,12,4,169201
256,64,170414,5,10
128,192,170566,1,0
256,320,170718,1,10
384,192,170869,1,0
128,192,171021,2,0,B|312:192,2,170,2|2|4
108,128,181337,5,0
124,116,181413,1,0
144,108,181489,1,0
164,104,181565,1,0
184,104,181641,1,0
204,108,181716,1,0
224,116,181792,1,0
244,128,181868,1,0
260,140,181944,1,0
276,156,182020,1,0
288,172,182096,1,0
300,192,182172,1,0
312,212,182247,2,0,B|336:252,3,42.5
348,264,182551,5,0
364,276,182627,1,0
384,284,182703,1,0
404,288,182778,1,0
424,288,182854,1,0
444,284,182930,1,0
464,276,183006,1,0
480,264,183082,1,0
492,248,183158,1,0
500,228,183234,1,0
500,208,183309,1,0
492,188,183385,1,0
480,168,183461,2,0,B|452:136,3,42.5
436,124,183765,5,0
416,116,183840,1,0
396,112,183916,1,0
376,112,183992,1,0
356,116,184068,1,0
336,124,184144,1,0
320,136,184220,1,0
304,152,184296,1,0
288,164,184371,1,0
268,172,184447,1,0
248,176,184523,1,0
228,176,184599,1,0
208,172,184675,2,0,B|168:156,3,42.5
148,152,184978,5,0
128,152,185054,1,0
108,156,185130,1,0
88,164,185206,1,0
68,176,185282,1,0
52,192,185357,1,0
44,212,185433,1,0
40,232,185509,1,0
40,252,185585,1,0
44,272,185661,1,0
52,292,185737,1,0
64,308,185813,1,0
80,324,185888,2,0,B|116:360,3,42.5
132,356,186192,6,0,B|168:336,1,42.5
192,340,186344,2,0,B|236:364,1,42.5
252,356,186495,2,0,B|304:336,1,42.5
312,332,186647,2,0,B|364:340,1,42.5
376,332,186799,2,0,B|424:308,1,42.5
432,304,186950,2,0,B|448:260,1,42.5
440,244,187102,2,0,B|420:200,3,42.5
428,184,187406,6,0,B|440:144,1,42.5
428,124,187557,2,0,B|396:84,1,42.5
380,92,187709,2,0,B|344:112,1,42.5
324,104,187861,2,0,B|288:80,1,42.5
268,88,188012,2,0,B|232:112,1,42.5
212,108,188164,2,0,B|168:96,1,42.5
152,104,188316,2,0,B|112:120,3,42.5
96,132,188619,6,0,B|60:168,3,42.5
72,184,188923,2,0,B|88:224,3,42.5
76,244,189226,2,0,B|48:280,3,42.5
56,296,189529,2,0,B|72:336,3,42.5
88,348,189833,5,0
108,348,189909,1,0
128,348,189985,1,0
148,348,190060,1,0
168,348,190136,1,0
188,348,190212,1,0
208,348,190288,1,0
228,348,190364,1,0
248,348,190440,1,0
268,348,190515,1,0
288,348,190591,1,0
308,348,190667,1,0
328,348,190743,1,0
348,348,190819,1,0
368,348,190895,1,0
388,348,190971,1,0
408,348,191046,1,0
444,112,191350,5,8
256,260,191653,1,8
68,112,191957,1,8
484,348,192564,5,8
28,348,193170,1,8
28,348,193322,1,8
256,48,193625,1,8
256,48,193777,1,8
256,336,194081,1,8
256,48,194384,2,0,B|256:160,1,85
364,208,194687,6,0,B|372:156|372:156|344:104,1,102.00000243187,4|0
163,112,194991,2,0,B|140:156|140:156|148:208,1,102.00000243187,8|0
184,312,195294,1,0
220,324,195370,1,0
256,336,195446,1,0
292,324,195522,1,0
328,312,195598,1,8
432,344,195749,6,0,B|504:312|520:248|472:168,1,204.000004863739
480,56,196204,1,8
372,40,196356,1,0
372,40,196432,1,0
372,40,196508,2,0,B|268:16,1,102.00000243187,2|8
144,120,196811,2,0,B|248:96,1,102.00000243187,10|0
344,160,197115,5,0
288,280,197266,1,0
168,224,197418,1,8
224,104,197570,1,0
361,153,197722,5,0
294,297,197873,1,0
150,230,198025,1,8
48,304,198177,2,0,B|-24:224|32:104,1,204.000004863739
124,76,198632,1,8
208,16,198784,1,0
208,16,198859,1,0
208,16,198935,2,0,B|320:24,1,102.00000243187,2|8
453,127,199239,2,0,B|352:120,1,102.00000243187,10|0
496,48,199542,5,4
416,208,199694,1,0
456,37,199845,1,8
452,216,199997,1,0
415,44,200149,1,0
488,208,200301,1,0
384,72,200452,2,0,B|284:60,1,102.00000243187,8|0
120,216,200756,5,0
200,56,200907,1,0
160,227,201059,1,8
164,48,201211,1,0
201,220,201363,1,2
128,56,201514,1,8
232,192,201666,2,0,B|333:204,1,102.00000243187,10|0
456,224,201969,6,0,B|504:296|448:376|368:352,1,204.000004863739,0|8
272,328,202424,1,0
176,352,202576,1,0
80,320,202728,1,0
40,232,202880,1,8
64,136,203031,1,0
64,136,203107,1,0
64,136,203183,6,0,B|48:32,1,102.00000243187,10|0
160,160,203486,2,0,B|144:56,1,102.00000243187,10|0
256,184,203790,2,0,B|240:80,1,102.00000243187,10|0
352,208,204093,1,10
60,296,204397,5,4
60,296,204548,1,0
148,244,204700,1,8
240,284,204852,1,0
332,240,205003,1,0
332,340,205155,1,0
332,340,205231,1,0
332,340,205307,1,8
424,296,205459,1,0
484,216,205610,6,0,B|484:108,1,102.00000243187
312,40,205914,2,0,B|312:148,1,102.00000243187,8|0
484,216,206217,5,2
312,142,206369,1,8
484,114,206521,1,10
312,40,206672,1,0
228,192,206824,6,0,B|196:240|136:252,1,102.00000243187
28,112,207127,2,0,B|79:86|137:106,1,102.00000243187,8|0
312,96,207431,2,0,B|337:147|317:205,1,102.00000243187
260,280,207734,1,8
168,236,207886,5,0
168,236,207962,1,0
168,236,208038,1,8
104,156,208189,1,8
104,156,208341,1,8
172,80,208493,1,0
172,80,208569,1,0
172,80,208644,1,10
292,52,208796,1,8
428,96,208948,1,10
508,240,209100,1,0
452,328,209251,6,0,B|428:280|388:248,1,102.00000243187,4|0
336,160,209555,2,0,B|312:208|272:240,1,102.00000243187,8|0
220,328,209858,2,0,B|324:328,2,102.00000243187,0|0|8
120,300,210313,1,0
152,204,210465,6,0,B|192:172|204:108,1,102.00000243187
309,117,210768,2,0,B|320:172|360:204,1,102.00000243187,8|0
152,204,211072,1,2
309,117,211223,1,8
202,117,211375,1,10
360,204,211527,1,0
256,276,211679,6,0,B|204:292|156:276,1,102.00000243187
256,108,211982,2,0,B|308:92|356:108,1,102.00000243187,8|0
256,192,212285,2,0,B|204:208|156:192,1,102.00000243187
256,24,212589,2,0,B|308:8|356:24,1,102.00000243187,8|0
380,32,212816,5,0
400,44,212892,1,10
340,148,213044,1,8
464,148,213196,1,10
400,248,213347,1,8
484,332,213499,5,10
28,332,213802,1,10
256,52,214106,6,0,B|256:152,1,85,4|0
256,336,214409,2,0,B|256:236,1,85,8|0
112,192,214713,1,0
400,192,214864,1,0
256,252,215016,1,8
256,136,215168,1,0
196,192,215320,6,0,B|100:192,1,85
316,192,215623,2,0,B|412:192,1,85,8|0
196,192,215926,1,0
316,192,216078,1,0
256,136,216230,1,8
256,251,216381,1,0
176,300,216533,6,0,B|140:324|88:324,1,85
52,240,216837,1,8
52,240,216988,1,0
40,148,217140,2,0,B|84:147|120:171,2,85,0|0|8
80,64,217595,1,0
80,64,217671,1,0
80,64,217747,5,8
168,92,217899,1,8
244,36,218050,1,8
432,320,218354,1,8
344,292,218505,1,8
268,348,218657,1,8
100,264,218960,6,0,B|140:228|140:228|192:228,1,85,4|0
228,156,219264,2,0,B|259:156|259:156|299:120,1,85,8|0
388,88,219567,1,0
508,180,219719,1,0
508,88,219871,1,8
388,180,220022,1,0
304,224,220174,5,4
196,308,220326,1,0
88,224,220478,1,8
196,308,220629,1,0
304,224,220781,5,0
412,308,220933,1,0
304,224,221084,1,8
196,308,221236,1,0
88,224,221388,6,0,B|88:120,1,85,4|0
312,64,221691,2,0,B|312:168,1,85,8|0
200,149,221995,2,0,B|200:64,1,85
424,139,222298,2,0,B|424:224,1,85,8|0
424,244,222526,1,0
424,264,222601,6,0,B|424:352,1,85,12|8
88,349,223057,1,8
256,184,223360,2,0,B|256:276,2,85,8|0|0
256,80,223815,6,0,B|224:48|168:56,1,85,4|0
8,156,224119,1,8
76,80,224270,1,0
112,176,224422,6,0,B|88:220|112:264,1,85
248,384,224725,1,8
152,344,224877,1,0
152,344,224953,1,0
152,344,225029,5,0
248,384,225181,1,0
328,320,225332,1,8
416,352,225484,1,0
480,224,225636,5,0
388,264,225787,1,0
304,200,225939,1,8
216,232,226091,1,0
128,264,226242,6,0,B|96:232|112:176,1,85
200,24,226546,1,8
136,96,226698,1,0
232,112,226849,6,0,B|272:128|320:120,1,85,0|0
492,80,227153,1,8
408,120,227304,1,0
408,120,227380,1,0
408,120,227456,6,0,B|440:208,1,85,8|8
376,312,227760,2,0,B|347:232,1,85,8|0
232,184,228063,2,0,B|264:272,1,85,8|8
200,376,228366,2,0,B|171:296,1,85,8|0
80,320,228670,6,0,B|-16:312,1,85,12|8
80,136,228973,1,8
8,208,229125,1,8
176,104,229277,6,0,B|184:200,1,85,8|8
360,104,229580,1,8
288,176,229732,1,8
288,176,229808,1,0
288,176,229883,5,12
388,200,230035,1,8
360,104,230187,1,8
224,240,230339,1,8
416,284,230490,1,8
360,104,230642,1,8
288,176,230794,1,8
388,200,230945,1,8
416,284,231097,5,12
396,296,231173,1,0
376,304,231249,1,0
356,312,231325,1,0
336,316,231400,1,0
316,320,231476,1,0
296,324,231552,1,0
276,328,231628,1,0
256,332,231704,1,12
236,328,231780,1,0
216,324,231856,1,0
196,320,231932,1,0
176,316,232008,1,0
156,312,232083,1,0
136,304,232159,1,0
116,296,232235,1,0
96,284,232311,5,12
116,272,232387,1,0
136,264,232463,1,0
156,256,232539,1,0
176,252,232614,1,0
196,248,232690,1,0
216,244,232766,1,0
236,240,232842,1,0
256,236,232918,1,12
276,240,232994,1,0
296,244,233070,1,0
316,248,233146,1,0
336,252,233222,1,0
356,256,233297,1,0
376,264,233373,1,0
396,272,233449,1,0
416,284,233525,5,0
268,360,233676,1,10
196,224,233828,1,0
344,148,233979,1,10
416,284,234131,2,0,B|348:344|260:360,1,170,10|10
244,24,234738,5,4
256,192,234890,12,0,239593
