osu file format v7

[General]
AudioFilename: CaramellDansen (Ryu Remix).mp3
AudioLeadIn: 0
PreviewTime: -1
Countdown: 1
SampleSet: Soft
StackLeniency: 0.4
Mode: 0
LetterboxInBreaks: 1

[Editor]
DistanceSpacing: 0.899999976158142
BeatDivisor: 4
GridSize: 8

[Metadata]
Title:Caramell Dansen (Ryu Remix)
Artist:Caramell
Creator:jericho2442
Version:Pure MADNESS!!!
Source:
Tags:

[Difficulty]
HPDrainRate:5
CircleSize:4
OverallDifficulty:8
SliderMultiplier:1.7
SliderTickRate:1

[Events]
//Background and Video events
0,0,"CaramellDansen.jpg"
//Break Periods
2,82753,92411
2,136787,146776
2,187505,197163
//Storyboard Layer 0 (Background)
//Storyboard Layer 1 (Fail)
//Storyboard Layer 2 (Pass)
//Storyboard Layer 3 (Foreground)
//Storyboard Sound Samples
//Background Colour Transformations
3,100,0,0,0

[TimingPoints]
1670,331.491712707182,4,2,1,100,1,0
14691,-100,4,1,1,100,0,0
61338,-100,4,1,1,100,0,1
71614,-100,4,1,1,100,0,0
93161,-100,4,1,1,100,0,1
104763,-100,4,1,1,100,0,0
111072,-50,4,1,1,100,0,0
125078,-100,4,1,1,100,0,0
126310,-100,4,1,1,100,0,1
136587,-100,4,1,1,100,0,0
158227,-50,4,2,1,100,0,0
176293,-100,4,1,1,100,0,0
222868,-50,4,1,1,100,0,0
223106,-50,4,1,1,100,0,1
256255,-100,4,1,1,100,0,0

[Colours]
Combo1 : 128,0,128
Combo2 : 102,102,102

[HitObjects]
224,352,1670,2,8,B|96:352|96:216|96:216,1,170
168,256,2167,2,0,B|208:168|176:64|48:64|48:64,1,255
288,352,2995,2,8,B|416:352|416:216|416:216,1,170
344,256,3493,2,0,B|304:168|336:64|464:64|464:64,1,255
256,32,4321,6,8,B|152:32|152:32,1,85
104,32,4653,1,0
136,96,4819,2,0,B|-8:232|168:320|168:320,1,255
256,352,5647,2,8,B|360:352|360:352,1,85
408,352,5979,1,0
376,288,6145,2,8,B|520:152|344:64|344:64,1,255
232,32,6973,6,8,B|128:32|128:32,1,85
56,96,7305,2,0,B|168:96|168:96,1,85,0|8
232,160,7636,2,0,B|144:160|144:160,1,85,0|0
56,224,7968,2,0,B|144:224|144:224,1,85
232,288,8299,5,8
296,264,8465,1,8
336,208,8631,1,0
352,144,8797,1,0
368,80,8962,1,8
432,80,9128,1,0
464,144,9294,1,0
496,200,9460,1,0
496,272,9625,6,8,B|496:384|344:368|344:368,1,170
312,368,10123,2,0,B|208:304|288:176|432:248|432:248,1,255
256,200,10951,2,8,B|256:16|256:16,1,170
184,32,11449,2,0,B|184:304|184:304,1,255
80,200,12277,5,0
352,200,12609,1,0
104,80,12940,2,8,B|152:112|152:112,2,42.5
216,160,13272,2,0,B|192:200|192:200,2,42.5
328,80,13603,2,8,B|360:120|360:120,2,42.5
440,160,13935,2,0,B|416:216|416:216,2,42.5
312,200,14266,1,0
200,280,14432,1,0
88,200,14598,1,8
256,32,14929,5,8
40,192,15261,1,0
256,352,15592,1,8
392,352,15758,1,0
328,232,15924,1,0
464,232,16089,1,0
400,112,16255,1,8
264,120,16421,1,0
128,120,16587,1,0
208,232,16752,1,0
136,352,16918,1,8
32,96,17250,1,0
296,32,17581,6,0,B|360:112|360:112,1,85,8|0
216,136,17913,2,0,B|288:88|288:88,1,85
336,216,18244,2,0,B|272:136|272:136,1,85,8|0
200,256,18576,2,0,B|272:208|272:208,1,85
272,344,18907,5,8
408,344,19073,1,0
480,224,19239,1,0
408,344,19404,1,0
272,344,19570,1,8
136,344,19736,1,0
72,224,19902,1,0
136,104,20067,1,0
272,104,20233,6,0,B|272:48|336:48|336:48,1,85,8|0
392,168,20565,2,0,B|392:224|328:224|328:224,1,85,0|0
272,104,20896,2,0,B|272:48|336:48|336:48,1,85,8|0
392,168,21228,2,0,B|392:224|328:224|328:224,1,85,0|0
216,280,21559,6,0,B|176:312|120:272|120:272,1,85,8|0
176,152,21890,1,0
40,152,22056,1,0
40,288,22222,2,0,B|40:336|40:336|96:360|96:360,1,85,8|0
208,352,22553,1,0
344,352,22719,1,0
480,192,22885,6,0,B|384:192|384:192,1,85,8|0
480,32,23216,2,0,B|392:32|392:32,1,85
395,192,23548,2,0,B|307:192|307:192,1,85,8|0
395,32,23879,2,0,B|307:32|307:32,1,85
192,32,24211,6,0,B|192:128|192:128,1,85,8|0
32,32,24542,2,0,B|32:120|32:120,1,85
192,117,24874,2,0,B|192:205|192:205,1,85,8|0
32,117,25205,2,0,B|32:205|32:205,1,85
160,352,25537,5,8
256,256,25703,1,0
160,160,25868,1,0
64,256,26034,1,0
160,352,26200,1,8
256,256,26366,1,0
160,160,26531,1,0
64,256,26697,1,0
160,352,26863,5,8
296,352,27029,1,0
432,352,27194,1,0
296,352,27360,1,4
32,32,28189,5,8
480,192,28520,1,0
32,352,28852,1,8
144,272,29018,1,0
32,192,29183,1,0
144,112,29349,1,0
280,112,29515,6,0,B|352:192|352:192,1,85,8|0
424,280,29846,2,0,B|360:200|360:200,1,85
240,264,30178,1,8
256,192,30509,5,2
480,32,30841,5,8
32,192,31172,1,0
480,352,31504,1,8
368,272,31669,1,0
480,192,31835,1,0
368,112,32001,1,0
232,112,32167,6,0,B|160:192|160:192,1,85,8|0
88,280,32498,2,0,B|152:200|152:200,1,85
272,264,32830,1,8
256,192,32995,5,0
256,192,33161,1,0
32,352,33493,5,8
32,32,33824,1,0
32,352,34156,1,8
96,232,34321,1,0
160,352,34487,1,0
216,232,34653,1,0
352,232,34819,5,8
464,160,34984,1,0
384,48,35150,1,0
272,120,35316,1,0
352,232,35482,1,8
256,200,35813,5,0
32,32,36145,5,8
480,32,36476,1,0
480,352,36808,1,8
344,352,36973,1,0
432,248,37139,2,0,B|336:248|336:248,1,85
88,160,37636,5,0
360,160,37968,1,0
88,160,38299,1,0
360,160,38631,1,0
256,192,38797,12,0,40123
256,352,40288,5,0
360,264,40454,1,2
256,176,40620,1,0
360,88,40786,1,2
96,32,41117,1,2
32,152,41283,1,0
168,152,41449,1,2
96,272,41614,1,0
360,352,41946,5,2
496,352,42111,1,0
496,280,42194,1,0
496,208,42277,1,0
496,72,42443,1,0
496,208,42609,1,0
360,208,42774,5,2
288,208,42857,1,0
216,208,42940,1,0
96,144,43106,1,2
168,144,43189,1,0
240,144,43272,1,0
360,80,43437,1,0
288,80,43520,1,0
216,80,43603,1,0
80,80,43769,1,2
40,136,43852,1,0
64,200,43935,1,0
136,312,44100,5,2
136,312,44266,1,2
408,312,44598,1,0
256,80,44929,1,2
328,192,45095,1,2
256,312,45261,1,2
128,352,45426,5,0
32,256,45592,1,0
168,224,45758,2,0,B|120:264|120:264,2,42.5,2|0|2
304,200,46089,1,0
208,104,46255,1,0
344,72,46421,2,0,B|296:112|296:112,2,42.5,2|0|2
480,72,46752,5,0
480,208,46918,1,0
480,344,47084,2,0,B|432:344|432:344,2,42.5,2|0|2
344,344,47415,1,0
208,344,47581,1,0
72,344,47747,2,0,B|128:344|128:344,2,42.5,2|0|2
72,208,48078,2,0,B|40:88|176:64|176:64,1,170,2|0
216,192,48576,2,0,B|336:208|376:136|344:8|344:8,1,255,2|0
480,272,49404,5,8
344,272,49570,1,0
416,152,49736,1,8
352,32,49902,1,0
288,152,50067,1,8
224,32,50233,1,0
160,152,50399,1,8
288,152,50565,1,0
216,272,50730,1,8
80,272,50896,5,4
352,272,51228,1,4
80,272,51559,1,4
344,200,51890,1,4
80,272,52222,1,4
312,136,52553,1,4
80,272,52885,1,4
80,272,53051,1,4
32,32,53548,5,4
480,32,53879,1,4
480,352,54211,1,4
32,352,54542,1,4
32,32,54874,1,4
480,32,55205,1,4
480,352,55537,1,4
480,352,55703,1,4
256,192,56034,6,0,B|160:192|160:192,1,85
216,64,56366,1,4
288,64,56449,1,0
360,64,56531,1,4
320,192,56697,2,0,B|416:192|416:192,1,85
360,320,57029,1,4
288,320,57111,1,0
216,320,57194,1,4
168,192,57360,5,0
32,192,57526,1,0
168,192,57692,1,4
176,56,57857,1,4
312,56,58023,1,0
320,192,58189,1,0
456,192,58355,1,4
320,192,58520,1,4
392,312,58686,5,0
120,312,59018,1,4
56,48,59349,1,0
328,48,59681,1,8
88,184,60012,1,0
224,184,60178,5,0
360,184,60344,1,2
224,184,60509,1,0
360,184,60675,1,2
224,184,60841,1,0
224,320,61007,1,2
296,320,61089,1,0
368,320,61172,1,0
440,320,61255,1,0
440,256,61338,5,2
440,120,61504,1,0
304,120,61669,1,2
168,120,61835,1,0
304,120,62001,1,2
304,256,62167,1,0
168,256,62332,1,2
32,256,62498,1,0
168,256,62664,5,2
168,120,62830,1,0
32,120,62995,1,2
32,256,63161,1,0
32,120,63327,1,2
168,120,63493,2,0,B|216:48|216:48,1,85,0|2
352,48,63824,2,0,B|351:46|399:118,1,85,0|2
400,256,64156,5,0
264,256,64321,2,0,B|264:344|264:344,1,85,2|0
160,256,64653,1,2
24,256,64819,1,0
72,128,64984,2,0,B|176:128|176:128,1,85,2|0
296,128,65316,1,2
432,128,65482,1,0
432,128,65565,1,0
432,128,65647,1,2
432,128,65730,1,0
432,128,65813,1,0
432,128,65896,1,0
432,128,65979,1,2
296,128,66145,1,0
160,128,66310,1,2
40,192,66476,5,0
40,328,66642,1,2
152,256,66808,1,0
152,256,66890,1,0
152,256,66973,1,2
272,192,67139,1,0
272,328,67305,1,2
392,264,67471,1,0
392,264,67553,1,0
392,264,67636,1,2
392,128,67802,5,0
272,64,67968,1,2
152,128,68134,1,0
152,128,68216,1,0
152,128,68299,1,2
272,192,68465,1,0
272,328,68631,1,2
152,256,68797,1,0
152,256,68879,1,0
152,256,68962,1,2
32,192,69128,5,0
32,56,69294,2,0,B|128:56|128:56,1,85,2|0
256,56,69625,2,0,B|160:56|160:56,1,85,2|0
304,56,69957,2,0,B|408:56|408:56,1,85,2|0
488,152,70288,2,0,B|424:88|424:88,1,85,2|0
368,216,70620,6,0,B|472:216|472:216,1,85,2|0
282,216,70951,2,0,B|378:216|378:216,1,85,2|0
197,215,71283,2,0,B|289:216|289:216,1,85,2|0
111,214,71614,1,2
32,352,71946,5,8
32,32,72277,1,0
480,32,72609,1,8
376,120,72774,1,0
480,208,72940,1,0
376,296,73106,1,0
120,192,73437,5,4
392,192,73769,1,4
120,192,74100,1,4
256,192,74266,1,4
32,352,74598,5,8
480,352,74929,1,0
32,352,75261,1,8
88,224,75426,1,0
224,224,75592,1,0
248,88,75758,1,0
480,32,76089,5,4
480,168,76255,1,0
480,304,76421,1,4
480,168,76587,1,0
344,168,76752,1,4
344,304,76918,1,4
32,168,77250,5,8
480,168,77581,1,0
32,168,77913,1,8
32,304,78078,1,0
32,168,78244,1,0
32,32,78410,1,0
304,32,78741,5,4
312,96,78824,1,0
280,152,78907,1,0
168,232,79073,1,4
32,304,79239,1,0
32,232,79321,1,0
104,232,79404,1,4
240,232,79570,1,4
480,352,79902,5,8
488,32,80233,1,0
32,32,80565,2,0,B|32:128|32:128,1,85,8|0
160,80,80896,2,0,B|72:80|72:80,1,85
32,352,81393,5,4
96,352,81476,1,0
160,352,81559,1,0
296,352,81725,1,4
224,232,81890,1,0
160,232,81973,1,0
96,232,82056,1,4
128,104,82222,1,4
400,104,82553,1,2
128,360,93161,6,0,B|16:360|16:360,1,85,8|0
213,360,93493,2,0,B|117:360|117:360,1,85
299,360,93824,2,0,B|200:360|200:360,1,85,8|0
384,359,94156,2,0,B|294:359|294:359,1,85
384,256,94487,6,0,B|496:256|496:256,1,85,8|0
299,256,94819,2,0,B|395:256|395:256,1,85
213,256,95150,2,0,B|306:256|306:256,1,85,8|0
128,255,95482,2,0,B|218:255|218:255,1,85
128,144,95813,6,0,B|16:144|16:144,1,85,8|0
213,144,96145,2,0,B|117:144|117:144,1,85
299,144,96476,2,0,B|206:144|206:144,1,85,8|0
384,143,96808,2,0,B|294:143|294:143,1,85
387,40,97139,6,0,B|499:40|499:40,1,85,8|0
302,40,97471,2,0,B|398:40|398:40,1,85
216,40,97802,2,8,B|309:40|309:40,1,85
131,39,98134,2,0,B|221:39|221:39,1,85
120,136,98465,6,0,B|19:86|19:86,1,85,8|0
196,173,98797,2,0,B|109:130|109:130,1,85
273,210,99128,2,0,B|189:169|189:169,1,85,8|0
350,247,99460,2,0,B|269:207|269:207,1,85
352,320,99791,5,8
352,320,99957,1,0
352,48,100288,1,0
216,48,100454,1,8
80,48,100620,1,0
216,48,100786,1,0
392,136,101117,6,0,B|492:86|492:86,1,85,8|0
316,173,101449,2,0,B|402:130|402:130,1,85
239,210,101780,2,0,B|322:169|322:169,1,85,8|0
162,247,102111,2,0,B|242:207|242:207,1,85
32,352,102609,5,4
480,352,102940,1,4
480,32,103272,1,4
480,352,103603,1,4
256,192,103769,12,2,104763
32,352,105095,6,0,B|32:256|32:256,1,85
32,128,105426,1,2
128,32,105592,1,2
264,32,105758,2,0,B|264:128|264:128,1,85
264,256,106089,1,2
360,352,106255,1,2
496,352,106421,2,0,B|496:264|496:264,1,85
360,32,106918,1,2
16,352,107747,6,0,B|128:376|160:264|160:264,1,170
40,200,108244,2,0,B|80:104|160:80|272:136|272:136,1,255,8|0
496,352,109073,2,0,B|384:376|352:264|352:264,1,170
472,200,109570,2,0,B|432:104|352:80|240:136|240:136,1,255,8|0
256,352,110399,5,2
256,280,110482,1,0
256,208,110565,1,0
256,136,110647,1,0
256,64,110730,1,2
120,64,110896,1,0
32,352,111228,6,0,B|216:352|216:352,2,170,0|4|0
480,192,111890,2,0,B|296:192|296:192,2,170,0|4|0
32,32,112553,2,0,B|216:32|216:32,2,170,0|4|0
472,352,113216,2,0,B|472:168|472:168,2,170,0|4|0
256,32,113879,2,0,B|256:216|256:216,2,170,0|4|0
32,352,114542,6,0,B|216:352|216:352,1,170,0|2
200,280,114874,2,0,B|16:280|16:280,1,170
32,40,115371,2,0,B|208:40|208:40,1,170,2|0
480,32,115868,6,4,B|480:376|480:376,1,340
256,368,116531,2,4,B|256:24|256:24,1,340
32,32,117194,2,4,B|32:376|32:376,1,340
256,192,117857,1,4
256,192,118023,1,4
88,24,118520,6,4,B|456:24|456:24,1,340
424,192,119183,2,4,B|56:192|56:192,1,340
88,360,119846,2,4,B|456:360|456:360,1,340
256,192,120509,1,4
256,192,120675,1,4
32,32,121007,6,0,B|208:32|208:32,1,170,0|4
208,104,121338,1,0
208,104,121504,1,4
208,176,121669,2,0,B|384:176|384:176,1,170,0|4
384,248,122001,1,0
384,248,122167,1,4
384,320,122332,2,4,B|208:320|208:320,1,170
208,248,122664,1,0
208,248,122830,1,4
208,176,122995,6,0,B|32:176|32:176,1,170,0|4
40,104,123327,2,0,B|216:104|216:104,1,170,0|4
280,104,123658,1,0
256,192,123824,12,2,124984
136,192,126310,6,0,B|240:192|240:192|232:192,1,85,2|0
360,192,126642,2,0,B|256:192,1,85,2|0
168,104,126973,2,0,B|232:168|232:168,1,85,2|0
328,264,127305,2,0,B|256:192|256:192,1,85,2|0
248,72,127636,2,0,B|248:168|248:168,1,85,2|0
248,296,127968,2,0,B|248:200|248:200,1,85,2|0
344,104,128299,2,0,B|280:168|280:168,1,85,2|0
184,264,128631,2,0,B|256:192|256:192,1,85,2|0
120,272,128962,6,0,B|120:184|120:184,1,85,8|0
176,336,129294,2,0,B|112:264|112:264,1,85,8|0
261,335,129625,2,0,B|173:335|173:335,1,85,8|0
347,335,129957,2,0,B|259:335|259:335,1,85,8|0
347,250,130288,6,0,B|347:338|347:338,1,85,8|0
291,186,130620,2,0,B|355:258|355:258,1,85,8|0
206,187,130951,2,0,B|294:187|294:187,1,85,8|0
120,187,131283,2,0,B|208:187|208:187,1,85,8|0
120,80,131614,5,2
256,80,131780,1,0
392,80,131946,1,2
480,184,132111,1,0
392,80,132277,5,2
256,80,132443,1,0
168,184,132609,1,2
256,288,132774,1,0
168,184,132940,5,2
32,184,133106,1,0
120,288,133272,1,2
256,288,133437,1,0
120,288,133603,5,2
32,184,133769,1,0
120,80,133935,1,2
256,80,134100,1,0
392,80,134266,6,0,B|480:152|400:240|400:240,1,170,4|0
296,152,134763,2,0,B|208:208|208:296|288:376|288:376,1,255,4|0
480,184,135592,5,4
392,80,135758,1,0
312,192,135924,1,4
232,80,136089,1,0
160,192,136255,1,4
384,352,136587,1,4
32,192,147526,5,0
168,192,147692,1,4
272,104,147857,1,0
352,216,148023,1,4
376,80,148189,1,0
448,192,148355,1,4
464,56,148520,1,0
448,192,148686,1,4
480,320,148852,5,0
344,320,149018,1,4
240,232,149183,1,0
160,344,149349,1,4
136,208,149515,1,0
64,320,149681,1,4
48,184,149846,1,4
64,320,150012,1,0
48,184,150178,6,0,B|48:96|48:96,1,85,0|4
168,32,150509,2,0,B|168:120|168:120,1,85,0|4
288,184,150841,2,0,B|288:96|288:96,1,85,0|4
408,32,151172,2,0,B|408:120|408:120,1,85,0|4
488,224,151504,6,0,B|488:312|488:312,1,85,0|4
368,376,151835,2,0,B|368:288|368:288,1,85,0|4
248,224,152167,2,0,B|248:312|248:312,1,85,0|4
128,376,152498,2,0,B|128:288|128:288,1,85,4|0
128,152,152830,5,0
376,32,153161,2,0,B|376:128|376:128,1,85,0|4
376,117,153493,2,0,B|376:216|376:216,1,85,0|4
376,202,153824,2,0,B|376:288|376:288,1,85,0|4
376,287,154156,5,0
112,352,154487,2,0,B|112:264|112:264,1,85,0|4
112,267,154819,2,0,B|112:176|112:176,1,85,0|4
112,182,155150,2,0,B|112:96|112:96,1,85,0|4
112,97,155482,5,0
376,32,155813,1,0
240,32,155979,1,4
376,32,156145,1,0
240,32,156310,1,4
376,32,156476,1,0
240,32,156642,1,4
304,152,156808,1,0
256,192,156973,12,2,158134
256,192,158465,6,0,B|80:192|80:192,2,170,8|8|8
480,32,159294,5,8
216,32,159625,2,0,B|400:32|400:32,3,170,8|8|8|8
112,32,160454,1,8
176,288,160786,6,0,B|144:392|8:344|8:344,2,170,8|8|8
336,288,161449,2,0,B|368:392|504:344|504:344,2,170,8|8|8
176,176,162111,2,0,B|144:72|8:120|8:120,2,170,8|8|8
336,176,162774,1,8
64,64,163437,6,0,B|152:-16|224:72|224:72,2,170,8|8|8
64,320,164100,2,0,B|152:400|224:312|224:312,2,170,8|8|8
256,192,164763,6,0,B|80:192|80:192,1,170,8|8
256,192,165095,2,0,B|432:192|432:192,1,170,8|8
256,192,165426,2,0,B|272:80|152:64|152:64,2,170,8|8|8
32,352,166089,6,0,B|216:352|216:352,1,170,8|8
72,288,166421,2,0,B|256:288|256:288,1,170,8|0
112,224,166752,2,0,B|296:224|296:224,1,170,8|8
144,160,167084,2,0,B|320:160|320:160,1,170,8|0
176,96,167415,2,0,B|352:96|352:96,1,170,8|8
216,32,167747,1,8
216,32,168078,1,8
472,352,168741,6,0,B|472:168|472:168,1,170,8|8
408,312,169073,2,0,B|408:128|408:128,1,170,8|0
344,272,169404,2,8,B|344:88|344:88,1,170,8|8
280,240,169736,2,0,B|280:64|280:64,1,170,8|0
216,208,170067,2,8,B|216:32|216:32,1,170
152,176,170399,2,0,B|152:-8|152:-8,2,170,8|8|8
112,352,171393,6,8,B|24:352|24:352|24:264|24:264,2,170
256,352,171890,1,0
392,352,172056,2,8,B|480:352|480:352|480:264|480:264,2,170,8|8|8
256,352,172553,1,0
256,216,172719,2,0,B|256:128|256:128|168:128|168:128,2,170,8|8|8
464,40,173382,1,8
56,32,174045,6,0,B|-48:96|56:192|56:192,2,170,8|8|8
176,96,174542,1,0
296,32,174708,2,0,B|400:96|296:192|296:192,2,170,8|8|8
176,96,175205,1,0
56,32,175371,2,0,B|-48:96|56:192|56:192,4,170,8|8|8|8|8
480,32,176697,5,8
480,32,176863,1,0
480,32,177029,1,0
480,32,177194,1,0
480,168,177360,1,8
480,168,177526,1,0
480,168,177692,1,0
480,168,177857,1,0
480,304,178023,5,8
480,304,178189,1,0
480,304,178355,1,0
480,304,178520,1,0
360,232,178686,1,8
360,232,178852,1,0
360,232,179018,1,0
360,232,179183,1,0
360,96,179349,5,2
328,96,179432,1,0
296,96,179515,1,0
264,96,179598,1,0
232,96,179681,1,2
200,96,179763,1,0
168,96,179846,1,0
136,96,179929,1,0
104,96,180012,5,2
72,112,180095,1,0
48,136,180178,1,0
40,168,180261,1,0
40,200,180344,1,2
40,232,180426,1,0
40,264,180509,1,0
48,296,180592,1,0
72,320,180675,5,2
104,336,180758,1,0
136,336,180841,1,0
168,336,180924,1,0
200,336,181007,1,2
232,336,181089,1,0
264,336,181172,1,0
296,336,181255,1,0
328,336,181338,5,2
360,336,181421,1,0
392,336,181504,1,0
424,320,181587,1,0
440,288,181669,1,2
440,256,181752,1,0
440,224,181835,1,0
440,192,181918,1,0
440,160,182001,6,0,B|440:120|440:120,32,21.25,2|0|0|0|2|0|0|2|0|0|0|0|2|0|0|0|2|0|0|0|2|0|0|0|2|0|0|0|2|0|0|0|2
256,192,183493,12,2,184653
256,192,184736,12,2,185979
256,192,186062,12,2,187305
32,192,197913,5,0
72,192,197995,1,0
112,192,198078,1,0
192,192,198244,1,4
192,112,198410,1,0
232,112,198493,1,0
272,112,198576,1,0
272,192,198741,1,0
272,272,198907,1,4
336,232,199073,1,4
416,232,199239,5,0
416,192,199321,1,0
416,152,199404,1,0
416,72,199570,1,4
352,112,199736,1,0
328,80,199819,1,0
304,48,199902,1,0
224,48,200067,1,0
144,48,200233,1,4
64,48,200399,1,4
104,112,200565,5,0
104,152,200647,1,0
104,192,200730,1,0
104,232,200813,1,0
104,272,200896,1,4
104,352,201062,1,4
184,352,201228,1,0
184,312,201310,1,0
184,272,201393,1,0
184,232,201476,1,0
184,192,201559,1,4
184,112,201725,1,4
264,112,201890,5,0
264,152,201973,1,0
264,192,202056,1,0
264,232,202139,1,0
264,272,202222,1,4
264,352,202388,1,4
344,352,202553,2,0,B|344:264|344:264,1,85
344,267,202885,2,0,B|344:176|344:176,1,85,4|0
344,104,203216,5,0
344,104,203299,1,0
344,104,203382,1,0
344,104,203465,1,0
344,104,203548,1,0
344,104,203631,1,0
344,104,203714,1,0
344,104,203797,1,0
344,104,203879,1,0
264,104,204045,1,0
184,104,204211,1,4
104,104,204377,1,4
48,160,204542,5,0
48,160,204625,1,0
48,160,204708,1,0
48,160,204791,1,0
48,160,204874,1,0
48,160,204957,1,0
48,160,205040,1,0
48,160,205123,1,0
48,160,205205,1,0
48,240,205371,1,0
48,320,205537,1,4
128,320,205703,1,4
208,320,205868,5,0
208,240,206034,1,0
224,160,206200,1,4
288,96,206366,1,0
384,64,206531,1,0
480,120,206697,1,0
480,240,206863,1,4
384,328,207029,1,0
376,192,207194,5,0
272,280,207360,1,0
168,192,207526,1,4
64,280,207692,1,0
168,192,207857,1,0
64,104,208023,1,0
168,192,208189,1,4
272,104,208355,1,0
168,16,208520,1,0
480,352,209846,5,8
480,80,210178,1,8
480,216,210344,1,8
480,216,210675,1,8
480,80,210841,1,8
360,144,211007,1,8
360,144,211338,1,8
360,144,211504,1,8
224,144,211670,1,8
224,144,212001,1,8
224,144,212167,1,8
48,352,212498,6,0,B|48:256|48:256,1,85,8|0
152,352,212830,1,0
152,216,212995,1,0
288,216,213161,2,0,B|288:304|288:304,1,85,8|0
392,216,213493,1,0
392,352,213658,1,0
392,216,213824,6,0,B|336:144|336:144,1,85,8|0
232,72,214156,2,0,B|304:24|304:24,1,85
440,32,214487,2,0,B|512:88|512:88,1,85,8|0
504,224,214819,2,0,B|440:288|440:288,1,85
304,288,215150,5,8
168,288,215316,1,0
32,288,215482,1,0
32,152,215647,1,0
168,152,215813,2,0,B|168:64|168:64,1,85,8|0
304,64,216145,2,0,B|304:160|304:160,1,85
440,152,216476,5,8
440,152,216642,1,0
256,352,216973,1,0
256,352,217139,1,8
256,80,217471,1,0
32,240,217802,6,0,B|120:240|120:240,1,85,8|0
120,104,218134,2,0,B|32:104|32:104,1,85,0|0
32,240,218465,2,0,B|120:240|120:240,1,85,8|0
120,104,218797,2,0,B|32:104|32:104,1,85
32,240,219128,6,0,B|32:344|32:344,1,85,8|0
136,240,219460,2,0,B|136:144|136:144,1,85
248,240,219791,2,0,B|248:336|248:336,1,85,8|0
352,240,220123,2,0,B|352:144|352:144,1,85
288,32,220454,5,8
192,128,220620,1,0
288,32,220786,1,0
384,128,220951,1,0
288,32,221117,1,8
16,32,221449,5,0
16,168,221614,1,0
16,304,221780,1,8
144,352,221946,1,0
280,352,222111,1,0
480,168,222443,1,8
344,168,222609,1,0
208,168,222774,1,0
32,352,223106,6,0,B|128:376|176:256|176:256,1,170,2|4
272,272,223437,1,2
376,272,223603,1,4
448,344,223769,2,0,B|528:256|432:184|432:184,1,170,2|4
376,272,224100,1,2
312,192,224266,1,4
312,88,224432,2,0,B|136:88|136:88,1,170,2|4
144,192,224763,1,2
40,192,224929,1,4
40,296,225095,2,0,B|224:296|224:296,1,170,2|4
312,296,225426,2,0,B|312:120|312:120,1,170,6|0
208,128,225758,5,2
208,24,225924,1,4
208,128,226089,1,2
208,24,226255,1,4
104,24,226421,2,0,B|104:208|104:208,1,170,2|4
104,194,226752,2,0,B|192:352|192:352,1,170,2|4
288,344,227084,1,2
288,240,227250,1,4
288,344,227415,1,2
288,240,227581,1,4
376,296,227747,2,0,B|376:120|376:120,1,170,2|4
376,126,228078,2,0,B|224:24|224:24,1,170,6|0
136,32,228410,6,0,B|16:160|16:160,1,170,2|4
19,156,228741,2,0,B|128:312|128:312,1,170,2|4
116,295,229073,2,0,B|304:296|304:296,1,170,2|4
286,295,229404,2,0,B|392:144|392:144,1,170,2|4
384,156,229736,2,0,B|268:23|268:23,1,170,2|4
272,28,230067,2,0,B|160:173|160:173,1,170,2|4
168,163,230399,2,0,B|289:317|289:317,1,170,2|4
274,297,230730,2,0,B|400:141|400:141,1,170,6|0
384,64,231062,5,2
280,64,231228,1,4
176,64,231393,1,2
72,64,231559,1,4
72,168,231725,1,2
176,168,231890,1,4
280,168,232056,1,2
384,168,232222,1,4
384,272,232388,6,0,B|192:272|192:272,1,170,2|4
214,272,232719,2,0,B|32:272|32:272,1,170,2|4
48,168,233051,2,0,B|232:168|232:168,1,170,2|4
218,168,233382,2,0,B|392:168|392:168,1,170,6|0
392,64,233714,5,0
240,64,233879,1,0
392,64,234045,1,8
240,64,234211,1,8
392,64,234377,1,0
240,64,234542,1,0
88,64,234708,1,8
88,216,234874,1,8
160,352,235040,5,0
312,352,235205,1,0
160,352,235371,1,8
312,352,235537,1,8
160,352,235703,1,0
312,352,235868,1,0
464,352,236034,1,8
464,200,236200,1,8
464,48,236366,5,0
360,160,236531,1,0
256,48,236697,1,8
152,160,236863,1,8
40,48,237029,1,0
152,160,237194,1,0
256,272,237360,1,8
360,160,237526,1,8
256,48,237692,6,0,B|128:184|128:184,1,170
256,48,238023,2,0,B|384:184|384:184,1,170,8|8
256,48,238355,2,0,B|256:224|256:224,1,170
256,218,238686,2,0,B|256:312|256:312|336:312|336:312,1,170,8|8
488,312,239018,6,0,B|488:224|488:224|400:224|400:224,1,170
400,72,239349,2,0,B|312:72|312:72|312:168|312:168,1,170,8|8
160,136,239681,2,0,B|160:224|160:224|256:224|256:224,1,170
88,224,240012,2,0,B|88:48|88:48,1,170,8|8
240,32,240344,5,0
240,184,240509,1,0
240,336,240675,1,8
392,336,240841,1,8
392,184,241007,1,0
392,32,241172,1,0
240,32,241338,1,8
88,32,241504,1,8
88,184,241670,6,0,B|272:184|272:184,1,170
120,248,242001,2,0,B|304:248|304:248,1,170,8|8
152,312,242332,2,0,B|344:312|344:312,1,170
472,312,242664,2,0,B|384:312|384:312|384:224|384:224,1,170,8|8
384,72,242995,5,0
232,72,243161,1,0
80,72,243327,1,8
232,72,243493,1,8
384,72,243658,1,0
232,72,243824,1,0
80,72,243990,1,8
232,72,244156,1,8
480,352,244321,5,8
256,32,244653,1,0
32,352,244984,1,8
120,224,245150,1,0
208,352,245316,1,0
296,224,245482,1,0
384,352,245647,1,8
384,32,245979,1,0
384,352,246310,1,8
384,32,246642,1,0
32,32,246973,5,8
480,192,247305,1,0
32,352,247636,1,8
160,272,247802,1,0
32,184,247968,1,0
160,104,248134,1,0
32,32,248299,1,8
480,32,248631,1,0
32,32,248962,1,8
480,32,249294,1,0
256,352,249625,5,8
256,200,249791,1,0
256,48,249957,1,0
256,200,250123,1,0
104,200,250288,1,8
256,200,250454,1,0
408,200,250620,1,0
256,200,250786,1,0
32,32,251117,5,0
32,184,251283,1,0
32,32,251449,1,0
32,184,251614,1,8
32,32,251780,1,0
184,32,251946,1,0
480,32,252277,5,8
480,352,252609,1,0
480,32,252940,1,8
328,32,253106,1,0
328,184,253272,1,0
480,184,253437,1,0
256,192,253603,12,2,254929
256,192,255012,12,2,256255
