osu file format v14

[General]
AudioFilename: 07 - Beating the Blade.mp3
AudioLeadIn: 0
PreviewTime: 90812
Countdown: 0
SampleSet: Normal
StackLeniency: 0.7
Mode: 0
LetterboxInBreaks: 0
WidescreenStoryboard: 1

[Editor]
Bookmarks: 6880,109737,116594,137165,144023,182880
DistanceSpacing: 1.2
BeatDivisor: 4
GridSize: 4
TimelineZoom: 1.4

[Metadata]
Title:Beating the Blade
TitleUnicode:Beating the Blade
Artist:Capture the Crown
ArtistUnicode:Capture the Crown
Creator:Shiratu
Version:Insane
Source:
Tags:reign of terror ctc metalcore
BeatmapID:660537
BeatmapSetID:291596

[Difficulty]
HPDrainRate:6
CircleSize:4
OverallDifficulty:7
ApproachRate:9
SliderMultiplier:1.5
SliderTickRate:1

[Events]
//Background and Video events
0,0,"b02e31932a.jpg",0,0
//Break Periods
2,109933,115990
2,137361,143419
//Storyboard Layer 0 (Background)
//Storyboard Layer 1 (Fail)
//Storyboard Layer 2 (Pass)
//Storyboard Layer 3 (Foreground)
//Storyboard Sound Samples

[TimingPoints]
19,285.714285714286,4,1,0,45,1,0
6880,-100,4,1,0,30,0,0
8594,-100,4,1,0,45,0,0
9161,-100,4,1,0,45,0,1
9233,-100,4,1,0,45,0,0
27447,-125,4,1,0,35,0,0
45733,-100,4,1,0,55,0,1
64019,-125,4,1,0,45,0,0
82304,-100,4,1,0,55,0,1
82376,-100,4,1,0,45,0,0
90876,-166.666666666667,4,1,0,45,0,0
91447,-100,4,1,0,55,0,1
109733,-100,4,1,0,45,0,0
118876,-100,4,1,0,55,0,1
118947,-100,4,1,0,45,0,0
144019,-100,4,1,0,30,0,0
145733,-100,4,1,0,45,0,0
146304,-100,4,1,0,55,0,1
164590,-100,4,1,0,45,0,0

[Colours]
Combo1 : 54,45,236
Combo2 : 6,185,185
Combo3 : 17,154,255
Combo4 : 26,224,240

[HitObjects]
336,128,6876,5,4,2:2:0:0:
336,128,7447,1,4,2:2:0:0:
336,128,8019,1,4,2:2:0:0:
336,128,8590,2,0,L|380:96,2,37.5
112,160,9161,6,0,P|132:220|216:276,1,150,4|0,0:0|0:0,0:0:0:0:
292,224,9590,1,0,0:0:0:0:
364,304,9733,2,0,L|432:248,1,75,8|0,0:0|0:0,0:0:0:0:
376,156,10019,2,0,L|444:96,1,75,8|0,0:0|0:0,0:0:0:0:
352,40,10304,5,0,0:0:0:0:
248,60,10447,1,8,0:0:0:0:
296,144,10590,2,0,P|248:156|220:192,2,75,0|0|8,0:0|0:0|0:0,0:0:0:0:
296,144,11019,1,0,0:0:0:0:
464,176,11304,1,0,0:0:0:0:
428,264,11447,6,0,P|384:304|280:312,1,150,4|0,0:0|0:0,0:0:0:0:
192,292,11876,1,0,0:0:0:0:
112,224,12019,2,0,P|136:184|168:172,1,75,8|0,0:0|0:0,0:0:0:0:
260,220,12304,2,0,P|288:188|296:148,1,75,8|0,0:0|0:0,0:0:0:0:
228,72,12590,5,0,0:0:0:0:
328,56,12733,1,8,0:0:0:0:
388,140,12876,1,0,0:0:0:0:
476,96,13019,2,0,P|484:52|476:20,2,75,0|8|0,0:0|0:0|0:0,0:0:0:0:
476,236,13590,1,0,0:0:0:0:
372,272,13733,6,0,P|420:332|504:340,2,150,4|0|8,0:0|0:0|0:0,0:0:0:0:
300,192,14447,1,0,0:0:0:0:
256,284,14590,2,0,L|168:284,1,75,8|0,0:0|0:0,0:0:0:0:
104,208,14876,6,0,P|72:248|72:280,2,75,0|8|0,0:0|0:0|0:0,0:0:0:0:
184,140,15304,1,0,0:0:0:0:
236,48,15447,2,0,L|300:104,1,75,8|0,0:0|0:0,0:0:0:0:
424,192,15876,1,0,0:0:0:0:
360,276,16019,6,0,P|296:236|212:240,1,150,12|0,0:0|0:0,0:0:0:0:
160,320,16447,2,0,P|124:272|136:180,1,150,12|0,0:0|0:0,0:0:0:0:
224,140,16876,2,0,P|304:160|392:136,1,150,12|0,0:0|0:0,0:0:0:0:
452,84,17304,5,12,0:0:0:0:
288,60,17590,2,0,P|240:48|204:56,1,75,0|8,0:0|0:0,0:0:0:0:
140,120,17876,1,8,0:0:0:0:
244,128,18019,1,8,0:0:0:0:
180,208,18161,1,8,0:0:0:0:
276,244,18304,6,0,B|352:208|352:208|396:132,1,150,4|0,0:0|0:0,0:0:0:0:
380,48,18733,2,0,P|340:80|296:84,1,75,0|8,0:0|0:0,0:0:0:0:
220,100,19019,1,0,0:0:0:0:
120,120,19161,2,0,P|128:168|148:200,1,75,8|0,0:0|0:0,0:0:0:0:
212,264,19447,5,0,0:0:0:0:
252,168,19590,1,8,0:0:0:0:
328,240,19733,2,0,P|372:220|408:200,2,75,0|0|8,0:0|0:0|0:0,0:0:0:0:
272,324,20161,1,0,0:0:0:0:
104,328,20447,1,0,0:0:0:0:
104,328,20590,6,0,P|68:276|92:192,1,150,4|0,0:0|0:0,0:0:0:0:
172,256,21019,1,0,0:0:0:0:
248,184,21161,2,0,P|208:156|188:116,1,75,8|0,0:0|0:0,0:0:0:0:
252,48,21447,1,8,0:0:0:0:
252,48,21590,1,0,0:0:0:0:
332,112,21733,6,0,P|352:76|352:32,2,75,0|8|0,0:0|0:0|0:0,0:0:0:0:
272,192,22161,1,0,0:0:0:0:
176,220,22304,2,0,P|196:260|232:280,1,75,8|0,0:0|0:0,0:0:0:0:
400,328,22733,1,0,0:0:0:0:
452,244,22876,6,0,P|488:176|472:108,2,150,4|0|8,0:0|0:0|0:0,0:0:0:0:
352,232,23590,1,0,0:0:0:0:
404,144,23733,2,0,P|388:104|356:72,1,75,8|0,0:0|0:0,0:0:0:0:
300,160,24019,6,0,P|272:132|264:80,2,75,0|8|0,0:0|0:0|0:0,0:0:0:0:
388,208,24447,1,0,0:0:0:0:
340,296,24590,2,0,P|288:300|252:296,1,75,8|0,0:0|0:0,0:0:0:0:
120,248,25019,1,0,0:0:0:0:
120,248,25161,6,0,B|160:200|156:152|156:152|220:144,1,150,8|0,0:0|0:0,0:0:0:0:
248,232,25590,2,0,P|280:204|300:160,1,75
336,84,25876,2,0,L|384:40,2,37.5,8|8|8,0:0|0:0|0:3,0:0:0:0:
240,108,26161,2,0,P|184:112|160:124,1,75
76,168,26447,5,0,0:0:0:0:
80,268,26590,2,0,L|36:280,2,37.5,8|8|8,0:0|0:0|0:3,0:0:0:0:
184,280,26876,1,0,0:0:0:0:
260,340,27019,1,0,0:0:0:0:
284,244,27161,2,0,P|356:248|424:192,1,150,0|4,0:0|0:0,0:0:0:0:
280,76,27876,6,0,P|240:88|216:104,1,60
128,152,28304,1,0,0:0:0:0:
112,268,28590,1,8,0:2:0:0:
224,228,28876,2,0,P|252:260|332:280,1,120
404,264,29304,1,0,0:0:0:0:
328,172,29590,2,0,L|268:132,1,60
168,160,30019,6,0,P|120:180|104:200,1,60
96,280,30304,1,0,0:0:0:0:
252,320,30590,2,0,P|308:348|376:332,1,120,0|8,0:0|0:2,0:0:0:0:
412,272,31019,5,0,0:0:0:0:
412,272,31161,1,0,0:0:0:0:
436,164,31447,2,0,L|352:164,1,60
264,188,31876,1,0,0:0:0:0:
264,188,32019,6,0,P|240:132|172:108,1,120
160,212,32590,2,0,P|112:184|80:112,2,120,0|0|8,0:0|0:0|0:2,0:0:0:0:
228,340,33447,6,0,P|268:324|352:324,1,120
424,320,33876,1,0,0:0:0:0:
460,256,34019,2,0,P|484:200|460:132,1,120
324,120,34590,5,0,0:0:0:0:
248,152,34733,1,0,0:0:0:0:
256,72,34876,2,0,B|216:40|216:40|144:32,2,120,0|0|8,0:0|0:0|0:2,0:0:0:0:
328,116,35590,6,0,P|364:140|384:160,1,60
308,196,35876,1,0,0:0:0:0:
384,228,36019,2,0,P|360:260|328:276,1,60
204,280,36447,1,0,0:0:0:0:
140,216,36590,5,4,0:0:0:0:
196,120,36876,1,0,0:0:0:0:
196,120,37161,2,0,P|236:88|324:80,1,120
288,196,37733,5,8,0:2:0:0:
352,276,38019,2,0,P|400:264|464:208,2,120
272,284,38733,1,0,0:0:0:0:
200,312,38876,5,0,0:0:0:0:
80,256,39161,2,0,P|52:220|56:196,2,60
176,172,39733,2,0,P|156:132|92:92,2,120,0|8|0,0:0|0:2|0:0,0:0:0:0:
228,284,40590,6,0,P|256:272|284:248,1,60
332,128,41019,1,0,0:0:0:0:
412,120,41161,6,0,B|448:176|448:176|448:248,1,120
400,296,41590,1,0,0:0:0:0:
332,336,41733,1,0,0:0:0:0:
184,284,42019,2,0,P|136:264|112:200,1,120,0|8,0:0|0:2,0:0:0:0:
336,100,42876,6,0,P|324:144|324:172,1,60
384,208,43161,1,0,0:0:0:0:
384,208,43304,1,0,0:0:0:0:
312,256,43447,6,0,P|352:288|432:280,2,120
228,320,44304,1,0,0:0:0:0:
184,224,44590,6,0,P|152:200|136:164,1,60,8|0,0:2|0:0,0:0:0:0:
232,156,44876,1,0,0:0:0:0:
316,104,45019,1,0,0:0:0:0:
328,200,45161,2,0,P|304:232|276:252,1,60,8|0,0:2|0:0,0:0:0:0:
88,324,45733,6,0,B|36:264|36:264|64:168,1,150,4|0,0:0|0:0,0:0:0:0:
128,120,46161,1,0,0:0:0:0:
188,208,46304,1,8,0:0:0:0:
252,124,46447,1,0,0:0:0:0:
300,216,46590,2,0,P|320:252|360:280,1,75
408,188,46876,6,0,P|404:112|340:56,1,150
252,88,47304,1,0,0:0:0:0:
176,160,47447,1,8,0:0:0:0:
280,172,47590,2,0,P|300:212|296:248,2,75
196,236,48019,6,0,P|200:288|284:340,1,150,4|0,0:0|0:0,0:0:0:0:
360,280,48447,1,0,0:0:0:0:
360,280,48590,2,0,L|408:208,1,75,8|0,0:0|0:0,0:0:0:0:
308,172,48876,2,0,L|360:96,1,75
444,112,49161,6,0,P|420:48|328:20,1,150
252,52,49590,2,0,P|236:96|192:120,1,75,0|8,0:0|0:0,0:0:0:0:
124,60,49876,1,0,0:0:0:0:
52,136,50019,1,0,0:0:0:0:
148,172,50161,1,8,0:0:0:0:
148,172,50304,6,0,B|116:248|116:248|172:316,1,150,4|0,0:0|0:0,0:0:0:0:
252,256,50733,1,0,0:0:0:0:
324,332,50876,1,8,0:0:0:0:
392,252,51019,2,0,B|416:224|416:224|420:184,2,75
328,168,51447,6,0,P|328:104|252:52,1,150
176,112,51876,1,0,0:0:0:0:
236,200,52019,2,0,P|244:160|268:116,2,75,8|0|0,0:0|0:0|0:0,0:0:0:0:
216,300,52447,1,0,0:0:0:0:
324,288,52590,6,0,P|360:316|412:316,1,75,8|0,0:0|0:0,0:0:0:0:
440,228,52876,1,0,0:0:0:0:
336,184,53019,1,0,0:0:0:0:
440,144,53161,1,0,0:0:0:0:
348,84,53304,2,0,P|312:64|272:64,1,75,0|8,0:0|0:0,0:0:0:0:
216,152,53590,1,0,0:0:0:0:
112,156,53733,5,0,0:0:0:0:
48,232,53876,1,0,0:0:0:0:
96,324,54019,2,0,L|188:332,1,75
252,272,54304,2,0,L|332:276,1,75,8|0,0:0|0:0,0:0:0:0:
412,340,54590,2,0,P|432:296|428:252,1,75
344,208,54876,6,0,B|344:128|344:128|288:68,1,150,4|0,0:0|0:0,0:0:0:0:
200,120,55304,2,0,L|260:184,1,75,0|8,0:0|0:0,0:0:0:0:
284,276,55590,1,0,0:0:0:0:
180,288,55733,1,0,0:0:0:0:
256,360,55876,1,0,0:0:0:0:
352,316,56019,6,0,P|400:256|424:188,1,150
384,92,56447,1,0,0:0:0:0:
284,56,56590,1,8,0:0:0:0:
308,156,56733,1,0,0:0:0:0:
208,128,56876,2,0,L|152:184,1,75
56,160,57161,6,0,P|72:240|136:284,1,150,4|0,0:0|0:0,0:0:0:0:
216,328,57590,1,0,0:0:0:0:
280,248,57733,1,8,0:0:0:0:
176,228,57876,2,0,P|144:208|124:168,2,75
272,176,58304,6,0,B|320:156|320:156|360:120|360:120|408:96,1,150
312,48,58733,1,0,0:0:0:0:
216,76,58876,1,8,0:0:0:0:
128,24,59019,1,0,0:0:0:0:
120,124,59161,2,0,P|112:160|120:208,1,75,0|8,0:0|0:0,0:0:0:0:
160,292,59447,6,0,P|204:296|328:260,1,150,4|0,0:0|0:0,0:0:0:0:
400,228,59876,1,0,0:0:0:0:
332,156,60019,2,0,P|384:136|424:132,2,75,8|0|0,0:0|0:0|0:0,0:0:0:0:
244,208,60447,1,0,0:0:0:0:
252,104,60590,6,0,P|192:72|120:108,1,150
192,180,61019,1,0,0:0:0:0:
116,248,61161,2,0,P|160:288|192:300,1,75,8|0,0:0|0:0,0:0:0:0:
280,284,61447,2,0,P|332:292|360:308,1,75
440,256,61733,6,0,P|468:188|452:104,1,150,8|0,0:0|0:0,0:0:0:0:
360,76,62161,1,0,0:0:0:0:
344,180,62304,1,0,0:0:0:0:
272,104,62447,1,0,0:0:0:0:
244,208,62590,2,0,B|184:164|184:164|104:180,1,150,8|0,0:0|0:0,0:0:0:0:
92,284,63019,5,0,0:0:0:0:
196,292,63161,1,0,0:0:0:0:
276,360,63304,1,0,0:0:0:0:
296,256,63447,2,0,P|384:252|440:184,1,150
376,124,63876,1,0,0:0:0:0:
256,132,64019,5,4,0:0:0:0:
452,248,64447,6,0,P|436:292|404:312,1,60,0|8,0:0|0:2,0:0:0:0:
272,280,64876,2,0,P|300:324|376:348,2,120
208,136,65733,2,0,P|168:104|132:96,1,60,8|0,0:2|0:0,0:0:0:0:
80,84,66019,1,0,0:0:0:0:
28,228,66304,6,0,P|108:316|232:316,1,240,0|8,0:0|0:2,0:0:0:0:
264,200,67161,2,0,P|300:172|464:236,1,240
360,352,68019,6,0,P|332:328|304:324,1,60,8|0,0:2|0:0,0:0:0:0:
224,328,68304,1,0,0:0:0:0:
140,300,68447,2,0,P|172:264|204:260,1,60
240,88,69019,6,0,L|288:128,1,60,0|8,0:0|0:2,0:0:0:0:
412,216,69447,1,0,0:0:0:0:
276,288,69733,5,0,0:0:0:0:
208,164,70019,2,0,P|160:196|88:196,1,120,0|8,0:0|0:2,0:0:0:0:
36,144,70447,1,0,0:0:0:0:
160,52,70733,2,0,P|200:40|236:44,1,60
300,96,71304,5,0,0:0:0:0:
368,144,71447,1,8,0:2:0:0:
400,280,71733,2,0,P|352:256|276:264,1,120
132,264,72304,6,0,L|177:224,1,60
236,168,72590,1,0,0:0:0:0:
316,180,72733,2,0,L|388:128,2,60
280,256,73161,5,4,0:0:0:0:
396,344,73447,1,0,0:0:0:0:
472,236,73733,2,0,P|484:180|456:112,1,120,8|0,0:2|0:0,0:0:0:0:
328,184,74304,6,0,P|292:200|120:124,1,240,0|8,0:0|0:2,0:0:0:0:
112,48,75019,1,0,0:0:0:0:
268,48,75304,1,0,0:0:0:0:
348,52,75447,6,0,P|380:80|440:156,1,120
432,220,75876,1,0,0:0:0:0:
376,280,76019,1,8,0:2:0:0:
284,160,76304,1,0,0:0:0:0:
160,244,76590,5,0,0:0:0:0:
140,92,76876,2,0,P|180:72|220:72,1,60
280,80,77161,1,8,0:2:0:0:
224,144,77304,2,0,P|188:156|164:172,1,60
100,216,77590,1,0,0:0:0:0:
176,248,77733,6,0,P|208:276|288:268,1,120,4|0,0:0|0:0,0:0:0:0:
320,204,78161,1,0,0:0:0:0:
380,264,78304,2,0,B|424:224|424:224|416:160,1,120,8|0,0:2|0:0,0:0:0:0:
304,48,78876,6,0,B|260:88|196:92|196:92|176:144|104:176,1,240,0|8,0:0|0:2,0:0:0:0:
64,236,79590,1,0,0:0:0:0:
208,292,79876,2,0,P|240:272|280:272,1,60
468,292,80447,6,0,L|476:228,1,60,0|8,0:0|0:2,0:0:0:0:
416,108,80876,1,0,0:0:0:0:
272,176,81161,5,8,0:2:0:0:
176,176,81304,1,0,0:0:0:0:
272,136,81447,1,8,0:2:0:0:
176,136,81590,1,0,0:0:0:0:
272,104,81733,6,0,L|340:80,1,60,8|8,0:2|0:2,0:0:0:0:
416,136,82019,2,0,L|360:164,1,60,8|8,0:2|0:2,0:0:0:0:
332,272,82304,6,0,P|316:320|284:336,1,75
200,304,82590,1,0,0:0:0:0:
200,200,82733,1,0,0:0:0:0:
104,256,82876,1,2,0:2:0:0:
88,96,83161,2,0,P|136:104|172:104,1,75
268,92,83447,5,8,0:0:0:0:
336,160,83590,1,0,0:0:0:0:
408,96,83733,1,0,0:0:0:0:
452,272,84019,2,0,L|380:308,1,75
260,276,84304,2,0,L|336:236,1,75,0|8,0:0|0:0,0:0:0:0:
408,184,84590,5,0,0:0:0:0:
340,100,84733,1,0,0:0:0:0:
264,172,84876,1,0,0:0:0:0:
276,60,85019,1,0,0:0:0:0:
176,112,85161,1,2,0:2:0:0:
48,228,85447,2,0,B|60:264|60:264|104:292,1,75
192,288,85733,5,8,0:0:0:0:
288,240,85876,1,0,0:0:0:0:
260,344,86019,1,0,0:0:0:0:
452,296,86304,1,0,0:0:0:0:
420,192,86447,1,0,0:0:0:0:
392,296,86590,1,0,0:0:0:0:
480,192,86733,1,0,0:0:0:0:
448,68,86876,6,0,P|392:92|364:92,1,75
252,56,87161,2,0,P|244:116|260:148,1,75
296,220,87447,1,2,0:2:0:0:
136,332,87733,2,0,L|100:264,1,75
84,168,88019,5,8,0:0:0:0:
176,228,88161,1,0,0:0:0:0:
192,124,88304,1,0,0:0:0:0:
388,240,88590,1,0,0:0:0:0:
388,240,88733,1,0,0:0:0:0:
448,152,88876,1,0,0:0:0:0:
448,152,89019,1,8,0:0:0:0:
360,104,89161,6,0,P|324:128|288:140,1,75
208,68,89447,2,0,B|164:96|164:96|148:124,1,75
144,212,89733,1,2,0:2:0:0:
272,336,90019,2,0,L|336:276,1,75
376,192,90304,6,0,P|340:180|303:183,1,75,8|0,0:0|0:0,0:0:0:0:
208,156,90590,1,0,0:0:0:0:
208,156,90733,1,0,0:0:0:0:
192,252,90876,6,2,P|156:308|94:330,1,134.999995880127,0|0,0:0|0:0,0:0:0:0:
80,204,91447,6,0,P|68:132|120:80,1,150,4|0,0:0|0:0,0:0:0:0:
208,156,91876,2,0,P|160:164|132:152,2,75,0|8|0,0:0|0:0|0:0,0:0:0:0:
284,72,92304,2,0,P|316:112|320:152,1,75
400,216,92590,6,0,B|388:300|388:300|344:292|300:312,1,150
212,320,93019,1,0,0:0:0:0:
272,228,93161,1,8,0:0:0:0:
160,244,93304,1,0,0:0:0:0:
200,144,93447,1,0,0:0:0:0:
92,184,93590,1,0,0:0:0:0:
104,56,93733,6,0,P|192:36|276:36,1,150,4|0,0:0|0:0,0:0:0:0:
332,108,94161,1,0,0:0:0:0:
400,32,94304,2,0,P|432:64|440:104,1,75,8|0,0:0|0:0,0:0:0:0:
364,176,94590,2,0,P|372:220|392:252,1,75
472,308,94876,6,0,P|416:348|312:316,1,150
248,276,95304,1,0,0:0:0:0:
352,244,95447,2,0,P|312:220|296:188,1,75,8|0,0:0|0:0,0:0:0:0:
392,160,95733,1,0,0:0:0:0:
476,120,95876,1,8,0:0:0:0:
380,60,96019,6,0,B|324:72|284:56|284:56|216:80,1,150,4|0,0:0|0:0,0:0:0:0:
136,120,96447,1,0,0:0:0:0:
236,164,96590,1,8,0:0:0:0:
140,216,96733,1,0,0:0:0:0:
244,252,96876,1,0,0:0:0:0:
312,340,97019,1,0,0:0:0:0:
356,244,97161,6,0,P|412:196|424:112,1,150
312,136,97590,1,0,0:0:0:0:
204,144,97733,2,0,L|132:184,1,75,8|0,0:0|0:0,0:0:0:0:
136,288,98019,2,0,L|216:244,1,75
304,272,98304,6,0,P|352:252|376:224,1,75,8|0,0:0|0:0,0:0:0:0:
440,160,98590,1,0,0:0:0:0:
332,164,98733,1,0,0:0:0:0:
388,72,98876,1,0,0:0:0:0:
280,72,99019,1,0,0:0:0:0:
228,164,99161,2,0,P|188:156|152:160,1,75,8|0,0:0|0:0,0:0:0:0:
56,208,99447,5,0,0:0:0:0:
80,312,99590,1,0,0:0:0:0:
172,256,99733,2,0,L|256:264,1,75
336,328,100019,2,0,P|352:292|352:240,1,75,8|0,0:0|0:0,0:0:0:0:
332,156,100304,1,0,0:0:0:0:
332,156,100447,1,0,0:0:0:0:
240,92,100590,6,0,B|200:108|156:96|156:96|108:120|104:156,1,150,4|0,0:0|0:0,0:0:0:0:
200,196,101019,2,0,P|248:192|280:172,2,75,0|8|0,0:0|0:0|0:0,0:0:0:0:
96,240,101447,1,0,0:0:0:0:
164,320,101590,1,0,0:0:0:0:
260,272,101733,6,0,P|328:308|400:296,1,150
452,204,102161,1,0,0:0:0:0:
344,208,102304,1,8,0:0:0:0:
232,212,102447,1,0,0:0:0:0:
284,116,102590,2,0,P|336:96|376:104,1,75
460,112,102876,6,0,B|464:72|444:36|444:36|404:48|364:24,1,150,4|0,0:0|0:0,0:0:0:0:
264,36,103304,1,0,0:0:0:0:
212,128,103447,1,8,0:0:0:0:
168,40,103590,1,0,0:0:0:0:
212,128,103733,1,0,0:0:0:0:
112,128,103876,1,0,0:0:0:0:
168,216,104019,6,0,B|184:272|184:300|184:300|248:288|280:296,1,150
352,276,104447,1,0,0:0:0:0:
296,184,104590,2,0,P|336:168|384:176,1,75,8|0,0:0|0:0,0:0:0:0:
468,212,104876,1,0,0:0:0:0:
448,104,105019,1,8,0:0:0:0:
448,104,105161,6,0,P|388:64|296:56,1,150,4|0,0:0|0:0,0:0:0:0:
208,88,105590,1,0,0:0:0:0:
144,168,105733,2,0,P|112:132|104:96,2,75,8|0|0,0:0|0:0|0:0,0:0:0:0:
216,244,106161,1,0,0:0:0:0:
108,284,106304,6,0,P|152:340|244:352,1,150
328,320,106733,1,0,0:0:0:0:
328,320,106876,2,0,P|352:264|352:232,1,75,8|0,0:0|0:0,0:0:0:0:
456,276,107161,2,0,P|456:224|440:184,1,75
392,112,107447,5,8,0:0:0:0:
292,68,107590,1,0,0:0:0:0:
316,156,107733,1,0,0:0:0:0:
208,72,107876,1,0,0:0:0:0:
192,180,108019,1,0,0:0:0:0:
120,100,108161,1,0,0:0:0:0:
64,192,108304,2,0,P|56:232|72:268,1,75,8|0,0:0|0:0,0:0:0:0:
180,312,108590,2,0,P|156:280|144:244,1,75
164,144,108876,6,0,P|216:132|248:136,1,75
340,180,109161,2,0,P|404:272|328:344,1,225,8|0,0:0|0:0,0:0:0:0:
252,272,109733,5,4,0:0:0:0:
164,224,116590,6,0,L|104:296,2,75,8|0|0,0:0|0:0|0:0,0:0:0:0:
216,132,117019,1,0,0:0:0:0:
244,232,117161,2,0,P|268:272|308:304,1,75,8|0,0:0|0:0,0:0:0:0:
396,292,117447,2,0,P|436:260|448:236,1,75,8|0,0:0|0:0,0:0:0:0:
448,132,117733,5,0,0:0:0:0:
448,132,117876,1,0,0:0:0:0:
344,132,118019,2,0,L|276:168,1,75,8|0,0:0|0:0,0:0:0:0:
180,128,118304,2,0,L|112:164,1,75,8|0,0:0|0:0,0:0:0:0:
36,236,118590,1,0,0:0:0:0:
124,296,118733,1,0,0:0:0:0:
248,264,118876,6,0,P|284:296|320:312,1,75,4|0,0:0|0:0,0:0:0:0:
408,284,119161,1,0,0:0:0:0:
336,208,119304,1,0,0:0:0:0:
232,192,119447,1,0,0:0:0:0:
304,112,119590,2,0,P|260:92|224:88,2,75
404,140,120019,6,0,P|424:176|440:224,1,75,8|0,0:0|0:0,0:0:0:0:
444,312,120304,2,0,P|408:328|348:316,1,75
272,324,120590,1,0,0:0:0:0:
244,224,120733,1,0,0:0:0:0:
144,252,120876,1,0,0:0:0:0:
72,176,121019,1,0,0:0:0:0:
72,176,121161,6,0,L|40:252,2,75
64,72,121590,2,0,P|108:76|140:96,1,75
200,176,121876,1,0,0:0:0:0:
252,84,122019,1,0,0:0:0:0:
248,188,122161,1,0,0:0:0:0:
300,96,122304,6,0,P|332:120|352:164,1,75,8|0,0:0|0:0,0:0:0:0:
356,256,122590,2,0,P|408:240|436:212,2,75
252,276,123019,1,0,0:0:0:0:
320,356,123161,1,0,0:0:0:0:
216,352,123304,1,8,0:0:0:0:
112,336,123447,6,0,P|80:296|68:256,1,75
60,168,123733,1,0,0:0:0:0:
160,196,123876,1,0,0:0:0:0:
136,92,124019,2,0,P|200:116|236:116,1,75
304,80,124304,2,0,P|348:80|396:104,1,75
444,172,124590,6,0,L|364:236,1,75,8|0,0:0|0:0,0:0:0:0:
285,186,124876,2,0,P|279:223|288:260,1,75
324,360,125161,2,0,P|360:344|384:312,2,75
224,328,125590,1,0,0:0:0:0:
224,328,125733,1,8,0:0:0:0:
292,248,125876,6,0,L|320:296,2,37.5,8|8|8,0:3|0:3|0:3,0:0:0:0:
220,172,126161,1,0,0:0:0:0:
116,176,126304,2,0,L|68:188,2,37.5,8|8|8,0:3|0:3|0:3,0:0:0:0:
176,92,126590,1,0,0:0:0:0:
272,52,126733,2,0,P|296:104|328:124,1,75
380,196,127019,5,0,0:0:0:0:
384,300,127161,1,0,0:0:0:0:
280,320,127304,1,8,0:3:0:0:
280,320,127376,1,8,0:3:0:0:
280,320,127447,2,0,L|308:368,8,37.5,8|8|8|8|8|8|8|8|4,0:0|0:3|0:3|0:3|0:3|0:3|0:3|0:3|0:0,0:0:0:0:
208,244,128161,6,0,L|136:188,1,75
72,128,128447,1,0,0:0:0:0:
172,100,128590,1,8,0:0:0:0:
380,80,128876,2,0,P|412:128|432:156,1,75
360,228,129161,6,0,P|404:244|448:244,2,75
148,236,129733,1,8,0:0:0:0:
60,296,129876,1,0,0:0:0:0:
72,192,130019,1,0,0:0:0:0:
172,160,130161,1,8,0:0:0:0:
128,64,130304,6,0,P|172:56|212:64,1,75
288,124,130590,2,0,P|336:148|364:152,1,75
460,168,130876,2,0,P|444:216|424:232,2,75,8|0|0,0:0|0:0|0:0,0:0:0:0:
440,64,131304,1,0,0:0:0:0:
336,44,131447,6,0,P|296:36|252:40,1,75
160,68,131733,1,0,0:0:0:0:
168,172,131876,1,0,0:0:0:0:
268,140,132019,1,0,0:0:0:0:
260,244,132161,2,0,L|232:284,2,37.5,8|8|0,0:0|0:0|0:0,0:0:0:0:
360,264,132447,1,8,0:0:0:0:
360,264,132519,1,8,0:0:0:0:
360,264,132590,5,0,0:0:0:0:
432,188,132733,2,0,B|444:148|444:148|416:104,1,75
352,44,133019,2,0,L|264:72,1,75,0|8,0:0|0:0,0:0:0:0:
176,76,133304,1,0,0:0:0:0:
92,140,133447,1,0,0:0:0:0:
160,220,133590,1,0,0:0:0:0:
60,256,133733,6,0,P|92:300|132:308,1,75
212,284,134019,2,0,P|216:328|196:368,2,75,0|0|8,0:0|0:0|0:0,0:0:0:0:
140,208,134447,1,0,0:0:0:0:
140,208,134590,1,0,0:0:0:0:
128,104,134733,1,0,0:0:0:0:
232,84,134876,5,8,0:0:0:0:
252,88,134947,1,0,0:0:0:0:
272,92,135019,1,0,0:0:0:0:
292,96,135090,1,0,0:0:0:0:
308,104,135161,1,0,0:0:0:0:
324,112,135233,1,0,0:0:0:0:
340,120,135304,2,0,L|372:88,3,37.5,8|0|0|0,0:0|0:0|0:0|0:0,0:0:0:0:
388,152,135590,2,0,L|416:112,3,37.5,8|0|0|0,0:0|0:0|0:0|0:0,0:0:0:0:
400,168,135876,1,8,0:0:0:0:
412,184,135947,1,0,0:0:0:0:
412,204,136019,6,0,L|432:268,3,37.5
368,220,136304,2,0,L|384:264,3,37.5
316,236,136590,2,0,L|328:284,3,37.5
256,244,136876,2,0,L|256:284,3,37.5
204,240,137161,5,4,0:0:0:0:
276,116,144019,5,2,2:2:0:0:
276,116,144590,1,2,2:2:0:0:
276,116,145161,1,2,2:2:0:0:
276,116,145733,2,0,L|296:72,2,37.5
92,228,146304,6,0,B|120:272|124:312|124:312|176:304|208:312,1,150,4|0,0:0|0:0,0:0:0:0:
272,248,146733,1,0,0:0:0:0:
188,180,146876,1,8,0:0:0:0:
304,168,147019,1,0,0:0:0:0:
360,260,147161,2,0,B|396:272|396:272|432:248,1,75
424,124,147447,6,0,P|376:68|300:52,1,150
200,76,147876,1,0,0:0:0:0:
292,132,148019,2,0,P|336:140|356:176,1,75,8|0,0:0|0:0,0:0:0:0:
388,268,148304,1,0,0:0:0:0:
284,304,148447,1,0,0:0:0:0:
380,352,148590,6,0,P|432:340|464:236,1,150,4|0,0:0|0:0,0:0:0:0:
448,152,149019,1,0,0:0:0:0:
344,172,149161,1,8,0:0:0:0:
388,268,149304,2,0,P|336:276|292:260,1,75
224,208,149590,1,0,0:0:0:0:
208,316,149733,6,0,B|196:280|152:268|152:268|112:284|68:264,1,150
112,168,150161,2,0,P|96:132|100:92,2,75,0|8|0,0:0|0:0|0:0,0:0:0:0:
212,208,150590,2,0,B|252:208|252:208|280:180,1,75,0|8,0:0|0:0,0:0:0:0:
184,120,150876,6,0,P|248:76|344:100,1,150,4|0,0:0|0:0,0:0:0:0:
392,160,151304,2,0,P|440:188|456:216,1,75,0|8,0:0|0:0,0:0:0:0:
412,312,151590,1,0,0:0:0:0:
412,312,151733,2,0,P|368:292|336:264,1,75
236,284,152019,6,0,B|196:280|120:292|120:292|84:248,1,150
56,164,152447,1,0,0:0:0:0:
164,184,152590,2,0,P|216:180|264:188,1,75,8|0,0:0|0:0,0:0:0:0:
328,240,152876,2,0,P|344:196|340:160,1,75
300,64,153161,5,8,0:0:0:0:
196,80,153304,1,0,0:0:0:0:
288,136,153447,1,0,0:0:0:0:
240,36,153590,1,0,0:0:0:0:
224,144,153733,1,0,0:0:0:0:
120,112,153876,1,0,0:0:0:0:
56,196,154019,2,0,P|96:212|120:232,1,75,8|0,0:0|0:0,0:0:0:0:
184,324,154304,5,0,0:0:0:0:
184,324,154447,1,0,0:0:0:0:
264,248,154590,2,0,L|344:232,1,75
412,156,154876,2,0,L|328:156,1,75,8|0,0:0|0:0,0:0:0:0:
232,152,155161,1,0,0:0:0:0:
160,76,155304,1,0,0:0:0:0:
264,64,155447,6,0,P|336:40|412:68,1,150,4|0,0:0|0:0,0:0:0:0:
456,156,155876,2,0,P|452:200|432:232,1,75,0|8,0:0|0:0,0:0:0:0:
352,296,156161,1,0,0:0:0:0:
244,304,156304,2,0,P|236:256|224:224,1,75
124,236,156590,6,0,P|96:176|144:104,1,150
236,72,157019,1,0,0:0:0:0:
284,168,157161,1,8,0:0:0:0:
332,76,157304,1,0,0:0:0:0:
384,168,157447,1,0,0:0:0:0:
432,72,157590,1,0,0:0:0:0:
484,168,157733,6,0,B|480:248|480:248|392:300,1,150,4|0,0:0|0:0,0:0:0:0:
316,324,158161,1,0,0:0:0:0:
272,232,158304,1,8,0:0:0:0:
176,288,158447,2,0,L|212:356,2,75
88,228,158876,6,0,B|88:180|68:144|68:144|92:112|140:100,1,150
224,84,159304,1,0,0:0:0:0:
192,184,159447,2,0,L|272:160,1,75,8|0,0:0|0:0,0:0:0:0:
328,248,159733,2,0,L|408:224,1,75,0|8,0:0|0:0,0:0:0:0:
456,136,160019,6,0,P|408:72|312:72,1,150,4|0,0:0|0:0,0:0:0:0:
288,152,160447,2,0,P|260:128|236:88,1,75,0|8,0:0|0:0,0:0:0:0:
164,16,160733,1,0,0:0:0:0:
96,96,160876,2,0,P|75:127|47:151,1,75
56,276,161161,6,0,B|132:284|140:244|224:272,1,150
308,300,161590,1,0,0:0:0:0:
416,280,161733,2,0,P|400:236|372:216,1,75,8|0,0:0|0:0,0:0:0:0:
272,176,162019,2,0,P|220:128|196:124,1,75
108,124,162304,6,0,L|72:272,1,150,8|0,0:0|0:0,0:0:0:0:
136,356,162733,1,0,0:0:0:0:
188,264,162876,1,0,0:0:0:0:
288,304,163019,1,0,0:0:0:0:
388,264,163161,2,0,P|424:196|396:116,1,150,8|0,0:0|0:0,0:0:0:0:
304,84,163590,5,0,0:0:0:0:
220,152,163733,1,0,0:0:0:0:
336,188,163876,1,0,0:0:0:0:
320,296,164019,2,0,P|220:328|136:232,1,225
168,152,164590,5,4,0:0:0:0:
244,72,164733,1,0,0:0:0:0:
324,152,164876,2,0,P|348:120|356:80,2,75
184,320,165447,2,0,L|120:268,1,75
60,192,165733,5,8,0:0:0:0:
152,144,165876,1,0,0:0:0:0:
260,144,166019,1,0,0:0:0:0:
412,268,166304,2,0,P|384:312|352:328,1,75
256,324,166590,2,0,P|226:301|209:268,1,75,0|8,0:0|0:0,0:0:0:0:
236,168,166876,5,0,0:0:0:0:
340,192,167019,1,0,0:0:0:0:
372,92,167161,1,0,0:0:0:0:
268,68,167304,1,0,0:0:0:0:
268,68,167447,1,0,0:0:0:0:
76,136,167733,2,0,L|76:220,1,75
128,300,168019,6,0,P|72:316|48:312,2,75,8|0|0,0:0|0:0|0:0,0:0:0:0:
340,316,168590,1,0,0:0:0:0:
280,224,168733,1,0,0:0:0:0:
384,232,168876,1,0,0:0:0:0:
444,144,169019,1,0,0:0:0:0:
348,88,169161,6,0,L|416:40,2,75
244,116,169590,1,0,0:0:0:0:
244,116,169733,1,0,0:0:0:0:
80,216,170019,1,0,0:0:0:0:
140,304,170161,2,0,P|184:284|232:288,1,75,0|8,0:0|0:0,0:0:0:0:
312,308,170447,5,0,0:0:0:0:
376,220,170590,1,0,0:0:0:0:
328,56,170876,2,0,B|288:60|288:60|240:80,1,75
164,136,171161,2,0,B|196:156|196:156|248:168,1,75,0|8,0:0|0:0,0:0:0:0:
336,188,171447,5,0,0:0:0:0:
276,276,171590,1,0,0:0:0:0:
180,228,171733,1,0,0:0:0:0:
112,312,171876,1,0,0:0:0:0:
60,220,172019,1,0,0:0:0:0:
176,56,172304,2,0,P|216:52|260:60,1,75
328,120,172590,5,8,0:0:0:0:
328,120,172661,1,8,0:0:0:0:
328,120,172733,1,8,0:3:0:0:
328,120,172804,1,8,0:3:0:0:
328,120,172876,2,0,L|356:92,3,37.5,8|8|8|8,0:3|0:3|0:3|0:3,0:0:0:0:
364,160,173161,2,0,L|396:128,3,37.5,8|8|8|8,0:3|0:3|0:3|0:3,0:0:0:0:
392,204,173447,2,0,L|432:172,3,37.5,8|8|8|8,0:3|0:3|0:3|0:3,0:0:0:0:
412,244,173733,5,4,0:0:0:0:
328,312,173876,1,0,0:0:0:0:
328,312,174019,2,0,P|296:276|264:264,1,75
168,268,174304,1,8,0:0:0:0:
100,128,174590,1,0,0:0:0:0:
100,128,174733,1,0,0:0:0:0:
200,84,174876,6,0,P|232:60|276:60,1,75
368,84,175161,1,0,0:0:0:0:
448,264,175447,2,0,L|376:292,1,75,8|0,0:0|0:0,0:0:0:0:
272,320,175733,1,0,0:0:0:0:
288,212,175876,2,0,L|376:172,1,75,8|0,0:0|0:0,0:0:0:0:
456,136,176161,5,0,0:0:0:0:
368,84,176304,1,0,0:0:0:0:
272,136,176447,1,0,0:0:0:0:
188,72,176590,1,8,0:0:0:0:
128,264,176876,2,0,P|80:272|48:268,2,75
220,204,177304,5,0,0:0:0:0:
216,312,177447,1,0,0:0:0:0:
396,220,177733,1,0,0:0:0:0:
328,136,177876,5,8,0:0:0:0:
328,136,177947,1,8,0:0:0:0:
328,136,178019,1,0,0:0:0:0:
452,136,178161,2,0,L|464:172,2,37.5,8|8|0,0:0|0:0|0:0,0:0:0:0:
408,40,178447,5,0,0:0:0:0:
296,40,178590,2,0,P|248:68|224:76,1,75
128,104,178876,1,8,0:0:0:0:
64,292,179161,1,0,0:0:0:0:
164,244,179304,1,0,0:0:0:0:
220,332,179447,6,0,P|252:312|304:300,2,75
72,196,180019,1,8,0:0:0:0:
128,104,180161,1,0,0:0:0:0:
188,192,180304,1,0,0:0:0:0:
204,88,180447,1,0,0:0:0:0:
288,152,180590,6,0,P|316:188|332:224,1,75,8|0,0:0|0:0,0:0:0:0:
340,320,180876,1,0,0:0:0:0:
244,276,181019,2,0,P|228:232|208:200,1,75,8|0,0:0|0:0,0:0:0:0:
160,120,181304,1,0,0:0:0:0:
112,212,181447,1,8,0:0:0:0:
52,120,181590,1,0,0:0:0:0:
128,40,181733,6,0,P|168:32|212:32,1,75,8|0,0:0|0:0,0:0:0:0:
292,88,182019,1,0,0:0:0:0:
372,160,182161,2,0,P|324:172|292:200,1,75,8|0,0:0|0:0,0:0:0:0:
216,256,182447,1,0,0:0:0:0:
120,316,182590,1,0,0:0:0:0:
108,204,182733,1,0,0:0:0:0:
216,140,182876,5,4,0:0:0:0:
