osu file format v14

[General]
AudioFilename: 07 - Beating the Blade.mp3
AudioLeadIn: 0
PreviewTime: 90812
Countdown: 0
SampleSet: Normal
StackLeniency: 0.7
Mode: 0
LetterboxInBreaks: 0
WidescreenStoryboard: 0

[Editor]
Bookmarks: 6880,109737,116594,137165,144023,182880
DistanceSpacing: 0.6
BeatDivisor: 4
GridSize: 4
TimelineZoom: 1.4

[Metadata]
Title:Beating the Blade
TitleUnicode:Beating the Blade
Artist:Capture the Crown
ArtistUnicode:Capture the Crown
Creator:Shiratu
Version:Extreme
Source:
Tags:reign of terror ctc metalcore
BeatmapID:656546
BeatmapSetID:291596

[Difficulty]
HPDrainRate:7
CircleSize:4
OverallDifficulty:8.2
ApproachRate:9.2
SliderMultiplier:1.7
SliderTickRate:1

[Events]
//Background and Video events
0,0,"b02e31932a.jpg",0,0
//Break Periods
2,109933,116020
2,137361,143449
//Storyboard Layer 0 (Background)
//Storyboard Layer 1 (Fail)
//Storyboard Layer 2 (Pass)
//Storyboard Layer 3 (Foreground)
//Storyboard Sound Samples

[TimingPoints]
19,285.714285714286,4,1,0,45,1,0
6880,-100,4,1,0,30,0,0
8594,-100,4,1,0,45,0,0
9161,-100,4,1,0,45,0,1
9233,-100,4,1,0,45,0,0
27447,-125,4,1,0,35,0,0
45733,-100,4,1,0,55,0,1
64019,-125,4,1,0,45,0,0
82304,-100,4,1,0,55,0,1
82376,-100,4,1,0,45,0,0
90876,-166.666666666667,4,1,0,45,0,0
91447,-100,4,1,0,55,0,1
109733,-100,4,1,0,45,0,0
118876,-100,4,1,0,55,0,1
118947,-100,4,1,0,45,0,0
144019,-100,4,1,0,30,0,0
145733,-100,4,1,0,45,0,0
146304,-100,4,1,0,55,0,1
164590,-100,4,1,0,45,0,0

[Colours]
Combo1 : 54,45,236
Combo2 : 6,185,185
Combo3 : 17,154,255
Combo4 : 26,224,240

[HitObjects]
112,96,6876,5,4,2:2:0:0:
140,124,7447,1,4,2:2:0:0:
172,156,8019,1,4,2:2:0:0:
204,192,8590,2,0,L|240:160,2,42.5
328,332,9161,6,0,B|412:332|432:272|368:220,1,170,4|0,0:0|0:0,0:0:0:0:
374,225,9590,1,0,0:0:0:0:
178,120,9733,1,8,0:0:0:0:
300,96,9876,1,0,0:0:0:0:
163,243,10019,1,8,0:0:0:0:
360,204,10161,1,0,0:0:0:0:
276,292,10304,6,0,P|312:316|376:324,1,85,0|8,0:0|0:0,0:0:0:0:
460,228,10590,1,0,0:0:0:0:
392,112,10733,1,0,0:0:0:0:
360,204,10876,1,8,0:0:0:0:
228,200,11019,1,0,0:0:0:0:
220,212,11304,1,0,0:0:0:0:
56,176,11447,6,0,B|104:156|116:120|116:120|168:120|200:100,1,170,4|0,0:0|0:0,0:0:0:0:
296,104,11876,1,0,0:0:0:0:
224,28,12019,2,0,P|184:28|132:48,1,85,8|0,0:0|0:0,0:0:0:0:
40,100,12304,1,8,0:0:0:0:
144,160,12447,2,0,B|176:180|176:180|204:224,1,85
256,312,12733,5,8,0:0:0:0:
400,288,12876,2,0,P|440:260|452:220,1,85
352,152,13161,2,0,P|360:208|384:220,1,85,8|0,0:0|0:0,0:0:0:0:
392,224,13590,1,0,0:0:0:0:
272,152,13733,6,0,P|288:244|360:292,1,170,4|0,0:0|0:0,0:0:0:0:
216,336,14161,1,0,0:0:0:0:
64,292,14304,1,8,0:0:0:0:
164,240,14447,1,0,0:0:0:0:
360,216,14590,1,8,0:0:0:0:
252,176,14733,1,0,0:0:0:0:
72,192,14876,6,0,B|68:152|68:152|36:116,1,85,0|8,0:0|0:0,0:0:0:0:
120,28,15161,2,0,B|112:68|112:68|144:104,1,85
256,68,15447,1,8,0:0:0:0:
288,172,15590,1,0,0:0:0:0:
284,192,15876,1,0,0:0:0:0:
336,336,16019,6,0,B|408:284|376:204|376:204|336:232,1,170,12|0,0:0|0:0,0:0:0:0:
236,260,16447,6,0,B|164:208|196:128|196:128|236:156,1,170,12|0,0:0|0:0,0:0:0:0:
348,264,16876,6,0,B|376:220|420:240|420:240|440:148,1,170,12|0,0:0|0:0,0:0:0:0:
344,64,17304,5,12,0:0:0:0:
320,68,17590,1,0,0:0:0:0:
148,132,17733,1,8,0:0:0:0:
328,204,17876,1,8,0:0:0:0:
184,204,18019,1,8,0:0:0:0:
364,132,18162,1,8,0:0:0:0:
216,280,18304,6,0,B|284:320|312:240|388:292,1,170,4|0,0:0|0:0,0:0:0:0:
336,356,18733,1,0,0:0:0:0:
256,208,18876,1,8,0:0:0:0:
112,308,19019,1,0,0:0:0:0:
204,260,19161,1,8,0:0:0:0:
68,196,19304,1,0,0:0:0:0:
172,136,19447,5,0,0:0:0:0:
288,72,19590,1,8,0:0:0:0:
368,176,19733,2,0,P|408:208|456:212,1,85
444,308,20019,1,8,0:0:0:0:
436,136,20161,1,0,0:0:0:0:
428,112,20447,1,0,0:0:0:0:
288,72,20590,6,0,B|240:96|236:148|236:148|208:176|144:164,1,170,4|0,0:0|0:0,0:0:0:0:
64,120,21019,1,0,0:0:0:0:
176,88,21161,2,0,P|204:44|240:16,1,85,8|0,0:0|0:0,0:0:0:0:
316,148,21447,1,8,0:0:0:0:
376,276,21590,1,0,0:0:0:0:
236,256,21733,5,0,0:0:0:0:
388,192,21876,1,8,0:0:0:0:
320,332,22019,1,0,0:0:0:0:
168,316,22161,2,0,B|152:276|152:276|152:228,1,85,0|8,0:0|0:0,0:0:0:0:
176,88,22447,1,0,0:0:0:0:
200,100,22733,1,0,0:0:0:0:
380,116,22876,6,0,B|432:160|432:220|388:272,1,170,4|0,0:0|0:0,0:0:0:0:
248,304,23304,1,0,0:0:0:0:
336,196,23447,1,8,0:0:0:0:
160,208,23590,1,0,0:0:0:0:
276,144,23733,1,8,0:0:0:0:
144,100,23876,1,0,0:0:0:0:
308,76,24019,6,0,B|348:88|348:88|392:124,1,85,0|8,0:0|0:0,0:0:0:0:
432,228,24304,1,0,0:0:0:0:
304,172,24447,2,0,B|312:212|312:212|284:260,1,85,0|8,0:0|0:0,0:0:0:0:
160,208,24733,1,0,0:0:0:0:
148,216,25019,1,0,0:0:0:0:
24,308,25161,6,0,B|72:344|156:344|196:344,1,170,12|0,0:0|0:0,0:0:0:0:
244,224,25590,1,0,0:0:0:0:
128,136,25733,1,0,0:0:0:0:
296,96,25876,1,8,0:0:0:0:
304,88,25948,1,8,0:0:0:0:
312,80,26019,1,8,0:3:0:0:
436,152,26161,1,0,0:0:0:0:
304,208,26304,6,0,P|328:244|324:296,1,85
216,284,26590,1,8,0:0:0:0:
204,288,26661,1,8,0:0:0:0:
192,292,26733,1,8,0:3:0:0:
48,276,26876,1,8,0:0:0:0:
144,184,27019,1,0,0:0:0:0:
20,160,27161,2,0,P|40:116|76:80,1,85
196,72,27447,5,4,0:0:0:0:
196,72,27733,2,0,P|204:108|223:133,2,68
288,68,28161,1,0,0:0:0:0:
316,168,28304,2,0,P|336:204|340:232,1,68
332,332,28590,6,0,B|296:316|296:316|248:316|248:316|204:292,1,136,8|0,0:2|0:0,0:0:0:0:
44,208,29161,2,0,P|72:172|104:152,1,68
184,116,29447,1,0,0:0:0:0:
256,224,29590,1,0,0:0:0:0:
296,128,29733,5,0,0:0:0:0:
296,128,30019,2,0,B|264:148|264:148|244:188,1,68
288,280,30304,1,0,0:0:0:0:
388,232,30447,1,0,0:0:0:0:
368,120,30590,2,0,P|352:84|324:64,1,68
192,52,30876,5,8,0:2:0:0:
140,172,31019,1,0,0:0:0:0:
228,132,31161,1,0,0:0:0:0:
200,248,31304,1,0,0:0:0:0:
288,204,31447,2,0,P|336:212|372:212,1,68
368,208,31876,1,0,0:0:0:0:
336,64,32019,6,0,P|276:44|196:80,1,136
144,144,32447,1,0,0:0:0:0:
240,192,32590,2,0,P|268:164|272:120,2,68
136,228,33019,1,0,0:0:0:0:
96,324,33161,6,0,B|156:348|164:312|232:328,1,136,8|0,0:2|0:0,0:0:0:0:
256,332,33733,1,0,0:0:0:0:
360,284,33876,1,0,0:0:0:0:
464,344,34019,2,0,B|448:307|448:307|449:259|449:259|426:215,1,136,0|0,0:2|0:0,0:0:0:0:
412,196,34590,5,0,0:0:0:0:
308,200,34733,1,0,0:0:0:0:
308,200,34876,2,0,B|284:140|236:164|208:92,2,136,0|0|8,0:0|0:0|0:2,0:0:0:0:
360,284,35590,5,0,0:0:0:0:
240,304,35733,2,0,P|220:272|220:224,2,68
336,352,36161,2,0,P|392:348|416:328,1,68
464,260,36447,1,0,0:0:0:0:
376,152,36590,5,4,0:0:0:0:
376,152,36876,2,0,B|336:148|308:164|308:164|284:148|236:152,2,136
404,156,37733,5,8,0:2:0:0:
348,248,37876,1,0,0:0:0:0:
232,248,38019,2,0,B|224:216|224:216|192:180,2,68
140,288,38447,1,0,0:0:0:0:
212,344,38590,1,0,0:0:0:0:
76,332,38733,2,0,P|49:310|34:280,1,68
28,264,39161,5,0,0:0:0:0:
44,164,39304,1,0,0:0:0:0:
144,172,39447,1,0,0:0:0:0:
104,84,39590,1,0,0:0:0:0:
208,96,39733,2,0,B|240:100|240:100|288:88,1,68
384,64,40019,5,8,0:2:0:0:
384,64,40304,2,0,B|380:112|412:132|392:204,1,136
340,292,40733,1,0,0:0:0:0:
232,320,40876,2,0,P|240:280|232:240,1,68
136,280,41161,5,4,0:0:0:0:
120,260,41447,1,0,0:0:0:0:
72,168,41590,1,0,0:0:0:0:
168,184,41733,2,0,P|232:192|296:144,1,136
308,136,42304,5,8,0:2:0:0:
444,172,42876,2,0,P|451:204|435:234,1,68
332,152,43161,1,0,0:0:0:0:
216,204,43304,1,0,0:0:0:0:
144,276,43447,6,0,P|216:300|284:280,1,136
392,248,43876,1,0,0:0:0:0:
380,124,44019,2,0,P|328:88|248:88,1,136
116,168,44590,6,0,P|128:212|144:232,1,68,8|0,0:2|0:0,0:0:0:0:
252,256,44876,1,0,0:0:0:0:
204,108,45019,1,0,0:0:0:0:
152,248,45161,1,8,0:2:0:0:
300,128,45304,1,0,0:0:0:0:
376,336,45733,6,0,P|452:312|452:208,1,170,4|0,0:0|0:0,0:0:0:0:
392,124,46161,1,0,0:0:0:0:
316,272,46304,1,8,0:0:0:0:
452,224,46447,1,0,0:0:0:0:
284,164,46590,2,0,P|260:124|220:104,1,85
92,120,46876,5,0,0:0:0:0:
196,192,47019,1,0,0:0:0:0:
76,240,47161,1,0,0:0:0:0:
204,276,47304,1,0,0:0:0:0:
76,324,47447,2,0,P|112:348|160:348,1,85,8|0,0:0|0:0,0:0:0:0:
284,340,47733,1,0,0:0:0:0:
284,224,47876,1,0,0:0:0:0:
364,280,48019,6,0,B|408:204|344:184|396:112,1,170,4|0,0:0|0:0,0:0:0:0:
452,172,48447,1,0,0:0:0:0:
284,224,48590,1,8,0:0:0:0:
284,96,48733,1,0,0:0:0:0:
160,224,48876,1,0,0:0:0:0:
160,92,49019,1,0,0:0:0:0:
224,252,49161,5,0,0:0:0:0:
332,112,49304,1,0,0:0:0:0:
144,160,49447,1,0,0:0:0:0:
224,52,49590,1,0,0:0:0:0:
256,160,49733,1,8,0:0:0:0:
384,212,49876,1,0,0:0:0:0:
332,340,50019,2,0,B|292:316|292:316|240:324,1,85,0|8,0:0|0:0,0:0:0:0:
120,348,50304,6,0,P|56:308|56:192,1,170,4|0,0:0|0:0,0:0:0:0:
144,160,50733,1,0,0:0:0:0:
208,296,50876,2,0,P|164:280|128:244,2,85,8|0|0,0:0|0:0|0:0,0:0:0:0:
332,340,51304,1,0,0:0:0:0:
416,264,51447,5,0,0:0:0:0:
260,256,51590,1,0,0:0:0:0:
352,148,51733,2,0,P|384:112|428:96,1,85
320,40,52019,2,0,B|280:64|224:60|224:60|196:80|184:120,1,170,8|0,0:0|0:0,0:0:0:0:
140,236,52447,1,0,0:0:0:0:
276,176,52590,6,0,P|324:168|364:136,1,85,12|0,0:0|0:0,0:0:0:0:
476,108,52876,1,0,0:0:0:0:
496,244,53019,1,0,0:0:0:0:
360,232,53161,1,0,0:0:0:0:
296,320,53304,1,0,0:0:0:0:
360,144,53447,2,0,P|308:132|256:144,1,85,8|0,0:0|0:0,0:0:0:0:
156,88,53733,5,0,0:0:0:0:
60,184,53876,1,0,0:0:0:0:
192,140,54019,1,0,0:0:0:0:
32,132,54161,1,0,0:0:0:0:
212,188,54304,2,0,L|328:220,1,85,8|0,0:0|0:0,0:0:0:0:
416,344,54590,2,0,L|316:320,1,85
144,328,54876,6,0,B|128:232|76:268|56:168,1,170,4|0,0:0|0:0,0:0:0:0:
112,64,55304,1,0,0:0:0:0:
160,176,55447,2,0,P|196:216|216:252,1,85,8|0,0:0|0:0,0:0:0:0:
280,340,55733,1,0,0:0:0:0:
344,228,55876,1,0,0:0:0:0:
444,296,56019,6,0,B|472:268|472:268|484:204,1,85
428,108,56304,1,0,0:0:0:0:
328,160,56447,1,0,0:0:0:0:
352,40,56590,2,0,P|300:72|264:72,1,85,8|0,0:0|0:0,0:0:0:0:
112,104,56876,2,0,P|152:136|200:156,1,85
392,180,57161,6,0,B|392:224|404:272|404:272|344:272|300:288,1,170,4|0,0:0|0:0,0:0:0:0:
212,328,57590,1,0,0:0:0:0:
291,195,57733,2,0,P|256:219|236:256,2,85,8|0|0,0:0|0:0|0:0,0:0:0:0:
392,112,58161,1,0,0:0:0:0:
268,72,58304,6,0,B|188:44|188:44|88:60,1,170
48,164,58733,2,0,L|152:148,1,85,0|8,0:0|0:0,0:0:0:0:
268,156,59019,1,0,0:0:0:0:
168,248,59161,1,0,0:0:0:0:
364,212,59304,1,8,0:0:0:0:
256,328,59447,6,0,P|260:276|180:176,1,170,4|0,0:0|0:0,0:0:0:0:
84,244,59876,1,0,0:0:0:0:
44,128,60019,2,0,P|84:72|136:56,1,85,8|0,0:0|0:0,0:0:0:0:
180,168,60304,1,0,0:0:0:0:
264,76,60447,1,0,0:0:0:0:
312,184,60590,6,0,P|352:200|400:200,1,85
504,152,60876,1,0,0:0:0:0:
496,280,61019,1,0,0:0:0:0:
364,288,61161,2,0,B|340:320|340:320|292:336,2,85,8|0|0,0:0|0:0|0:0,0:0:0:0:
404,168,61590,1,0,0:0:0:0:
248,144,61733,5,8,0:0:0:0:
124,244,61876,1,0,0:0:0:0:
252,244,62019,1,0,0:0:0:0:
124,144,62161,1,0,0:0:0:0:
192,36,62304,1,0,0:0:0:0:
300,144,62447,1,0,0:0:0:0:
188,248,62590,1,8,0:0:0:0:
304,348,62733,1,0,0:0:0:0:
368,244,62876,5,0,0:0:0:0:
232,184,63019,1,0,0:0:0:0:
376,152,63161,1,0,0:0:0:0:
280,68,63304,1,0,0:0:0:0:
436,48,63447,2,0,B|456:104|456:104|456:156|456:156|484:220,1,170,8|0,0:0|0:0,0:0:0:0:
488,328,63876,1,0,0:0:0:0:
304,196,64019,5,4,0:0:0:0:
128,280,64304,2,0,B|112:248|112:248|112:200,1,68
156,132,64590,1,8,0:2:0:0:
224,204,64733,1,0,0:0:0:0:
296,128,64876,2,0,P|332:112|360:112,1,68
448,172,65161,6,0,B|408:228|448:228|392:308,1,136
332,232,65590,1,0,0:0:0:0:
224,204,65733,1,8,0:2:0:0:
296,128,65876,1,0,0:0:0:0:
192,112,66019,2,0,P|208:76|240:44,1,68
364,68,66304,6,0,B|396:100|396:100|420:144|420:144|460:184,1,136
432,280,66733,1,0,0:0:0:0:
332,232,66876,2,0,L|284:180,2,68,8|0|0,0:2|0:0|0:0,0:0:0:0:
328,336,67304,1,0,0:0:0:0:
220,336,67447,6,0,P|232:296|232:256,1,68
228,172,67733,2,0,P|208:135|179:106,1,68
60,208,68019,2,0,P|100:220|140:220,1,68,8|0,0:2|0:0,0:0:0:0:
300,300,68447,1,0,0:0:0:0:
372,224,68590,6,0,P|404:164|376:88,1,136,4|0,0:0|0:0,0:0:0:0:
309,153,69019,2,0,P|297:121|300:87,1,68,0|8,0:0|0:2,0:0:0:0:
308,68,69447,1,0,0:0:0:0:
140,96,69733,5,0,0:0:0:0:
17,303,70019,2,0,B|100:304|72:272|148:272,1,136,0|8,0:0|0:2,0:0:0:0:
136,352,70447,1,0,0:0:0:0:
244,312,70590,2,0,P|256:264|248:240,1,68
224,152,70876,5,0,0:0:0:0:
224,152,71161,2,0,B|232:120|232:120|268:100,1,68
364,76,71447,1,8,0:2:0:0:
360,264,71733,1,0,0:0:0:0:
156,244,72019,5,0,0:0:0:0:
72,72,72304,2,0,B|104:64|104:64|152:64,1,68
264,92,72590,1,0,0:0:0:0:
432,136,72733,2,0,B|400:128|400:128|352:128,1,68
264,184,73019,1,0,0:0:0:0:
120,184,73161,5,4,0:0:0:0:
128,216,73447,1,0,0:0:0:0:
196,304,73590,1,0,0:0:0:0:
80,308,73733,2,0,P|60:264|52:224,1,68,8|0,0:2|0:0,0:0:0:0:
40,140,74019,1,0,0:0:0:0:
40,140,74304,6,0,B|100:100|124:128|184:76,1,136
184,84,74876,1,8,0:2:0:0:
288,72,75019,2,0,L|304:152,1,68
312,248,75304,1,0,0:0:0:0:
196,264,75447,6,0,B|196:224|164:200|164:200|168:120,1,136
76,176,75876,1,0,0:0:0:0:
120,264,76019,1,8,0:2:0:0:
120,264,76304,2,0,P|140:320|228:332,2,136
168,140,77161,5,8,0:2:0:0:
240,212,77304,1,0,0:0:0:0:
260,120,77447,2,0,P|300:100|336:96,1,68
340,204,77733,6,0,P|408:168|432:96,2,136,4|0|8,0:0|0:0|0:2,0:0:0:0:
184,104,78590,1,0,0:0:0:0:
56,288,78876,6,0,B|116:328|184:292|184:292|252:328|328:288,1,272,0|8,0:0|0:2,0:0:0:0:
408,248,79590,1,0,0:0:0:0:
404,216,79876,1,0,0:0:0:0:
320,128,80019,6,0,B|268:164|268:164|248:240,1,136
184,320,80447,1,0,0:0:0:0:
120,240,80590,1,8,0:2:0:0:
120,240,80876,2,0,B|136:168|96:168|132:92,1,136,0|8,0:0|0:2,0:0:0:0:
212,148,81304,5,0,0:0:0:0:
260,272,81447,1,8,0:2:0:0:
368,200,81590,1,0,0:0:0:0:
192,228,81733,1,8,0:2:0:0:
286,135,81876,1,8,0:2:0:0:
340,272,82019,1,8,0:2:0:0:
360,124,82161,1,8,0:2:0:0:
140,172,82304,5,4,0:0:0:0:
48,84,82447,1,0,0:0:0:0:
40,252,82590,2,0,B|84:240|84:240|144:256,1,85
216,336,82876,1,2,0:2:0:0:
240,320,83161,1,0,0:0:0:0:
320,200,83304,1,0,0:0:0:0:
480,284,83447,6,0,P|440:308|392:296,1,85,8|0,0:0|0:0,0:0:0:0:
284,264,83733,1,0,0:0:0:0:
284,264,84019,2,0,B|248:235|248:235|225:198,1,85
216,56,84304,1,0,0:0:0:0:
344,68,84447,1,8,0:0:0:0:
196,144,84590,5,2,0:2:0:0:
80,240,84733,1,0,0:0:0:0:
208,256,84876,1,0,0:0:0:0:
108,128,85019,1,0,0:0:0:0:
236,144,85162,1,0,0:0:0:0:
260,164,85447,1,0,0:0:0:0:
384,208,85590,1,0,0:0:0:0:
364,328,85733,6,0,B|340:288|340:288|292:272,1,85,8|0,0:0|0:0,0:0:0:0:
188,336,86019,1,0,0:0:0:0:
168,320,86304,1,0,0:0:0:0:
84,220,86447,1,0,0:0:0:0:
240,240,86590,1,0,0:0:0:0:
120,152,86733,1,0,0:0:0:0:
280,176,86876,6,0,P|328:168|352:132,1,85
264,68,87161,1,0,0:0:0:0:
156,156,87304,1,0,0:0:0:0:
264,108,87447,1,2,0:2:0:0:
292,112,87733,2,0,B|328:100|328:100|380:104,1,85
464,192,88019,5,8,0:0:0:0:
400,320,88161,1,0,0:0:0:0:
272,248,88304,1,0,0:0:0:0:
284,224,88590,2,0,P|332:204|360:172,1,85
288,32,88876,2,0,P|260:72|260:124,1,85,0|8,0:0|0:0,0:0:0:0:
136,204,89161,5,0,0:0:0:0:
208,324,89304,1,0,0:0:0:0:
204,132,89447,1,0,0:0:0:0:
260,272,89590,1,0,0:0:0:0:
292,140,89733,1,2,0:2:0:0:
312,160,90019,2,0,L|376:236,1,85
396,352,90304,5,8,0:0:0:0:
500,200,90447,1,0,0:0:0:0:
492,312,90590,1,0,0:0:0:0:
400,144,90733,1,0,0:0:0:0:
344,260,90876,6,2,B|288:304|288:304|256:284|256:284|200:296,1,152.999995330811,0|0,0:0|0:0,0:0:0:0:
84,328,91447,6,0,P|76:256|140:180,1,170,4|0,0:0|0:0,0:0:0:0:
216,296,91876,2,0,P|256:256|268:224,1,85,0|8,0:0|0:0,0:0:0:0:
176,104,92161,1,0,0:0:0:0:
296,152,92304,1,0,0:0:0:0:
384,56,92447,1,0,0:0:0:0:
436,184,92590,6,0,P|460:232|464:276,2,85
320,88,93019,1,0,0:0:0:0:
212,176,93161,1,8,0:0:0:0:
248,76,93304,1,0,0:0:0:0:
140,180,93447,1,0,0:0:0:0:
164,64,93590,1,0,0:0:0:0:
48,196,93733,6,0,B|84:248|84:248|132:279|132:279|168:320,1,170,4|0,0:0|0:0,0:0:0:0:
292,344,94161,1,0,0:0:0:0:
404,224,94304,1,8,0:0:0:0:
264,220,94447,1,0,0:0:0:0:
404,224,94590,1,0,0:0:0:0:
296,104,94733,1,0,0:0:0:0:
472,180,94876,6,0,P|484:224|468:276,1,85
360,324,95161,1,0,0:0:0:0:
232,288,95304,1,0,0:0:0:0:
336,212,95447,1,8,0:0:0:0:
472,180,95590,1,0,0:0:0:0:
360,48,95733,2,0,P|328:80|288:108,1,85,0|8,0:0|0:0,0:0:0:0:
172,68,96019,6,0,P|168:160|232:216,1,170,4|0,0:0|0:0,0:0:0:0:
348,216,96447,1,0,0:0:0:0:
268,116,96590,1,8,0:0:0:0:
144,172,96733,1,0,0:0:0:0:
228,280,96876,1,0,0:0:0:0:
380,268,97019,1,0,0:0:0:0:
304,348,97161,6,0,P|372:344|404:320,1,85
328,220,97447,2,0,B|372:192|368:144|368:144|408:116|464:132,1,170,0|8,0:0|0:0,0:0:0:0:
436,220,97876,1,0,0:0:0:0:
296,148,98019,2,0,P|308:100|356:72,1,85
224,90,98304,5,8,0:0:0:0:
104,172,98447,1,0,0:0:0:0:
240,224,98590,1,0,0:0:0:0:
152,108,98733,1,0,0:0:0:0:
172,256,98876,1,0,0:0:0:0:
296,144,99019,1,0,0:0:0:0:
296,296,99161,1,8,0:0:0:0:
416,192,99304,1,0,0:0:0:0:
420,328,99447,5,0,0:0:0:0:
420,328,99590,1,0,0:0:0:0:
220,344,99733,2,0,L|146:300,1,85
360,184,100019,2,0,L|433:227,1,85,8|0,0:0|0:0,0:0:0:0:
416,100,100304,1,0,0:0:0:0:
416,100,100447,1,0,0:0:0:0:
272,80,100590,6,0,B|228:80|204:104|204:104|164:140|104:112,1,170,4|0,0:0|0:0,0:0:0:0:
152,48,101019,1,0,0:0:0:0:
260,160,101161,2,0,P|284:204|284:244,1,85,8|0,0:0|0:0,0:0:0:0:
132,232,101447,2,0,P|176:216|216:220,1,85
192,344,101733,5,0,0:0:0:0:
284,240,101876,1,0,0:0:0:0:
332,328,102019,1,0,0:0:0:0:
420,220,102161,2,0,L|444:132,2,85,0|8|0,0:0|0:0|0:0,0:0:0:0:
416,344,102590,1,0,0:0:0:0:
352,232,102733,1,0,0:0:0:0:
268,132,102876,6,0,P|208:88|116:112,1,170,4|0,0:0|0:0,0:0:0:0:
44,232,103304,1,0,0:0:0:0:
152,172,103447,2,0,P|188:160|224:196,1,85,8|0,0:0|0:0,0:0:0:0:
228,320,103733,1,0,0:0:0:0:
328,240,103876,1,0,0:0:0:0:
416,344,104019,6,0,B|440:280|440:280|456:216|424:172,1,170
336,96,104447,1,0,0:0:0:0:
252,196,104590,1,8,0:0:0:0:
256,64,104733,1,0,0:0:0:0:
332,224,104876,2,0,B|332:264|332:264|304:320,1,85,0|8,0:0|0:0,0:0:0:0:
156,344,105161,6,0,B|100:284|100:284|96:160,1,170,4|0,0:0|0:0,0:0:0:0:
128,72,105590,1,0,0:0:0:0:
128,72,105733,1,8,0:0:0:0:
256,64,105876,2,0,P|312:96|344:96,1,85
464,100,106161,1,0,0:0:0:0:
400,208,106304,5,0,0:0:0:0:
280,164,106447,2,0,P|232:144|204:116,2,85
372,272,106876,2,0,P|320:300|284:304,1,85,8|0,0:0|0:0,0:0:0:0:
108,232,107161,2,0,P|148:256|192:256,1,85
313,200,107447,5,8,0:0:0:0:
223,46,107590,1,0,0:0:0:0:
358,124,107733,1,0,0:0:0:0:
179,124,107876,1,0,0:0:0:0:
313,46,108019,1,0,0:0:0:0:
223,200,108161,1,0,0:0:0:0:
223,46,108304,1,8,0:0:0:0:
313,200,108447,1,0,0:0:0:0:
179,122,108590,5,0,0:0:0:0:
358,124,108733,1,0,0:0:0:0:
224,45,108876,1,0,0:0:0:0:
313,201,109019,1,0,0:0:0:0:
452,253,109161,2,0,P|421:302|317:336,1,170,8|0,0:0|0:0,0:0:0:0:
179,338,109590,1,0,0:0:0:0:
246,164,109733,5,4,0:0:0:0:
132,156,116590,5,8,0:0:0:0:
232,244,116733,1,0,0:0:0:0:
120,296,116876,2,0,P|164:352|200:360,1,85
300,324,117161,1,8,0:0:0:0:
300,324,117304,1,0,0:0:0:0:
400,212,117447,1,8,0:0:0:0:
400,212,117590,1,0,0:0:0:0:
296,112,117733,6,0,B|260:124|260:124|200:124,1,85
80,156,118019,1,8,0:0:0:0:
192,216,118161,1,0,0:0:0:0:
80,212,118304,1,8,0:0:0:0:
192,156,118447,1,0,0:0:0:0:
272,260,118590,1,0,0:0:0:0:
400,296,118733,2,0,L|400:200,1,85,0|4,0:0|0:0,0:0:0:0:
316,108,119019,5,0,0:0:0:0:
192,40,119161,2,0,B|168:76|168:76|180:132,1,85
296,176,119447,1,0,0:0:0:0:
404,236,119590,1,0,0:0:0:0:
316,304,119733,1,0,0:0:0:0:
472,272,119876,1,0,0:0:0:0:
312,236,120019,6,0,L|220:224,1,85,8|0,0:0|0:0,0:0:0:0:
72,64,120304,2,0,L|172:84,1,85
236,176,120590,1,0,0:0:0:0:
352,112,120733,1,0,0:0:0:0:
344,240,120876,1,0,0:0:0:0:
276,116,121019,1,0,0:0:0:0:
148,136,121161,6,0,B|140:176|140:176|160:224,2,85
276,116,121590,2,0,L|323:186,1,85
392,312,121876,1,0,0:0:0:0:
264,264,122019,1,0,0:0:0:0:
372,192,122161,1,0,0:0:0:0:
372,192,122304,6,0,P|372:136|348:96,1,85,8|0,0:0|0:0,0:0:0:0:
204,128,122590,2,0,P|260:164|308:152,1,85
288,48,122876,1,0,0:0:0:0:
156,72,123019,1,0,0:0:0:0:
280,164,123161,1,0,0:0:0:0:
152,192,123304,1,8,0:0:0:0:
248,280,123447,6,0,B|272:304|272:304|324:320,1,85
452,240,123733,2,0,B|400:228|400:228|368:192,1,85
316,92,124019,1,0,0:0:0:0:
168,128,124161,1,0,0:0:0:0:
344,192,124304,1,0,0:0:0:0:
212,208,124447,1,0,0:0:0:0:
324,336,124590,6,0,P|368:320|400:280,2,85,8|0|0,0:0|0:0|0:0,0:0:0:0:
192,340,125019,1,0,0:0:0:0:
92,244,125161,2,0,P|184:264|260:236,1,170
368,172,125590,1,0,0:0:0:0:
216,176,125733,6,0,P|172:192|132:180,1,85,8|8,0:0|0:3,0:0:0:0:
116,168,125947,1,8,0:3:0:0:
96,152,126019,1,8,0:3:0:0:
172,48,126161,1,0,0:0:0:0:
296,100,126304,1,8,0:3:0:0:
308,120,126376,1,8,0:3:0:0:
320,140,126447,1,8,0:3:0:0:
412,272,126590,2,0,B|384:288|384:288|320:280,1,85,0|8,0:0|0:3,0:0:0:0:
308,276,126804,1,8,0:3:0:0:
284,272,126876,5,8,0:3:0:0:
172,340,127019,1,0,0:0:0:0:
48,264,127161,1,8,0:3:0:0:
44,240,127233,1,8,0:3:0:0:
44,216,127304,1,8,0:3:0:0:
136,104,127447,5,8,0:0:0:0:
172,124,127518,1,8,0:3:0:0:
212,137,127589,1,8,0:3:0:0:
254,138,127661,1,8,0:3:0:0:
294,126,127732,1,8,0:3:0:0:
333,110,127804,1,8,0:3:0:0:
375,108,127875,1,8,0:3:0:0:
413,125,127946,1,8,0:3:0:0:
447,149,128019,5,4,0:0:0:0:
456,272,128161,2,0,P|416:244|376:232,1,85
256,284,128447,1,0,0:0:0:0:
168,192,128590,1,8,0:0:0:0:
156,172,128876,2,0,P|148:124|168:88,1,85
288,56,129161,5,0,0:0:0:0:
296,184,129304,1,0,0:0:0:0:
416,136,129447,1,0,0:0:0:0:
356,248,129590,1,0,0:0:0:0:
464,328,129733,1,8,0:0:0:0:
324,336,129876,1,0,0:0:0:0:
180,316,130019,2,0,B|176:272|176:272|160:228,1,85,0|8,0:0|0:0,0:0:0:0:
40,176,130304,6,0,B|60:132|60:136|60:136|124:100,1,85
224,200,130590,1,0,0:0:0:0:
272,80,130733,1,0,0:0:0:0:
352,184,130876,2,0,P|396:220|408:252,2,85,8|0|0,0:0|0:0|0:0,0:0:0:0:
284,296,131304,1,0,0:0:0:0:
152,320,131447,6,0,L|132:232,1,85
192,116,131733,1,0,0:0:0:0:
304,168,131876,2,0,P|352:192|396:184,1,85
456,288,132161,5,8,0:0:0:0:
428,304,132233,1,8,0:0:0:0:
396,316,132304,1,0,0:0:0:0:
364,324,132376,1,0,0:0:0:0:
332,328,132447,1,8,0:0:0:0:
296,324,132519,1,8,0:0:0:0:
268,308,132590,5,0,0:0:0:0:
176,220,132733,1,0,0:0:0:0:
28,136,132876,2,0,P|96:152|192:120,1,170,0|8,0:0|0:0,0:0:0:0:
292,32,133304,1,0,0:0:0:0:
244,168,133447,1,0,0:0:0:0:
380,180,133590,1,0,0:0:0:0:
468,292,133733,5,0,0:0:0:0:
332,328,133876,1,0,0:0:0:0:
264,196,134019,2,0,B|292:156|292:156|296:120,1,85
176,64,134304,1,8,0:0:0:0:
80,160,134447,2,0,P|48:112|40:76,2,85
148,244,134876,5,8,0:0:0:0:
172,252,134947,1,8,0:0:0:0:
196,260,135019,1,0,0:0:0:0:
220,268,135090,1,0,0:0:0:0:
244,276,135161,1,0,0:0:0:0:
268,284,135233,1,0,0:0:0:0:
292,288,135304,2,0,P|328:264|344:248,1,42.5,8|8,0:0|0:0,0:0:0:0:
452,252,135447,2,0,L|436:204,1,42.5
412,92,135590,2,0,P|384:104|352:116,1,42.5,8|8,0:0|0:0,0:0:0:0:
256,80,135733,2,0,L|240:120,1,42.5
132,148,135876,2,0,L|92:176,1,42.5,8|8,0:0|0:0,0:0:0:0:
80,192,136019,5,0,0:0:0:0:
77,217,136090,1,0,0:0:0:0:
85,241,136161,1,0,0:0:0:0:
92,264,136233,1,0,0:0:0:0:
104,288,136304,1,0,0:0:0:0:
124,304,136376,1,0,0:0:0:0:
148,308,136447,1,0,0:0:0:0:
172,304,136519,1,0,0:0:0:0:
196,296,136590,1,0,0:0:0:0:
220,284,136661,1,0,0:0:0:0:
244,276,136733,1,0,0:0:0:0:
268,268,136804,1,0,0:0:0:0:
292,260,136876,1,0,0:0:0:0:
316,260,136947,1,0,0:0:0:0:
340,260,137019,1,0,0:0:0:0:
364,264,137090,1,0,0:0:0:0:
388,268,137161,5,4,0:0:0:0:
148,124,144019,5,4,2:2:0:0:
180,156,144590,1,4,2:2:0:0:
212,188,145161,1,4,2:2:0:0:
244,220,145733,2,0,L|284:188,2,42.5
380,324,146304,6,0,B|444:320|452:284|452:284|416:184,1,170,4|0,0:0|0:0,0:0:0:0:
324,120,146733,1,0,0:0:0:0:
292,244,146876,1,8,0:0:0:0:
424,208,147019,1,0,0:0:0:0:
480,92,147161,2,0,B|452:64|452:64|400:64,1,85
256,72,147447,6,0,B|216:72|216:72|160:52,2,85
376,160,147876,1,0,0:0:0:0:
252,196,148019,1,8,0:0:0:0:
168,296,148161,1,0,0:0:0:0:
304,300,148304,1,0,0:0:0:0:
180,220,148447,1,0,0:0:0:0:
48,200,148590,6,0,B|64:112|64:112|136:64,1,170,4|0,0:0|0:0,0:0:0:0:
264,108,149019,1,0,0:0:0:0:
152,172,149161,1,8,0:0:0:0:
248,260,149304,2,0,P|296:240|336:236,1,85
444,296,149590,1,0,0:0:0:0:
320,344,149733,5,0,0:0:0:0:
184,336,149876,1,0,0:0:0:0:
312,252,150019,1,0,0:0:0:0:
180,168,150161,1,0,0:0:0:0:
312,176,150304,1,8,0:0:0:0:
211,95,150447,1,0,0:0:0:0:
340,68,150590,2,0,L|408:120,1,85,0|8,0:0|0:0,0:0:0:0:
484,232,150876,6,0,B|448:264|428:312|428:312|376:312|324:332,1,170,4|0,0:0|0:0,0:0:0:0:
240,272,151304,1,0,0:0:0:0:
368,232,151447,1,8,0:0:0:0:
332,104,151590,1,0,0:0:0:0:
296,232,151733,1,0,0:0:0:0:
208,128,151876,1,0,0:0:0:0:
116,224,152019,6,0,B|144:252|144:252|192:276,1,85
304,328,152304,1,0,0:0:0:0:
332,200,152447,1,0,0:0:0:0:
208,128,152590,2,0,P|164:156|144:192,2,85,8|0|0,0:0|0:0|0:0,0:0:0:0:
332,104,153019,1,0,0:0:0:0:
412,216,153161,5,8,0:0:0:0:
240,256,153304,1,0,0:0:0:0:
392,288,153447,1,0,0:0:0:0:
336,172,153590,1,0,0:0:0:0:
312,300,153733,1,0,0:0:0:0:
256,176,153876,1,0,0:0:0:0:
420,132,154019,1,8,0:0:0:0:
288,100,154161,1,0,0:0:0:0:
152,120,154304,5,0,0:0:0:0:
152,120,154447,1,0,0:0:0:0:
72,276,154590,2,0,L|152:328,1,85
392,288,154876,2,0,L|312:236,1,85,8|0,0:0|0:0,0:0:0:0:
288,100,155161,1,0,0:0:0:0:
288,100,155304,1,0,0:0:0:0:
456,160,155447,6,0,P|468:240|412:328,1,170,4|0,0:0|0:0,0:0:0:0:
280,244,155876,2,0,P|304:204|304:164,1,85,0|8,0:0|0:0,0:0:0:0:
180,168,156161,1,0,0:0:0:0:
76,92,156304,2,0,P|52:132|52:172,1,85
88,292,156590,5,0,0:0:0:0:
208,240,156733,1,0,0:0:0:0:
272,352,156876,1,0,0:0:0:0:
152,284,157019,1,0,0:0:0:0:
280,244,157161,1,8,0:0:0:0:
376,340,157304,1,0,0:0:0:0:
416,220,157447,2,0,P|436:176|440:136,1,85
324,72,157733,6,0,B|280:72|256:96|256:96|216:132|156:104,1,170,4|0,0:0|0:0,0:0:0:0:
204,40,158161,1,0,0:0:0:0:
308,144,158304,2,0,P|320:192|312:232,1,85,8|0,0:0|0:0,0:0:0:0:
164,188,158590,2,0,P|232:196|272:176,1,85
404,252,158876,6,0,P|336:316|256:296,1,170
136,328,159304,1,0,0:0:0:0:
212,224,159447,1,8,0:0:0:0:
80,240,159590,2,0,P|80:196|100:152,1,85
224,144,159876,1,8,0:0:0:0:
344,152,160019,6,0,B|388:156|420:136|420:136|448:224,1,170,4|0,0:0|0:0,0:0:0:0:
416,344,160447,1,0,0:0:0:0:
340,240,160590,1,8,0:0:0:0:
232,324,160733,2,0,P|200:268|200:236,1,85
284,152,161019,1,0,0:0:0:0:
212,72,161161,6,0,L|148:164,1,85
104,248,161447,2,0,B|172:288|208:240|280:268,1,170,0|8,0:0|0:0,0:0:0:0:
388,316,161876,1,0,0:0:0:0:
432,196,162019,1,0,0:0:0:0:
304,204,162161,1,0,0:0:0:0:
168,160,162304,5,8,0:0:0:0:
280,72,162447,1,0,0:0:0:0:
172,232,162590,1,0,0:0:0:0:
360,156,162733,1,0,0:0:0:0:
216,108,162876,1,0,0:0:0:0:
272,232,163019,1,0,0:0:0:0:
348,88,163161,1,8,0:0:0:0:
344,232,163304,1,0,0:0:0:0:
224,172,163447,5,0,0:0:0:0:
104,264,163590,1,0,0:0:0:0:
224,316,163733,1,0,0:0:0:0:
312,180,163876,1,0,0:0:0:0:
432,288,164019,2,0,B|432:232|432:232|420:172|420:172|420:120,1,170,8|0,0:0|0:0,0:0:0:0:
316,40,164447,1,0,0:0:0:0:
200,176,164590,5,4,0:0:0:0:
288,280,164733,1,0,0:0:0:0:
140,288,164876,1,0,0:0:0:0:
120,152,165019,1,0,0:0:0:0:
240,96,165161,1,0,0:0:0:0:
240,96,165447,2,0,B|280:100|280:100|332:124,1,85
408,212,165733,5,8,0:0:0:0:
276,192,165876,1,0,0:0:0:0:
368,288,166019,1,0,0:0:0:0:
352,304,166304,1,0,0:0:0:0:
232,332,166447,1,0,0:0:0:0:
112,272,166590,1,0,0:0:0:0:
200,172,166733,2,0,P|256:176|284:204,1,85,8|0,0:0|0:0,0:0:0:0:
368,288,167019,5,0,0:0:0:0:
460,196,167161,1,0,0:0:0:0:
348,148,167304,1,0,0:0:0:0:
472,96,167447,1,0,0:0:0:0:
472,96,167733,2,0,P|432:68|368:68,1,85
276,108,168019,5,8,0:0:0:0:
152,72,168161,2,0,L|128:168,1,85
128,180,168590,1,0,0:0:0:0:
264,152,168733,1,0,0:0:0:0:
224,280,168876,1,0,0:0:0:0:
352,256,169019,1,0,0:0:0:0:
472,304,169161,6,0,P|480:256|472:204,1,85
400,100,169447,2,0,P|384:152|352:200,1,85
244,216,169733,1,0,0:0:0:0:
244,216,170019,2,0,B|216:232|216:232|164:244,1,85
52,196,170304,5,8,0:0:0:0:
144,104,170447,1,0,0:0:0:0:
260,164,170590,1,0,0:0:0:0:
284,168,170876,1,0,0:0:0:0:
408,120,171019,2,0,B|416:160|416:160|412:220,1,85
352,320,171304,2,0,P|312:304|264:316,1,85,8|0,0:0|0:0,0:0:0:0:
136,336,171590,5,0,0:0:0:0:
64,232,171733,1,0,0:0:0:0:
196,236,171876,1,0,0:0:0:0:
232,112,172019,1,0,0:0:0:0:
232,112,172304,2,0,P|180:112|140:132,1,85
40,212,172590,5,8,0:0:0:0:
63,221,172661,1,8,0:0:0:0:
88,224,172732,1,8,0:3:0:0:
113,219,172804,1,8,0:3:0:0:
137,209,172875,1,8,0:3:0:0:
158,195,172947,1,8,0:3:0:0:
178,179,173018,1,8,0:3:0:0:
196,161,173090,1,8,0:3:0:0:
214,144,173161,1,8,0:3:0:0:
238,151,173232,1,8,0:3:0:0:
260,164,173304,1,8,0:3:0:0:
279,181,173375,1,8,0:3:0:0:
296,199,173447,1,8,0:3:0:0:
312,219,173518,1,8,0:3:0:0:
329,238,173590,1,8,0:3:0:0:
348,256,173661,1,8,0:3:0:0:
364,276,173733,5,4,0:0:0:0:
472,360,173876,1,0,0:0:0:0:
452,232,174019,2,0,P|416:192|392:156,1,85
336,56,174304,1,8,0:0:0:0:
312,68,174590,1,0,0:0:0:0:
180,56,174733,1,0,0:0:0:0:
88,144,174876,6,0,P|64:104|56:56,2,85
100,164,175447,1,8,0:0:0:0:
124,284,175590,1,0,0:0:0:0:
232,212,175733,1,0,0:0:0:0:
216,336,175876,1,8,0:0:0:0:
312,252,176019,5,0,0:0:0:0:
248,136,176161,1,0,0:0:0:0:
388,88,176304,2,0,B|400:128|400:128|432:176,1,85
472,288,176590,1,8,0:0:0:0:
452,296,176876,2,0,P|420:324|368:336,1,85
260,276,177161,5,0,0:0:0:0:
140,316,177304,1,0,0:0:0:0:
276,352,177447,1,0,0:0:0:0:
292,348,177733,1,0,0:0:0:0:
424,308,177876,1,8,0:0:0:0:
424,284,177947,1,8,0:0:0:0:
420,260,178019,1,0,0:0:0:0:
412,236,178090,1,0,0:0:0:0:
400,216,178161,1,8,0:0:0:0:
384,196,178233,1,8,0:0:0:0:
368,176,178304,5,4,0:0:0:0:
272,92,178447,1,0,0:0:0:0:
160,164,178590,2,0,P|132:120|132:80,2,85,0|0|8,0:0|0:0|0:0,0:0:0:0:
172,184,179161,1,0,0:0:0:0:
108,296,179304,1,0,0:0:0:0:
240,296,179447,6,0,P|292:312|328:308,1,85
432,248,179733,1,0,0:0:0:0:
420,224,180019,1,8,0:0:0:0:
396,92,180161,2,0,P|348:132|316:136,1,85
220,72,180447,1,0,0:0:0:0:
208,168,180590,5,8,0:0:0:0:
68,200,180733,1,0,0:0:0:0:
68,200,180876,1,0,0:0:0:0:
252,232,181019,1,8,0:0:0:0:
392,204,181161,1,0,0:0:0:0:
392,204,181304,1,0,0:0:0:0:
344,324,181447,2,0,P|296:340|252:336,1,85,8|0,0:0|0:0,0:0:0:0:
144,268,181733,5,8,0:0:0:0:
144,268,181876,1,0,0:0:0:0:
168,136,182019,1,0,0:0:0:0:
296,100,182161,1,8,0:0:0:0:
336,220,182304,1,0,0:0:0:0:
263,338,182447,1,0,0:0:0:0:
128,332,182590,1,0,0:0:0:0:
192,208,182733,1,0,0:0:0:0:
340,60,182876,5,4,0:0:0:0:
