osu file format v5

[General]
AudioFilename: Night Of Nostalgia.mp3
AudioLeadIn: 0
PreviewTime: -1
Countdown: 1
SampleSet: Normal
StackLeniency: 0.7
Mode: 0
LetterboxInBreaks: 1
EditorDistanceSpacing: 0.800000011920929

[Metadata]
Title:Night of Nostalgia
Artist:Captaingwonam
Creator:todayufail
Version:LADY!
Source:Nostalgia Critic
Tags:The Roller Coasters Rides and LADY! Nostalgia Critic

[Difficulty]
HPDrainRate:5
CircleSize:4
OverallDifficulty:6
SliderMultiplier:1.4
SliderTickRate:1

[Events]
//Background and Video events
1,0,"Night Of Nostalgia.avi"
//Break Periods
2,53535,66618
2,77868,88285
//Storyboard Layer 0 (Background)
//Storyboard Layer 1 (Failing)
//Storyboard Layer 2 (Passing)
//Storyboard Layer 3 (Foreground)
//Storyboard Sound Samples
//Background Colour Transformations
3,100,163,162,255

[TimingPoints]
2,666.666666666667,4,1,0,100,1,0
2,-50,4,1,0,100,0,0
2,-100,4,1,0,100,0,0

[Colours]
Combo1 : 0,0,0
Combo2 : 0,0,255
Combo3 : 255,255,255
Combo4 : 248,40,0

[HitObjects]
256,192,14002,12,0,24668
160,192,26002,5,0
224,192,26668,1,0
288,192,27335,1,0
352,192,28002,1,0
416,192,28668,1,0
480,192,29335,1,0
416,192,30002,1,0
288,192,30668,1,0
128,192,31335,1,0
288,192,32002,1,0
480,192,32668,1,0
416,192,33335,1,0
288,192,34002,1,0
224,128,35335,5,0
224,192,36002,1,0
160,128,36668,1,0
224,64,37335,1,0
256,192,38335,12,0,40335
160,192,41335,5,0
256,192,42002,1,0
192,160,42668,1,0
192,96,43335,1,0
352,288,44002,1,0
192,160,44668,1,0
192,64,45002,1,0
320,160,45335,1,0
192,288,45668,1,0
352,0,46668,5,0
288,64,47002,1,0
224,128,47335,1,0
160,192,47668,1,0
96,256,48002,1,0
96,256,48335,1,0
256,96,49002,5,0
224,192,49335,1,0
96,160,49668,1,0
0,64,50002,1,0
0,64,50335,1,0
96,32,50668,1,0
224,64,51002,1,0
352,352,52002,5,0
256,256,52335,1,0
128,160,52668,1,0
32,32,53002,1,0
160,64,53335,1,0
256,192,67668,5,0
96,160,68002,1,0
224,128,68335,1,0
288,224,68668,1,0
192,128,69002,1,0
320,128,69335,1,0
128,192,70002,2,0,B|192:384,4,140
256,160,73335,5,0
192,128,74002,1,0
160,192,74668,1,0
128,96,75335,1,0
128,32,76002,1,0
160,192,76668,1,0
224,160,77335,1,0
256,192,89335,5,0
64,160,89668,5,0
192,64,90002,1,0
128,160,90335,1,0
224,160,91002,1,0
64,96,91335,1,0
224,128,91668,1,0
384,128,92002,1,0
224,160,92335,1,0
64,192,92668,1,0
128,128,93002,1,0
128,96,93335,1,0
256,160,93668,1,0
160,256,94002,1,0
192,96,94668,1,0
288,192,95002,1,0
160,192,95335,1,0
128,96,95668,1,0
224,192,97002,1,0
256,160,97668,1,0
352,320,98335,1,0
