osu file format v9

[General]
AudioFilename: Capsule - Hello.mp3
AudioLeadIn: 0
PreviewTime: -1
Countdown: 0
SampleSet: Normal
StackLeniency: 0.7
Mode: 0
LetterboxInBreaks: 1

[Editor]
DistanceSpacing: 1.4
BeatDivisor: 4
GridSize: 8

[Metadata]
Title:Hello
Artist:Capsule
Creator:Coyottus
Version:Hard
Source:capsule
Tags:

[Difficulty]
HPDrainRate:6
CircleSize:4
OverallDifficulty:6
ApproachRate:8
SliderMultiplier:1.4
SliderTickRate:1

[Events]
//Background and Video events
0,0,"Capsule+HIDDEN+PLAYER_taille_reelle.jpg"
//Break Periods
2,50745,56841
//Storyboard Layer 0 (Background)
//Storyboard Layer 1 (Fail)
//Storyboard Layer 2 (Pass)
//Storyboard Layer 3 (Foreground)
//Storyboard Sound Samples
//Background Colour Transformations
3,100,163,162,255

[TimingPoints]
92,454.545454545455,4,1,0,50,1,0
57819,-52.6315789473684,4,1,0,50,0,0
58501,-100,4,1,0,50,0,0
87137,-100,4,1,0,60,0,1
94182,-100,4,1,0,60,0,0

[Colours]
Combo1 : 242,79,83
Combo2 : 105,186,168
Combo3 : 80,151,228
Combo4 : 252,131,131
Combo5 : 236,94,157
Combo6 : 249,234,128

[HitObjects]
80,192,3728,1,0
272,240,4182,2,0,B|272:304|272:304|304:312,1,70
368,272,4637,1,0
358,179,4864,2,0,B|384:160|424:192,2,70
296,104,5546,5,2
256,328,6001,1,2
112,192,6455,2,0,B|40:192,2,70
208,192,7137,6,0,B|208:144|208:144|256:128,1,70
328,136,7592,2,0,B|272:136,2,35
328,232,8046,2,0,B|384:232|384:232|400:272,1,70
104,312,8955,2,0,B|104:256|104:256|72:224,1,70
328,72,9864,1,0
232,80,10092,6,0,B|272:144|272:144|360:160,1,140
348,319,10773,2,0,B|336:312|336:312|336:256,1,70
80,112,11682,2,0,B|80:168|80:168|40:160,1,70
360,160,12592,2,0,B|347:163|347:163|347:107,1,70
72,312,13501,5,0
72,146,13728,2,0,B|72:216,1,70
72,48,14182,1,14
248,48,14410,5,0
248,48,14637,1,0
248,296,15092,1,0
256,160,15319,2,0,B|312:160|312:160|336:120,1,70
408,104,15773,1,0
408,200,16001,1,0
420,358,16228,2,0,B|408:352|408:352|408:296,1,70
312,288,16682,1,0
224,352,16910,1,0
128,352,17137,6,0,B|88:336|88:336|88:288,1,70
88,208,17592,2,12,B|88:248,2,35
40,120,18046,1,2
136,120,18273,1,8
88,32,18501,1,0
184,32,18728,1,0
232,120,18955,2,0,B|280:96|280:96|280:48,1,70
280,264,19864,2,0,B|232:288|232:288|232:336,1,70
72,56,20773,2,0,B|72:112|72:112|112:128,1,70
168,56,21228,5,0
168,152,21455,1,0
256,104,21682,1,0
352,104,21910,1,4
40,344,22819,1,0
256,40,23728,1,2
472,344,24637,1,0
112,192,25546,1,0
472,40,26455,1,0
80,40,27364,1,0
352,320,28273,6,0,B|376:320|376:320|408:208,1,140
432,112,28955,1,0
290,27,29182,2,0,B|320:32|320:32|352:56,2,70
290,27,29864,1,0
193,189,30092,2,0,B|176:176|176:176|176:128,1,70
176,32,30546,1,8
368,72,31001,6,0,B|424:72|424:72|456:40,1,70
432,160,31455,2,0,B|422:150|422:150|366:150,1,70
280,112,31910,1,0
280,112,32023,1,0
280,112,32137,1,0
232,112,32364,2,8,B|152:112,1,70
64,112,32819,5,8
456,112,33728,1,8
256,192,34410,12,6,35546
256,272,36001,5,0
256,176,36228,2,0,B|304:200|304:200|320:240,1,70
392,272,36682,1,0
392,272,36796,1,0
392,272,36910,1,8
392,176,37137,2,0,B|392:120|392:120|424:80,1,70
320,48,37591,1,0
224,48,37819,1,12
128,40,38046,6,0,B|152:64|152:64|208:40,1,70
416,40,38501,2,0,B|392:64|392:64|336:40,1,70
272,96,38955,2,0,B|272:168,1,70
272,299,39410,2,8,B|272:264,2,35
176,296,39864,6,0,B|120:296|120:296|88:264,1,70
160,200,40319,2,0,B|169:209|169:209|225:209,1,70
232,112,40773,1,0
232,112,40887,1,0
232,112,41001,1,8
152,48,41228,2,0,B|152:104|152:104|161:113,1,70
232,112,41682,2,0,B|312:112,1,70
160,112,42137,2,0,B|240:112,1,70
88,112,42591,1,0
88,112,42705,1,0
88,112,42819,1,12
88,112,43046,1,0
280,336,43501,5,0
280,240,43728,1,0
280,336,43955,1,0
360,280,44182,1,0
208,336,44410,2,0,B|296:336,1,70
360,208,44864,2,0,B|360:288,1,70
208,264,45319,6,0,B|208:336,1,70
432,208,45773,2,0,B|360:208,1,70
360,112,46228,1,0
360,208,46455,1,0
360,304,46682,1,0
360,208,46910,1,10
264,304,47137,6,0,B|208:304|208:304|176:272,1,70
198,89,47591,2,0,B|208:80|208:80|264:80,1,70
360,80,48046,1,0
372,239,48273,2,0,B|360:232|360:232|360:176,1,70
360,176,48728,1,8
264,176,48955,22,0,B|208:176|208:176|176:208,1,70
104,216,49410,2,0,B|160:216|160:216|192:184,1,70
136,112,49864,1,2
236,112,50091,70,0,B|218:58|165:57|132:86|134:127,1,140
304,40,57591,5,0
400,40,57819,2,2,B|408:48|408:48|400:56|400:56|408:56|408:56|400:64|400:64|408:64|408:64|400:72|400:72|408:72|408:72|400:80|400:80|408:80|408:80|400:88|400:88|408:88|408:88|400:96|400:96|408:96|408:96|400:104|400:104|408:104|408:104|400:112|400:112|408:112|408:112|400:120|400:120|408:120|408:120|400:128|400:128|408:128|408:128|400:136|400:136|408:136|408:136|400:144|400:144|408:144|408:144|400:152|400:152|408:152|408:152|400:160|400:160|408:160|408:160|400:168|400:168|408:168|408:168|400:176|400:176|408:176|408:176|408:176,1,265.999990487099
408,326,58501,2,0,B|408:256,1,70
312,256,58955,1,0
264,168,59182,2,0,B|264:224|264:224|288:240,1,70
312,256,59637,1,8
264,64,60091,5,0
168,72,60319,1,0
72,80,60546,1,0
194,133,60773,2,0,B|178:77|178:77|146:61,1,70
72,79,61228,2,0,B|66:89|66:89|81:145,1,70
256,48,61910,5,0
256,48,62023,1,0
256,48,62137,1,0
256,344,62819,2,0,B|256:264,1,70
256,176,63273,1,0
256,192,63501,12,2,64637
80,152,65091,5,0
80,208,65546,1,0
464,48,66455,1,0
472,344,67364,1,0
80,304,68273,6,0,B|128:286|128:286|128:286|128:286|160:277|141:201,1,140
120,40,69182,1,0
256,192,70091,1,0
464,344,71001,1,0
256,192,72137,5,8
256,192,72251,1,8
256,192,72364,1,8
256,48,72591,6,0,B|208:48|208:48|184:64,1,70
112,120,73046,1,0
112,216,73273,1,0
256,48,73501,2,0,B|304:48|304:48|322:60,1,70
400,120,73955,1,0
400,216,74182,1,0
400,312,74410,6,0,B|440:312,2,35
238,302,74864,2,0,B|248:312|248:312|248:312|304:312,1,70
240,232,75319,2,0,B|184:232|184:232|160:192,1,70
240,144,75773,1,0
240,48,76001,1,12
64,144,76228,5,0
101,231,76455,2,0,B|245:231,1,140
232,328,77137,2,0,B|272:288|272:288|256:248,1,70
352,264,77591,2,0,B|312:224|312:224|272:240,1,70
228,231,78046,6,0,B|308:231,1,70
299,230,78728,1,0
256,40,79182,5,0
64,64,79637,5,0
120,144,79864,2,0,B|168:112|168:112|168:72,1,70
248,152,80319,1,0
248,160,80432,1,0
248,168,80546,1,0
392,144,80773,2,0,B|344:112|344:112|344:72,1,70
392,288,81455,1,0
230,297,81682,6,0,B|240:288|240:288|296:288,1,70
200,264,82137,2,0,B|200:304,2,35
104,264,82591,2,0,B|113:254|113:254|169:254,1,70
72,264,83046,2,0,B|72:224,2,35
72,120,83501,6,0,B|128:120|128:120|152:96,1,70
136,16,83955,1,0
297,25,84182,2,0,B|288:16|288:16|232:16,1,70
232,112,84637,1,0
232,112,84751,1,0
232,112,84864,1,0
408,192,85091,5,14
408,288,85319,2,2,B|344:288|344:288|336:256,1,70
342,282,85660,1,0
342,282,85773,1,0
78,46,86228,2,0,B|88:56|88:56|144:56,1,70
240,56,86682,1,0
256,328,87137,5,0
256,328,87364,1,0
256,328,87591,1,0
256,66,88046,2,0,B|256:136,1,70
256,168,88387,1,0
256,192,88501,1,0
448,192,88955,6,0,B|384:192|384:192|376:208,1,70
376,288,89410,1,0
376,288,89637,1,0
184,328,89864,5,0
88,328,90092,1,0
96,184,90319,1,0
96,184,90432,1,0
96,184,90546,2,2,B|120:192|120:192|136:264,1,70
224,240,91001,1,8
352,304,91228,2,2,B|352:251|352:251|336:243,1,70
269,130,91682,6,2,B|296:144|296:144|336:144,1,70
432,144,92137,1,10
432,144,92251,1,10
432,144,92364,1,10
432,48,92592,6,2,B|384:48|384:48|360:64,1,70
216,312,93501,1,0
256,344,93614,1,0
296,312,93728,1,2
256,120,94182,5,4
