osu file format v5

[General]
AudioFilename: Profondo Rosso - Capitan Techno 2000 - Profondo Rosso 2000(1.mp3
AudioLeadIn: 993
PreviewTime: -1
Countdown: 0
SampleSet: Normal
StackLeniency: 0.7
Mode: 0
LetterboxInBreaks: 1
EditorBookmarks: 74096,84531,86703,144055,159292,160161,166217,169258

[Metadata]
Title:Profondo Rosso
Artist:Capitan Tekno
Creator:beatmastermap
Version:Luxary ReMiX
Source:
Tags:

[Difficulty]
HPDrainRate:6
CircleSize:5
OverallDifficulty:6
SliderMultiplier:2
SliderTickRate:2

[Events]
//Background and Video events
0,0,"sfondo profondo rosso.png"
//Break Periods
2,63874,66101
2,70176,73055
2,77130,79792
2,102121,103697
2,105381,107825
2,129720,130426
//Storyboard Layer 0 (Background)
//Storyboard Layer 1 (Failing)
//Storyboard Layer 2 (Passing)
//Storyboard Layer 3 (Foreground)
4,3,1,"Warning-speed-up3.png",320,240 M,0,86710,88013,373,442,390,260 F,0,86710,86927,0,1 F,0,86927,87144,1,0 F,0,87144,87362,0,1 F,0,87362,87579,1,0 F,0,87579,87796,0,1 F,0,87796,88013,1,0
4,3,1,"speed3.png",320,240 M,0,159292,160161,380,129,354,129 F,0,159292,159401,0,1 F,0,159401,159509,1,0 F,0,159509,159618,0,1 F,0,159618,159727,1,0 F,0,159727,159835,0,1 F,0,159835,159944,1,0 F,0,159944,160053,0,1 F,0,160053,160161,1,0
//Storyboard Sound Samples
//Background Colour Transformations
3,100,0,0,0

[TimingPoints]
28904.9361702128,434.625135820355,4,1,0,50,1,0
28904.9361702128,-100,4,1,0,80,0,0
42595,-100,4,1,0,100,0,0
88013,-50,4,1,0,100,0,0
101921,-100,4,1,0,100,0,0
131041,-100,4,1,0,100,0,0
142776,-50,4,1,0,100,0,0
144096,-100,4,1,0,100,0,0
159292,-50,4,1,0,100,0,0
176211,-100,4,1,0,100,0,0

[Colours]
Combo1 : 255,128,64
Combo2 : 255,255,0
Combo3 : 0,128,0
Combo4 : 128,0,64

[HitObjects]
56,48,1088,1,4
256,192,2392,1,0
256,192,2827,1,0
360,120,3696,1,0
456,48,4565,5,4
256,192,5869,1,0
256,192,6304,1,0
256,192,6521,1,0
256,192,6739,1,0
360,264,7173,1,0
456,336,8042,5,4
320,336,9346,2,0,B|200:336|200:336|200:240,1,200
40,264,10216,2,0,B|40:152|40:152|136:152,1,200
56,336,11519,5,4
152,336,12389,6,0,B|272:336,1,100
248,336,12823,1,0
408,336,13258,2,0,B|464:336|464:336|464:288,1,100
464,291,13693,1,0
464,296,14127,1,0
48,192,14779,5,8
128,192,14996,1,4
72,352,16735,2,0,L|88:336|72:328|88:320|72:312|88:304|72:296|88:288|72:280|88:272|72:264|88:256|72:248|88:240|72:232|88:224|72:216|88:208|72:200|88:192|72:184|88:176|64:160,1,400
256,40,18256,5,8
256,120,18473,1,4
112,80,20212,2,0,L|128:64|136:80|144:64|152:80|160:64|168:80|176:64|184:80|192:64|200:80|208:64|216:80|224:64|232:80|240:64|248:80|256:64|264:80|272:64|280:80|288:64|304:88,1,400
464,192,21733,5,8
384,192,21950,1,4
224,192,22385,2,0,B|120:72|176:272|168:160|96:256|88:88|128:136,1,200
56,192,25210,5,4
136,192,25427,2,8,B|136:88,3,100
448,336,27166,5,8
448,336,27275,1,8
400,272,27493,1,8
400,272,27601,1,8
352,208,27818,1,12
32,192,28687,5,0
32,112,28904,1,8
32,32,29122,1,8
112,32,29339,2,8,B|112:136,1,100,8|2
112,208,29774,5,8
192,208,29991,1,8
192,128,30208,2,8,L|192:72|192:16,1,100,8|2
272,32,30643,5,8
272,32,30860,1,8
272,112,31078,1,8
272,112,31295,1,8
272,192,31512,1,8
272,192,31729,1,8
352,192,31947,2,8,L|352:80,1,100,8|2
432,88,32381,5,8
432,128,32490,1,8
432,208,32707,1,8
432,248,32816,1,8
432,328,33033,1,4
352,328,33251,6,8,L|352:272,1,50
352,200,33577,2,8,L|352:136,1,50
352,72,33903,1,4
272,72,34120,5,8
272,72,34229,1,8
272,72,34337,1,8
272,152,34555,1,8
272,152,34663,1,8
272,152,34772,1,8
272,232,34989,1,8
272,232,35098,1,8
272,232,35207,1,8
272,312,35424,5,12
272,312,35641,1,4
192,312,35858,6,0,B|56:312|56:312|64:256|128:248,1,200
168,248,36510,1,8
144,184,36728,2,0,B|280:184|280:184|272:240|208:248,1,200
168,248,37380,1,8
88,248,37597,6,0,B|8:168,1,100,0|8
80,128,38032,2,0,B|160:208,1,100,0|8
216,152,38466,2,0,B|144:80,1,100,0|8
208,40,38901,2,0,B|280:112,1,100,0|8
328,168,39335,5,8
272,224,39553,1,0
208,272,39770,1,2
144,320,39987,1,2
40,96,41074,6,8,B|88:56,1,50
88,144,41400,2,8,B|128:112,1,50
152,40,41726,1,6
432,192,42595,5,8
352,192,42812,1,12
192,192,43247,1,0
32,192,43682,1,4
32,32,44116,5,0
192,32,44551,1,4
352,32,44986,1,0
480,120,45420,1,4
480,280,45855,5,0
336,352,46289,6,8,B|208:352,1,100
152,352,46724,1,0
16,288,47159,2,8,B|144:288,1,100
192,288,47593,1,0
336,232,48028,2,8,B|192:232,1,100
152,232,48463,2,8,B|168:176|240:152,1,100
296,160,48897,5,8
336,160,49006,1,8
336,80,49223,1,0
296,80,49332,1,0
216,80,49549,5,2
136,80,49766,2,8,B|136:136|224:176,1,100
272,160,50201,1,4
272,160,50418,1,4
352,160,50636,2,8,B|336:216|256:240,1,100
200,232,51070,1,4
200,232,51288,1,4
208,312,51505,6,8,B|280:312|280:224,1,100
344,312,51940,2,8,B|272:312|272:224,1,100
272,176,52374,1,8
272,136,52483,1,8
272,96,52592,1,8
272,56,52700,1,8
240,24,52809,6,4,B|240:128,1,100,4|4
160,120,53243,6,8,B|0:120,1,150
8,160,53678,1,8
8,240,53895,1,2
8,320,54113,6,8,B|200:320,1,150
160,280,54547,1,8
160,200,54765,1,2
120,128,54982,5,8
120,128,55091,1,8
120,128,55199,1,8
200,128,55417,1,8
200,128,55525,1,8
200,128,55634,1,8
160,56,55851,6,8,B|160:120,4,50
160,136,56503,1,2
160,216,56720,1,4
160,336,57046,2,8,B|240:336,1,50
248,336,57264,1,8
248,256,57481,1,12
440,112,58133,6,8,B|360:112,1,50
352,112,58351,1,8
312,112,58459,1,8
312,232,58785,2,8,B|232:232,1,50
224,232,59003,1,8
224,152,59220,1,12
16,352,60197,5,12
136,352,60523,2,8,B|216:352,1,50
224,352,60741,1,8
304,352,60958,1,12
440,160,61610,6,8,B|360:160,1,50
352,160,61827,1,8
312,160,61936,1,8
192,160,62262,1,8
192,120,62371,1,8
192,88,62479,1,8
192,40,62588,2,2,B|296:40,1,100
368,40,63023,2,2,B|360:96|264:120,1,100
296,184,63457,5,12
296,184,63674,1,12
56,56,67151,5,8
136,56,67369,1,8
216,56,67586,2,8,B|280:56|280:128,2,100
216,136,68238,1,12
64,136,68673,5,8
80,216,68890,1,8
104,240,68999,1,8
184,240,69216,1,8
216,216,69325,1,8
216,136,69542,2,8,B|184:88|120:96,2,100,8|8|12
40,40,74105,5,8
120,40,74323,1,8
200,40,74540,1,8
280,40,74757,2,8,B|280:96|208:112,1,100
136,112,75192,1,12
296,112,75627,5,8
280,192,75844,1,8
256,224,75953,1,8
176,248,76170,1,8
144,224,76279,1,8
80,168,76496,2,8,B|152:120|208:168,2,100,8|8|12
256,128,80842,5,8
256,208,81059,2,0,B|256:264,15,50
256,296,82798,2,0,B|256:344,30,25
256,192,84536,12,4,86710
96,40,88013,6,0,B|40:88|40:176|88:256,1,200
120,288,88448,1,8
160,224,88665,1,8
128,144,88883,1,8
200,104,89100,1,8
280,112,89317,2,0,B|344:168|312:312|216:248,1,200
168,264,89752,5,8
168,264,89969,1,8
168,184,90187,1,8
168,184,90404,1,8
248,48,90621,2,8,B|248:160|296:200|296:64|296:40,1,200
144,104,91056,2,8,B|24:104|24:104|48:64|88:48,1,200
160,32,91490,5,0
240,32,91708,1,0
320,32,91925,1,8
280,104,92142,1,8
200,104,92360,1,8
240,168,92577,1,0
240,248,92794,6,8,B|296:224|320:176|352:128|368:88,1,200
408,160,93229,2,8,B|464:200|456:280|416:296|344:304,1,200
368,224,93664,2,8,B|344:168|256:168|328:256|184:192,1,200
160,264,94098,1,8
200,336,94316,1,8
120,336,94533,1,8
40,336,94750,1,8
40,256,94967,5,4
128,32,95619,1,0
208,32,95837,1,4
440,96,96489,1,0
440,176,96706,1,4
264,344,97358,1,0
184,344,97575,1,4
40,152,98444,1,4
248,40,99096,6,4,B|352:40|352:64|384:64|384:40|448:40|480:40,1,200
448,280,99966,2,8,B|224:280,4,200
384,232,101052,2,12,B|272:232,4,100
464,232,101704,1,12
464,152,101921,5,12
96,192,104747,5,8
256,192,104964,1,8
416,192,105181,1,12
48,40,108875,5,8
88,40,108984,1,8
128,40,109093,2,12,B|264:40,1,100
232,120,109527,1,8
232,160,109636,1,8
192,160,109745,2,12,B|72:160,1,100
88,240,110179,1,8
88,280,110288,1,8
128,280,110397,2,12,B|256:280,1,100
296,320,110831,5,8
296,280,110940,1,8
296,240,111049,1,8
368,208,111266,2,12,B|368:320,4,100
448,200,112352,6,4,B|448:136|408:104|336:64|208:40|208:40|256:104|296:136|296:152|288:160|272:176|256:184|176:192|168:112,1,600
56,232,114091,6,4,B|104:192|152:216|144:280|72:288|72:288|120:320|184:304|192:256|168:184|168:184|216:176|256:208|272:152|232:88|176:80|120:136,1,600
56,160,115612,1,8
64,80,115829,1,8
128,32,116047,6,8,B|240:32,1,100
160,80,116481,1,12
240,80,116699,2,8,B|360:80,1,100
296,144,117133,1,12
376,144,117351,2,8,B|488:144,1,100
440,216,117785,1,12
360,216,118003,2,8,B|216:216,1,100
176,216,118437,1,12
96,216,118655,5,8
260,216,118872,1,8
176,112,119089,1,8
232,56,119306,6,8,B|312:136,1,100
288,48,119741,2,2,B|328:96|232:128,1,100,2|8
288,48,120176,2,8,B|368:128,1,100,8|2
344,40,120610,2,8,B|384:88|288:120,1,100
232,136,121045,5,2
176,192,121262,1,8
256,208,121480,1,8
192,152,121697,1,2
272,168,121914,1,8
216,224,122132,1,2
296,232,122349,1,8
240,288,122566,1,2
160,312,122783,5,8
120,312,122892,1,8
80,312,123001,1,8
40,312,123109,1,8
40,272,123218,1,8
40,192,123435,1,8
120,192,123653,2,12,L|120:248|168:248,1,100
312,312,124305,1,2
392,312,124522,5,8
392,272,124631,1,8
392,232,124739,1,8
392,192,124848,1,8
392,152,124957,1,8
312,144,125174,1,8
312,224,125391,2,12,L|256:224|256:288,1,100
96,96,126260,5,8
96,96,126369,1,8
96,96,126478,1,8
96,96,126586,1,8
96,96,126695,1,8
176,96,126912,1,12
256,96,127130,5,8
256,96,127238,1,8
256,96,127347,1,8
256,96,127456,1,8
256,96,127564,1,8
336,96,127782,1,12
408,96,127999,6,8,L|408:152,1,50
376,120,128216,2,8,L|376:192,1,50
344,144,128434,2,8,L|344:216,1,50
312,168,128651,2,8,L|312:240,1,50
280,192,128868,2,8,L|280:264,1,50
240,224,129086,1,8
176,272,129303,5,12
176,272,129520,1,12
40,40,131476,5,12
120,40,131693,1,12
200,40,131911,1,12
280,40,132128,1,12
360,40,132345,1,12
440,40,132563,1,12
440,120,132780,6,2,B|312:120,1,100
256,120,133214,2,12,B|136:120,1,100
72,120,133649,2,12,B|40:120|40:200|40:216,1,100
112,184,134084,2,12,L|216:184,1,100
288,184,134518,1,2
368,184,134736,1,2
448,184,134953,5,8
480,256,135170,1,8
448,328,135388,1,8
408,256,135605,1,8
328,256,135822,2,8,L|208:256,1,100
144,256,136257,1,2
144,256,136474,1,2
64,256,136691,5,8
64,136,137017,1,8
64,96,137126,1,8
120,40,137343,1,8
200,40,137561,1,8
240,40,137669,1,8
280,40,137778,1,8
360,40,137995,5,12
440,40,138213,1,12
400,112,138430,6,8,L|400:192,12,50
240,112,140168,2,8,L|240:192,12,50
80,136,141907,2,0,L|80:184,16,25
280,136,143211,6,0,L|280:168,31,25
448,160,144515,1,12
448,320,144949,1,12
288,320,145384,5,8
208,320,145601,1,8
128,320,145819,1,8
48,320,146036,1,8
48,240,146253,1,8
48,160,146471,1,8
48,80,146688,1,2
112,32,146905,1,2
192,32,147122,5,8
272,32,147340,1,8
352,32,147557,1,8
432,32,147774,1,8
432,112,147992,6,8,L|432:224,1,100
432,288,148426,2,2,B|424:336|392:352|336:352,1,100
280,352,148861,2,8,B|160:352,1,100
96,352,149296,2,8,B|40:352|24:328|24:256,1,100
24,216,149730,2,8,B|24:104,1,100
56,40,150165,5,2
136,24,150382,1,2
216,24,150599,1,8
296,24,150817,1,8
376,24,151034,1,8
456,40,151251,1,8
400,96,151469,1,8
320,96,151686,1,8
240,96,151903,1,2
160,96,152121,1,2
56,312,152773,6,0,B|56:352,24,25
216,312,154511,2,0,B|216:360,16,25
376,312,155815,5,8
416,312,155924,1,8
456,312,156032,1,8
440,272,156141,1,8
416,240,156250,1,8
376,168,156467,5,8
416,168,156576,1,8
456,168,156684,1,8
440,128,156793,1,8
416,96,156902,1,8
352,48,157119,2,8,B|216:48,1,100
296,112,157553,2,8,B|184:112,1,100
112,112,157988,5,0
200,240,158205,1,12
296,112,158423,1,12
400,232,158640,1,12
456,80,158857,1,12
296,112,159075,1,12
216,112,159292,5,8
152,56,159509,1,8
96,112,159727,1,8
152,168,159944,1,8
152,88,160161,2,0,B|144:120|128:136|128:144|128:160|136:168|160:168|176:168|192:184|192:200|176:208|168:216|152:224|152:264,1,200
232,256,160596,1,8
232,256,160813,1,8
280,192,161030,5,8
280,192,161248,1,8
328,128,161465,1,8
376,64,161682,1,8
296,48,161900,6,0,B|168:224,3,200
96,208,162769,5,8
96,128,162986,1,8
96,48,163204,1,8
168,80,163421,1,8
168,160,163638,1,8
232,120,163856,1,8
392,120,164290,5,8
312,120,164507,1,8
312,120,164616,1,8
232,120,164833,1,8
232,120,164942,1,8
232,40,165159,2,12,B|144:72|144:152|200:192|192:192|248:200|280:160,2,200
480,40,166246,5,8
480,120,166463,2,8,B|480:360,1,200
400,320,166898,1,8
400,240,167115,2,8,B|400:24,1,200
320,40,167550,5,8
320,120,167767,2,0,L|312:128|328:128|312:136|328:136|312:144|328:144|312:152|328:152|312:160|328:160|312:168|328:168,1,200
336,248,168202,1,8
248,248,168419,2,0,L|240:256|256:256|240:264|256:264|240:272|256:272|240:280|256:280|240:288|256:288|240:296|256:296,1,200
336,296,168854,1,8
416,296,169071,2,8,B|464:184|424:104,1,200
376,40,169506,5,8
296,40,169723,1,8
240,96,169940,1,8
320,96,170157,1,8
248,136,170375,1,8
328,136,170592,1,8
256,176,170810,1,8
416,184,171244,5,8
384,256,171461,1,8
352,280,171570,1,8
272,288,171787,1,8
240,264,171896,1,8
208,192,172113,2,12,B|264:152|360:152|416:208,2,200
416,120,173200,5,8
368,56,173417,1,8
296,24,173635,1,8
216,24,173852,1,8
136,48,174069,1,8
88,112,174287,1,8
248,96,174721,5,8
320,120,174938,1,8
328,160,175047,1,8
256,192,175264,1,8
224,168,175373,1,8
152,136,175590,2,12,B|176:80|240:40|336:40,2,200
408,64,176677,5,8
408,144,176894,1,8
408,224,177112,1,8
408,304,177329,1,8
328,304,177546,1,8
328,264,177655,1,8
328,184,177872,1,8
328,144,177981,1,8
328,64,178198,5,8
288,64,178307,1,8
256,88,178415,1,8
288,160,178633,1,8
328,144,178741,1,8
352,112,178850,1,8
272,128,179067,2,12,B|208:160,6,50
176,344,180154,5,8
336,344,180589,1,8
192,264,181023,1,8
352,264,181458,1,8
208,184,181892,1,8
368,184,182327,1,8
224,104,182762,1,8
384,104,183196,1,8
392,264,183631,5,8
312,264,183848,1,8
232,264,184066,1,8
152,264,184283,1,8
200,200,184500,1,8
280,200,184718,1,8
360,200,184935,1,8
440,200,185152,1,8
400,136,185369,6,8,B|400:80,4,50
320,136,186021,1,8
240,136,186239,2,8,B|240:72,4,50
240,216,186891,1,8
240,296,187108,5,12
