osu file format v5

[General]
AudioFilename: Profondo Rosso - Capitan Techno 2000 - Profondo Rosso 2000(1.mp3
AudioLeadIn: 0
PreviewTime: -1
Countdown: 0
SampleSet: Normal
StackLeniency: 0.7
Mode: 0
LetterboxInBreaks: 1
EditorBookmarks: 74096,84531,86703,144055,166217,169258

[Metadata]
Title:Profondo Rosso
Artist:Capitan Tekno
Creator:beatmastermap
Version:Boring
Source:
Tags:

[Difficulty]
HPDrainRate:3
CircleSize:4
OverallDifficulty:2
SliderMultiplier:1.2
SliderTickRate:2

[Events]
//Background and Video events
0,0,"sfondo profondo rosso.png"
//Break Periods
2,70168,73346
2,77772,82965
2,129698,130704
2,144255,144609
//Storyboard Layer 0 (Background)
//Storyboard Layer 1 (Failing)
//Storyboard Layer 2 (Passing)
//Storyboard Layer 3 (Foreground)
//Storyboard Sound Samples
//Background Colour Transformations
3,100,0,0,0

[TimingPoints]
28904.9361702128,434.625135820355,4,1,0,80,1,0
176428,-100,4,1,0,0,0,0

[Colours]
Combo1 : 255,128,64
Combo2 : 255,255,0
Combo3 : 0,128,0
Combo4 : 128,0,64

[HitObjects]
72,320,28904,5,0
168,320,29339,1,0
264,320,29774,1,0
360,320,30208,5,0
360,224,30643,1,0
360,128,31078,1,0
264,128,31512,5,0
168,128,31947,1,0
72,128,32381,2,0,B|72:264,1,120
168,248,33251,6,0,B|232:248|232:248|232:288|232:288|256:288,1,120
344,288,34120,6,0,B|480:288,1,120
464,192,34989,6,0,B|464:120|464:120|408:120,1,120
335,168,35858,6,0,B|279:168|279:168|279:232,1,120
184,232,36728,6,0,B|184:96,1,120
184,16,37597,6,8,B|304:16,2,120
184,112,38901,1,2
184,208,39335,6,8,B|112:208,3,60
72,208,40205,1,0
72,304,40639,1,0
168,304,41074,6,8,B|128:304,4,30
216,304,41726,5,8
432,192,42812,5,0
336,192,43247,1,0
240,192,43682,2,0,B|240:120,2,60
240,288,44551,5,0
336,288,44986,1,0
432,288,45420,2,0,B|432:352,2,60
432,192,46289,5,0
432,96,46724,5,0
336,96,47159,1,0
240,96,47593,1,0
144,96,48028,5,0
144,192,48463,1,0
240,192,48897,1,0
352,344,49766,6,8,L|472:344,2,120
256,344,51070,5,2
160,344,51505,2,0,L|56:344|56:344|56:320,1,120
56,232,52374,6,8,L|56:104,1,120
152,112,53243,1,0
200,112,53461,1,0
248,112,53678,1,0
344,112,54113,6,8,L|472:112,1,120
464,208,54982,1,0
464,256,55199,1,0
416,256,55417,1,0
320,256,55851,5,8
272,256,56069,1,8
128,256,56720,6,8,L|128:136,1,120
128,40,57590,2,8,L|256:40,1,120
344,40,58459,2,8,L|448:40|448:40|448:64,1,120
448,152,59328,6,8,L|328:152,1,120
232,152,60197,6,8,L|168:152,5,60
176,248,61719,6,8,L|240:248,6,60
256,304,63457,5,2
352,304,63892,6,8,L|424:304,1,60
440,264,64326,5,0
456,216,64544,6,8,L|456:144,1,60
440,112,64978,5,2
408,72,65196,6,8,L|336:72,1,60
248,72,65848,6,2,L|128:72,1,120
128,168,66717,1,10
128,264,67151,6,8,L|64:264,5,60
128,336,68673,2,8,L|192:336,6,60
256,192,74105,12,4,77582
80,48,84536,6,2,B|224:48|384:112|464:328|464:328|360:328,1,600
272,336,87144,2,0,B|272:320,16,15,0|0|0|0|0|0|0|0|0|0|0|0|0|0|0|0|8
176,336,88448,6,8,B|40:336,1,120
56,240,89317,1,8
56,240,89752,1,8
56,144,90187,5,8
56,144,90621,1,8
56,48,91056,5,8
56,48,91490,1,8
152,48,91925,6,8,B|288:48,1,120
272,144,92794,2,8,B|272:200|272:200|344:200,1,120
432,200,93664,6,8,B|432:328,1,120
336,320,94533,6,8,B|336:248,2,60
240,320,95402,6,8,B|112:320,1,120
120,224,96271,2,8,B|256:224,1,120
240,128,97141,6,8,B|304:128,2,60
240,128,97793,6,8,B|240:64,2,60
240,128,98444,6,2,B|160:80|48:80|48:80|48:320|48:320|224:320,1,600
208,224,101052,6,0,B|232:224,16,15,0|0|0|0|0|0|0|0|0|0|0|0|0|0|0|0|8
208,128,102356,6,8,B|336:128,1,120
328,128,103225,6,8,B|440:176,1,120
438,175,104095,6,8,B|440:304,1,120
344,296,104964,6,10,B|344:232,2,60
248,296,105833,6,8,B|192:344|128:288,1,120
136,200,106702,6,8,B|136:72,1,120
232,80,107572,6,8,B|296:80,2,60
232,80,108224,6,8,B|232:144,2,60
232,80,108875,6,10,B|344:144,1,120
432,152,109745,2,8,B|432:288,1,120
336,280,110614,5,8
336,280,110831,1,8
336,280,111049,1,8
240,280,111483,5,8
240,280,111701,1,8
240,280,111918,1,8
144,280,112352,5,8
144,280,112787,1,8
104,248,113004,5,8
64,216,113222,5,8
64,216,113656,1,8
64,120,114091,6,8,B|64:48,2,60
64,120,114743,6,8,B|136:120,2,60
64,120,115395,5,8
64,216,115829,5,8
64,312,116264,1,8
160,312,116699,6,8,B|296:312,1,120
376,312,117568,6,8,B|464:312|464:312|464:272,1,120
464,232,118220,1,8
464,184,118437,1,10
464,136,118655,1,8
448,88,118872,1,10
408,56,119089,1,8
360,48,119306,2,8,B|224:48,1,120
144,48,120176,6,8,B|88:48|88:48|88:120,1,120
88,208,121045,6,8,B|88:336,1,120
184,328,121914,6,10,B|184:264,2,60
280,328,122783,6,8,B|456:328|456:328|456:256,1,240
456,168,124087,6,8,B|456:72|456:72|304:72,1,240
216,72,125391,6,10,B|216:136,2,60
120,72,126260,6,8,B|72:72|72:72|72:152,1,120
72,240,127130,5,8
72,240,127564,1,8
72,336,127999,5,8
72,336,128434,1,8
168,336,128868,5,8
168,336,129303,1,0
224,128,131476,6,2,B|296:128,5,60
328,128,132780,6,8,B|328:192,1,60
328,232,133214,6,2,B|392:232,5,60
392,280,134518,6,8,B|392:344,1,60
344,344,134953,6,2,B|280:344,5,60
232,344,136257,6,8,B|168:344,1,60
176,296,136691,6,2,B|176:224,7,60
176,184,138430,6,2,B|104:184,5,60
112,136,139734,6,8,B|112:64,1,60
160,72,140168,6,2,B|224:72,5,60
264,72,141472,6,8,B|336:72,1,60
368,72,141907,6,6,B|448:72|448:72|448:272|448:320|448:320|168:320,1,600
64,56,145384,6,8,B|200:56,1,120
280,56,146253,6,8,B|408:56,1,120
400,152,147122,5,8
304,152,147557,1,8
208,152,147992,1,8
208,248,148426,5,8
304,248,148861,1,8
208,248,149296,5,8
208,344,149730,1,8
208,248,150165,5,8
112,248,150599,1,8
208,248,151034,5,8
208,152,151469,2,8,B|344:152,1,120
328,56,152338,6,8,B|200:56,1,120
112,56,153207,6,8,B|112:184,1,120
112,272,154076,5,8
208,272,154511,1,8
304,272,154946,1,8
400,272,155380,6,10,B|472:272,2,60
400,176,156250,6,10,B|336:176,2,60
400,80,157119,5,8
352,80,157336,1,8
304,80,157553,1,8
256,80,157770,1,8
208,80,157988,1,8
160,80,158205,1,8
112,80,158422,6,10,B|112:208,1,120
112,296,159292,6,8,B|240:296,1,120
328,296,160161,6,10,B|328:224,2,60
328,296,160813,6,8,B|400:296,1,60
432,296,161247,2,8,B|432:232,1,60
432,184,161682,2,10,B|432:120,1,60
432,72,162117,5,8
384,72,162334,1,8
336,72,162551,1,8
288,72,162769,6,10,B|288:144,1,60
240,136,163203,2,2,B|112:136,1,120
120,232,164073,5,0
120,232,164507,1,0
120,232,164942,1,0
120,232,165376,1,0
120,232,165811,1,0
120,328,166246,6,8,B|48:328,2,60
168,328,166898,6,10,B|240:328,1,60
272,328,167332,6,8,B|336:328,1,60
376,328,167767,1,10
424,328,167984,6,8,B|424:256,1,60
424,216,168419,2,10,B|360:216,1,60
312,216,168853,2,8,B|248:216,1,60
213,244,169288,5,8
213,244,169723,1,0
213,244,170157,1,0
213,244,170592,1,0
213,244,171027,1,0
213,244,171461,1,0
213,244,171896,1,0
213,244,172330,1,0
213,244,172765,1,0
256,192,173200,12,0,176677
