osu file format v12

[General]
AudioFilename: Capital Inicial - Natasha.mp3
AudioLeadIn: 3000
PreviewTime: 56054
Countdown: 1
SampleSet: Soft
StackLeniency: 0.7
Mode: 0
LetterboxInBreaks: 1

[Editor]
Bookmarks: 165493
DistanceSpacing: 1.2
BeatDivisor: 4
GridSize: 4

[Metadata]
Title:Natasha (Acoustic Ver.)
TitleUnicode:Natasha (Acoustic Ver.)
Artist:Capital Inicial
ArtistUnicode:Capital Inicial
Creator:fabriciorby
Version:n0rm41
Source:Acústico MTV
Tags:banana dinho black gold
BeatmapID:169843
BeatmapSetID:44748

[Difficulty]
HPDrainRate:3
CircleSize:3
OverallDifficulty:3
ApproachRate:4
SliderMultiplier:0.8
SliderTickRate:1

[Events]
//Background and Video events
0,0,"45965.jpg",0,0
//Break Periods
2,57704,69183
//Storyboard Layer 0 (Background)
//Storyboard Layer 1 (Fail)
//Storyboard Layer 2 (Pass)
//Storyboard Layer 3 (Foreground)
//Storyboard Sound Samples
//Background Colour Transformations
3,100,163,162,255

[TimingPoints]
109,399.966711096301,4,2,0,50,1,0
12907,-100,4,1,0,35,0,0
41705,-100,4,1,0,35,0,1
56054,399.966711096301,4,2,0,50,1,0
57704,399.966711096301,4,1,0,50,1,0
70502,-100,4,2,0,50,0,0
83301,-100,4,1,0,35,0,0
112099,-100,4,1,0,35,0,1
124898,-90.9090909090909,4,1,0,35,0,1
139247,408.163265306122,4,2,0,50,1,0
139346,-83.3333333333333,4,2,0,50,0,0
140909,400,4,2,0,50,1,0
140909,-83.3333333333333,4,2,0,50,0,1
147295,399.966711096301,4,2,0,50,1,0
147295,-83.3333333333333,4,2,0,50,0,1
166493,-83.3333333333333,4,2,0,50,0,0
178692,-133.333333333333,4,2,0,40,0,0
179692,-133.333333333333,4,2,0,5,0,0

[HitObjects]
80,180,109,2,0,B|136:210|193:180,2,120,2|2|0,0:0|0:0|0:0,0:0:0:0:
136,100,1708,2,0,B|208:68,1,80,2|0,0:0|0:0,0:0:0:0:
302,67,2508,2,0,B|376:100,1,80,2|0,0:0|0:0,0:0:0:0:
444,168,3308,6,0,B|413:224|444:281,2,120,2|2|0,0:0|0:0|0:0,0:0:0:0:
404,80,4908,1,2,0:0:0:0:
316,44,5308,1,0,0:0:0:0:
220,44,5708,2,0,B|136:44,1,80,2|0,0:0|0:0,0:0:0:0:
140,140,6508,6,0,B|121:201|59:220,2,120,2|2|0,0:0|0:0|0:0,0:0:0:0:
236,140,8108,1,2,0:0:0:0:
308,200,8508,1,0,0:0:0:0:
216,232,8908,1,2,0:0:0:0:
372,140,9708,6,0,B|390:201|452:220,2,120,2|2|0,0:0|0:0|0:0,0:0:0:0:
304,72,11308,1,2,0:0:0:0:
208,72,11708,1,0,0:0:0:0:
216,168,12108,2,0,B|256:176|256:176|296:168,1,80,2|0,0:0|0:0,0:0:0:0:
360,236,12907,6,0,B|360:298|409:335|463:331,1,160,4|8,0:0|0:0,0:0:0:0:
456,236,14107,1,0,0:0:0:0:
428,144,14507,2,0,B|390:160|390:127|352:144,1,80,0|8,0:0|0:0,0:0:0:0:
272,200,15307,2,0,B|234:216|234:183|196:200,1,80,2|8,0:0|0:0,0:0:0:0:
108,160,16107,6,0,B|77:104|108:46,2,120,4|2|8,0:0|0:0|0:0,0:0:0:0:
39,228,17707,2,0,B|69:283|39:341,2,120,4|2|8,0:0|0:0|0:0,0:0:0:0:
107,159,19307,6,0,B|185:159,1,80,2|0,0:0|0:0,0:0:0:0:
224,248,20107,2,0,B|146:248,1,80,2|0,0:0|0:0,0:0:0:0:
140,344,20907,2,0,B|197:368|197:318|254:344,2,120,0|8|0,0:0|0:0|0:0,0:0:0:0:
48,320,22507,5,2,0:0:0:0:
24,228,22907,1,8,0:0:0:0:
56,136,23307,1,0,0:0:0:0:
136,84,23707,1,8,0:0:0:0:
200,156,24107,2,0,B|240:144|256:103|256:103|272:144|312:156,1,160,0|8,0:0|0:0,0:0:0:0:
400,120,25306,1,0,0:0:0:0:
467,187,25706,6,0,B|436:242|467:300,2,120,2|2|0,0:0|0:0|0:0,0:0:0:0:
464,92,27306,2,0,B|384:64,1,80,0|8,0:0|0:0,0:0:0:0:
320,133,28106,2,0,B|240:105,1,80,0|8,0:0|0:0,0:0:0:0:
156,148,28906,5,2,0:0:0:0:
120,236,29306,1,8,0:0:0:0:
52,168,29706,1,2,0:0:0:0:
16,256,30106,1,0,0:0:0:0:
80,328,30506,2,0,B|116:374|185:374|185:374|245:355|305:374,1,240,2|8,0:0|0:0,0:0:0:0:
344,284,32106,6,0,B|344:192,1,80,4|2,0:0|0:0,0:0:0:0:
344,107,32906,1,0,0:0:0:0:
408,36,33306,1,2,0:0:0:0:
312,20,33706,2,0,B|256:56|200:20,1,120,8|8,0:0|0:0,0:0:0:0:
131,87,34706,2,0,B|163:115,1,40,0|8,0:0|0:0,0:0:0:0:
161,209,35306,6,0,B|185:246|161:283,1,80,4|8,0:0|0:0,0:0:0:0:
104,364,36106,1,2,0:0:0:0:
104,364,36505,1,0,0:0:0:0:
200,364,36905,2,0,B|256:328|312:364,2,120
256,192,38505,12,0,39705,0:0:0:0:
256,192,40105,12,4,41705,0:0:0:0:
508,154,42305,5,0,0:0:0:0:
406,52,42905,2,0,B|324:64,1,80,8|4,0:0|0:0,0:0:0:0:
256,192,43905,1,2,0:0:0:0:
185,63,44505,2,0,B|106:52,1,80,0|8,0:0|0:0,0:0:0:0:
68,140,45305,6,0,B|147:151,1,80,0|8,0:0|0:0,0:0:0:0:
96,232,46105,1,0,0:0:0:0:
140,316,46505,2,0,B|256:261|372:316,1,240,2|8,0:0|0:0,0:0:0:0:
448,258,48105,6,0,B|476:126,1,120,4|0,0:0|0:0,0:0:0:0:
371,38,49304,1,8,0:0:0:0:
303,105,49704,2,0,B|275:237,1,120,4|0,0:0|0:0,0:0:0:0:
176,324,50904,1,8,0:0:0:0:
108,256,51304,6,0,B|90:218|108:180,1,80,2|0,0:0|0:0,0:0:0:0:
196,222,52104,2,0,B|213:184|196:146,1,80,2|0,0:0|0:0,0:0:0:0:
136,70,52904,1,4,0:0:0:0:
228,42,53304,1,2,0:0:0:0:
324,42,53704,1,4,0:0:0:0:
416,70,54104,1,2,0:0:0:0:
256,192,54504,12,4,56054,0:0:0:0:
200,48,70503,6,0,B|280:28,1,80,4|0,0:0|0:0,0:0:0:0:
328,112,71302,2,0,B|250:131,1,80,2|0,0:0|0:0,0:0:0:0:
156,136,72102,1,2,0:0:0:0:
100,216,72502,1,8,0:0:0:0:
128,308,72902,1,0,0:0:0:0:
192,236,73302,2,0,B|248:300,1,80,0|2,0:0|0:0,0:0:0:0:
304,220,74102,6,0,B|384:240,2,80,0|2|0,0:0|0:0|0:0,0:0:0:0:
356,140,75302,1,2,0:0:0:0:
356,44,75702,2,0,B|436:64,2,80,0|2|0,0:0|0:0|0:0,0:0:0:0:
268,84,76902,6,0,B|196:88|144:108,1,120,2|0,0:0|0:0,0:0:0:0:
84,236,78102,1,0,0:0:0:0:
140,312,78502,2,0,B|212:308|264:288,1,120,2|0,0:0|0:0,0:0:0:0:
360,192,79702,1,2,0:0:0:0:
400,104,80102,6,0,B|424:28,1,80,0|2,0:0|0:0,0:0:0:0:
328,20,80902,2,0,B|300:108,1,80,0|2,0:0|0:0,0:0:0:0:
208,96,81702,2,0,B|183:19,1,80,0|2,0:0|0:0,0:0:0:0:
87,27,82502,2,0,B|111:103,1,80,0|2,0:0|0:0,0:0:0:0:
152,192,83301,5,4,0:0:0:0:
152,192,83701,2,0,B|160:240|144:280,1,80,0|8,0:0|0:0,0:0:0:0:
208,344,84501,1,0,0:0:0:0:
256,260,84901,2,0,B|256:192|256:128,2,120,2|0|2,0:0|0:0|0:0,0:0:0:0:
304,344,86501,5,0,0:0:0:0:
364,271,86901,2,0,B|352:240|360:192,1,80,8|0,0:0|0:0,0:0:0:0:
344,96,87701,1,8,0:0:0:0:
256,140,88101,2,0,B|256:192|256:260,2,120,2|0|2,0:0|0:0|0:0,0:0:0:0:
168,96,89701,5,4,0:0:0:0:
84,144,90101,1,2,0:0:0:0:
168,192,90501,2,0,B|168:236|136:268,1,80,0|8,0:0|0:0,0:0:0:0:
236,268,91301,2,0,B|280:268|312:300,1,80,0|8,0:0|0:0,0:0:0:0:
308,200,92101,2,0,B|308:156|340:124,1,80,0|8,0:0|0:0,0:0:0:0:
404,196,92901,5,0,0:0:0:0:
372,284,93301,1,2,0:0:0:0:
280,312,93701,1,0,0:0:0:0:
200,260,94101,2,0,B|116:212,1,80,0|8,0:0|0:0,0:0:0:0:
200,152,94900,2,0,B|116:104,2,80,0|8|0,0:0|0:0|0:0,0:0:0:0:
276,208,96100,6,0,B|336:216|372:276,2,120,4|2|8,0:0|0:0|0:0,0:0:0:0:
204,144,97700,2,0,B|144:136|108:76,2,120,4|2|8,0:0|0:0|0:0,0:0:0:0:
288,100,99300,1,0,0:0:0:0:
384,108,99700,2,0,B|464:96,1,80,0|8,0:0|0:0,0:0:0:0:
428,188,100500,2,0,B|520:212,1,80,0|2,0:0|0:0,0:0:0:0:
444,280,101300,2,0,B|513:332,2,80,0|8|0,0:0|0:0|0:0,0:0:0:0:
360,232,102500,6,0,B|320:252|280:232,1,80,4|2,0:0|0:0,0:0:0:0:
232,152,103300,2,0,B|194:133|154:153,1,80,0|8,0:0|0:0,0:0:0:0:
192,240,104100,2,0,B|192:332,2,80,0|2|0,0:0|0:0|0:0,0:0:0:0:
104,280,105300,1,2,0:0:0:0:
68,192,105700,5,0,0:0:0:0:
100,100,106100,1,8,0:0:0:0:
180,48,106500,1,0,0:0:0:0:
264,96,106899,2,0,B|348:96,1,80,0|8,0:0|0:0,0:0:0:0:
388,184,107699,2,0,B|304:184,2,80,0|0|8,0:0|0:0|0:0,0:0:0:0:
256,192,108899,12,4,112099,0:0:0:0:
129,279,112899,6,0,B|168:264|208:280,1,80
304,280,113699,2,0,B|344:296|384:280,2,80,0|2|0,0:0|0:0|0:0,0:0:0:0:
256,196,114899,1,8,0:0:0:0:
192,124,115299,5,0,0:0:0:0:
256,52,115699,1,2,0:0:0:0:
320,124,116099,2,0,B|412:124,1,80,0|2,0:0|0:0,0:0:0:0:
256,192,116899,12,4,118499,0:0:0:0:
129,104,119298,6,0,B|168:120|208:104,1,80
304,104,120098,2,0,B|344:88|384:104,2,80,2|0|2,0:0|0:0|0:0,0:0:0:0:
256,188,121298,1,0,0:0:0:0:
192,260,121698,5,0,0:0:0:0:
256,332,122098,1,8,0:0:0:0:
320,260,122498,2,0,B|412:260,1,80,2|0,0:0|0:0,0:0:0:0:
400,164,123298,2,0,B|440:92,1,80,2|0,0:0|0:0,0:0:0:0:
344,80,124098,2,0,B|304:152,1,80,2|0,0:0|0:0,0:0:0:0:
206,149,124898,6,0,B|160:72,1,88.000002685547,6|0,0:0|0:0,0:0:0:0:
73,94,125698,2,0,B|124:184,1,87.9999973773957,0|8,0:0|0:0,0:0:0:0:
152,272,126498,1,0,0:0:0:0:
256,256,126898,1,8,0:0:0:0:
360,272,127298,1,0,0:0:0:0:
372,168,127698,1,8,0:0:0:0:
372,168,128098,6,0,B|308:100,1,87.9999973773957,0|2,0:0|0:0,0:0:0:0:
204,104,128898,2,0,B|143:168,1,87.9999973773957,0|2,0:0|0:0,0:0:0:0:
256,192,129698,12,4,131297,0:0:0:0:
196,96,131697,6,0,B|152:72|112:96,1,87.9999973773957,0|2,0:0|0:0,0:0:0:0:
160,192,132497,1,0,0:0:0:0:
256,240,132897,1,2,0:0:0:0:
352,192,133297,1,0,0:0:0:0:
400,96,133697,2,0,B|360:72|316:96,1,87.9999973773957,0|8,0:0|0:0,0:0:0:0:
256,184,134497,6,0,B|256:316,2,131.999996066094,4|0|2,0:0|0:0|0:0,0:0:0:0:
172,248,136097,2,0,B|132:280|92:248,2,87.9999973773957,0|2|0,0:0|0:0|0:0,0:0:0:0:
340,248,137297,2,0,B|380:280|420:248,1,87.9999973773957,0|2,0:0|0:0,0:0:0:0:
256,192,137897,12,4,139247,0:0:0:0:
200,104,140909,6,0,B|124:144|48:96,2,144.000003433228,4|0|2,0:0|0:0|0:0,0:0:0:0:
312,72,142509,2,0,B|388:32|464:80,2,144.000003433228,2|0|2,0:0|0:0|0:0,0:0:0:0:
380,156,144109,5,2,0:0:0:0:
256,256,144709,1,0,0:0:0:0:
132,156,145309,1,2,0:0:0:0:
192,72,145709,2,0,B|256:28|328:72,2,144.000003433228,2|0|2,0:0|0:0|0:0,0:0:0:0:
256,152,147295,6,0,B|256:252,1,96.0000022888184,4|0,0:0|0:0,0:0:0:0:
160,292,148094,1,0,0:0:0:0:
72,232,148494,1,2,0:0:0:0:
144,156,148894,6,0,B|183:115|151:68,1,96.0000022888184,0|2,0:0|0:0,0:0:0:0:
256,48,149694,2,0,B|256:144,1,96.0000022888184,2|0,0:0|0:0,0:0:0:0:
366,154,150494,2,0,B|328:116|360:68,1,96.0000022888184,2|0,0:0|0:0,0:0:0:0:
256,144,151294,1,0,0:0:0:0:
256,248,151694,1,2,0:0:0:0:
256,248,152094,6,0,B|192:248|144:248,1,95.9999970703126,2|2,0:0|0:0,0:0:0:0:
104,148,152894,2,0,B|176:148|212:148,1,95.9999970703126,0|0,0:0|0:0,0:0:0:0:
248,44,153694,1,4,0:0:0:0:
348,100,154094,2,0,B|444:72,2,95.9999970703126,0|2|0,0:0|0:0|0:0,0:0:0:0:
396,192,155294,1,2,0:0:0:0:
348,284,155694,2,0,B|444:312,2,95.9999970703126,0|2|0,0:0|0:0|0:0,0:0:0:0:
256,340,156894,5,2,0:0:0:0:
172,280,157294,1,0,0:0:0:0:
76,328,157694,1,2,0:0:0:0:
68,224,158094,2,0,B|92:176|156:156,1,95.9999970703126,0|2,0:0|0:0,0:0:0:0:
64,88,158894,2,0,B|116:52|172:64,1,95.9999970703126,0|2,0:0|0:0,0:0:0:0:
256,92,159693,1,0,0:0:0:0:
256,92,160093,6,0,B|256:236,2,143.999995605469,4|0|2,0:0|0:0|0:0,0:0:0:0:
340,140,161693,2,0,B|416:104|492:124,2,143.999995605469,2|0|2,0:0|0:0|0:0,0:0:0:0:
172,140,163293,2,0,B|96:104|20:124,2,143.999995605469,2|0|2,0:0|0:0|0:0,0:0:0:0:
164,240,164893,5,0,0:0:0:0:
208,324,165293,1,2,0:0:0:0:
304,324,165693,1,0,0:0:0:0:
348,240,166093,1,2,0:0:0:0:
256,192,166493,5,4,0:0:0:0:
164,144,166893,2,0,B|164:244,1,95.9999970703126,0|2,0:0|0:0,0:0:0:0:
256,192,167693,1,0,0:0:0:0:
348,240,168093,2,0,B|348:140,1,95.9999970703126,2|0,0:0|0:0,0:0:0:0:
308,48,168893,6,0,B|368:32|416:64,2,95.9999970703126,2|0|2,0:0|0:0|0:0,0:0:0:0:
204,48,170093,2,0,B|144:32|96:64,2,95.9999970703126,0|2|0,0:0|0:0|0:0,0:0:0:0:
256,140,171293,1,0,0:0:0:0:
164,192,171692,1,2,0:0:0:0:
68,144,172092,1,0,0:0:0:0:
76,248,172492,2,0,B|108:292|76:336,1,95.9999970703126,0|4,0:0|0:0,0:0:0:0:
180,308,173292,5,0,0:0:0:0:
256,236,173692,2,0,B|256:136,1,95.9999970703126,2|0,0:0|0:0,0:0:0:0:
332,76,174492,1,0,0:0:0:0:
435,47,174892,2,0,B|403:91|436:136,1,95.9999970703126,2|0,0:0|0:0,0:0:0:0:
444,240,175692,5,0,0:0:0:0:
352,292,176092,1,2,0:0:0:0:
256,244,176491,1,0,0:0:0:0:
200,156,176892,2,0,B|156:124|112:156,2,95.9999970703126,0|2|4,0:0|0:0|0:0,0:0:0:0:
312,156,178092,2,0,B|356:188|400:156,2,95.9999970703126,2|0|2,0:0|0:0|0:0,0:0:0:0:
256,64,179292,1,4,0:0:0:0:
256,192,179692,12,0,182492,0:0:0:0:
