osu file format v12

[General]
AudioFilename: Capital Inicial - Natasha.mp3
AudioLeadIn: 3000
PreviewTime: 56054
Countdown: 1
SampleSet: Soft
StackLeniency: 0.7
Mode: 0
LetterboxInBreaks: 1

[Editor]
Bookmarks: 165493
DistanceSpacing: 1.2
BeatDivisor: 4
GridSize: 4

[Metadata]
Title:Natasha (Acoustic Ver.)
TitleUnicode:Natasha (Acoustic Ver.)
Artist:Capital Inicial
ArtistUnicode:Capital Inicial
Creator:fabriciorby
Version:h4rd
Source:Acústico MTV
Tags:banana dinho black gold
BeatmapID:140075
BeatmapSetID:44748

[Difficulty]
HPDrainRate:6
CircleSize:4
OverallDifficulty:7
ApproachRate:8
SliderMultiplier:1.4
SliderTickRate:2

[Events]
//Background and Video events
0,0,"45965.jpg",0,0
//Break Periods
2,57704,69753
//Storyboard Layer 0 (Background)
//Storyboard Layer 1 (Fail)
//Storyboard Layer 2 (Pass)
//Storyboard Layer 3 (Foreground)
//Storyboard Sound Samples
//Background Colour Transformations
3,100,163,162,255

[TimingPoints]
109,399.966711096301,4,2,0,50,1,0
12907,-100,4,1,0,35,0,0
41705,-100,4,1,0,35,0,1
56054,399.966711096301,4,2,0,50,1,0
57704,399.966711096301,4,1,0,50,1,0
112099,-100,4,1,0,50,0,1
124898,-83.3333333333333,4,1,0,50,0,1
139247,408.163265306122,4,2,0,50,1,0
139346,-83.3333333333333,4,2,0,50,0,0
140909,400,4,2,0,50,1,0
140909,-83.3333333333333,4,1,0,35,0,1
147295,399.966711096301,4,2,0,50,1,0
147295,-83.3333333333333,4,1,0,35,0,1
166493,-83.3333333333333,4,2,0,50,0,0
178692,-133.333333333333,4,2,0,40,0,0

[HitObjects]
83,118,108,2,0,B|160:164|207:98,1,140,2|0,0:0|0:0,0:0:0:0:
305,98,708,2,0,B|352:164|432:116,1,140,2|2,0:0|0:0,0:0:0:0:
372,64,1308,1,0,0:0:0:0:
252,156,1508,1,0,0:0:0:0:
140,64,1708,1,2,0:0:0:0:
104,192,1908,6,0,B|104:240|130:253,1,70
180,196,2308,1,0,0:0:0:0:
116,328,2508,2,0,B|40:296|32:212,1,140,2|0,0:0|0:0,0:0:0:0:
396,327,3308,6,0,B|472:296|478:223,1,140,2|0,0:0|0:0,0:0:0:0:
332,196,3908,1,2,0:0:0:0:
381,253,4108,2,0,B|408:240|407:193,1,70
460,136,4508,1,0,0:0:0:0:
400,88,4708,1,0,0:0:0:0:
188,104,4908,6,0,B|256:132|324:104,1,140,2|0,0:0|0:0,0:0:0:0:
324,280,5508,2,0,B|256:248|188:280,1,140,2|0,0:0|0:0,0:0:0:0:
112,296,6108,1,0,0:0:0:0:
52,248,6308,1,0,0:0:0:0:
124,220,6508,6,0,B|208:188|216:116,1,140,2|0,0:0|0:0,0:0:0:0:
296,122,7108,2,0,B|304:188|387:219,1,140,2|0,0:0|0:0,0:0:0:0:
460,248,7708,1,0,0:0:0:0:
400,296,7908,1,0,0:0:0:0:
256,282,8108,6,0,B|292:264|328:284,1,70,2|0,0:0|0:0,0:0:0:0:
256,352,8508,2,0,B|216:359|188:342,1,70,2|0,0:0|0:0,0:0:0:0:
132,284,8908,2,0,B|96:212|168:152,1,140,2|0,0:0|0:0,0:0:0:0:
380,282,9708,6,0,B|416:212|351:158,1,140,2|0,0:0|0:0,0:0:0:0:
388,92,10308,1,0,0:0:0:0:
188,44,10508,2,0,B|328:44,1,140,2|0,0:0|0:0,0:0:0:0:
328,280,11108,2,0,B|188:280,1,140,2|0,0:0|0:0,0:0:0:0:
216,164,11708,2,0,B|288:164,1,70,2|0,0:0|0:0,0:0:0:0:
428,296,12108,1,4,0:0:0:0:
84,296,12507,1,4,0:0:0:0:
432,48,12907,6,0,B|344:68|356:164,1,140,4|8,0:0|0:0,0:0:0:0:
436,132,13507,1,0,0:0:0:0:
320,36,13707,2,0,B|256:84|192:36,1,140,2|8,0:0|0:0,0:0:0:0:
76,132,14307,1,0,0:0:0:0:
80,48,14507,2,0,B|168:68|156:164,1,140,0|2,0:0|0:0,0:0:0:0:
320,224,15107,2,0,B|256:176|192:224,1,140,0|2,0:0|0:0,0:0:0:0:
256,276,15707,2,0,B|256:352,1,70,8|2,0:0|0:0,0:0:0:0:
399,203,16107,6,0,B|412:288|332:308,1,140,2|8,0:0|0:0,0:0:0:0:
344,140,16707,1,0,0:0:0:0:
475,72,16907,2,2,B|424:120,1,70,2|0,0:0|0:0,0:0:0:0:
368,56,17307,1,8,0:0:0:0:
256,80,17507,1,0,0:0:0:0:
144,56,17707,1,2,0:0:0:0:
88,120,17907,2,0,B|36:72,1,70,0|8,0:0|0:0,0:0:0:0:
343,140,18307,2,0,B|292:208|220:208|168:140,1,210,0|8,0:0|0:0,0:0:0:0:
459,160,19307,5,0,0:0:0:0:
416,232,19507,2,0,B|484:288,1,70,0|8,0:0|0:0,0:0:0:0:
160,288,19907,1,0,0:0:0:0:
160,288,20107,2,0,B|256:212|352:288,1,210,2|8,0:0|0:0,0:0:0:0:
96,232,20907,2,0,B|28:288,1,70,0|2,0:0|0:0,0:0:0:0:
53,160,21307,2,0,B|120:140,1,70,0|2,0:0|0:0,0:0:0:0:
324,88,21707,2,0,B|256:60|188:88,2,140,8|2|8,0:0|0:0|0:0,0:0:0:0:
56,180,22707,5,0,0:0:0:0:
112,120,22907,1,8,0:0:0:0:
136,200,23107,1,0,0:0:0:0:
97,272,23307,1,2,0:0:0:0:
160,351,23507,1,0,0:0:0:0:
180,272,23707,1,8,0:0:0:0:
256,336,23907,1,0,0:0:0:0:
332,272,24107,5,2,0:0:0:0:
352,351,24306,1,0,0:0:0:0:
415,272,24506,1,8,0:0:0:0:
376,200,24706,1,0,0:0:0:0:
400,120,24906,1,2,0:0:0:0:
456,180,25106,1,0,0:0:0:0:
320,136,25306,2,2,B|256:88|192:136,1,140,8|2,0:0|0:0,0:0:0:0:
376,200,25906,6,0,B|432:132|372:72,1,140,8|2,0:0|0:0,0:0:0:0:
136,76,26506,2,0,B|80:132|136:200,1,140,2|8,0:0|0:0,0:0:0:0:
317,265,27106,2,0,B|256:320|192:264,1,140,2|8,0:0|0:0,0:0:0:0:
376,200,27706,1,2,0:0:0:0:
332,124,27906,1,0,0:0:0:0:
400,76,28106,1,2,0:0:0:0:
400,76,28506,1,8,0:0:0:0:
112,76,28906,5,0,0:0:0:0:
180,124,29106,1,0,0:0:0:0:
136,200,29306,1,2,0:0:0:0:
216,244,29506,2,0,B|184:272|212:304,1,70,0|8,0:0|0:0,0:0:0:0:
299,304,29906,2,0,B|328:272|296:244,1,70,0|2,0:0|0:0,0:0:0:0:
256,172,30306,2,0,B|256:28,1,140,8|0,0:0|0:0,0:0:0:0:
136,200,30906,1,0,0:0:0:0:
256,368,31106,1,0,0:0:0:0:
376,200,31306,1,8,0:0:0:0:
256,172,31706,1,8,0:0:0:0:
68,344,32106,6,0,B|148:344|200:284,1,140,4|8,0:0|0:0,0:0:0:0:
256,236,32706,1,0,0:0:0:0:
163,118,32906,2,0,B|220:160,1,70,0|2,0:0|0:0,0:0:0:0:
348,118,33306,2,0,B|292:160,1,70,0|2,0:0|0:0,0:0:0:0:
320,292,33706,2,0,B|366:345|446:345,1,140,0|8,0:0|0:0,0:0:0:0:
256,360,34306,1,0,0:0:0:0:
192,292,34506,2,0,B|132:256,1,70,0|2,0:0|0:0,0:0:0:0:
320,292,34906,2,0,B|380:256,1,70,0|2,0:0|0:0,0:0:0:0:
324,191,35306,6,0,B|376:168|376:96|346:73,1,140,0|8,0:0|0:0,0:0:0:0:
424,44,35906,1,0,0:0:0:0:
256,124,36106,1,0,0:0:0:0:
88,44,36305,1,2,0:0:0:0:
187,191,36505,2,0,B|136:168|136:96|165:73,1,140,8|2,0:0|0:0,0:0:0:0:
292,260,37105,2,0,B|222:260,1,70,0|8,0:0|0:0,0:0:0:0:
116,336,37505,2,0,B|256:360|396:336,1,280,2|2,0:0|0:0,0:0:0:0:
256,192,38505,12,2,39905,0:0:0:0:
256,192,40005,12,4,41705,0:0:0:0:
124,64,42105,5,8,0:0:0:0:
196,108,42305,2,2,B|231:171|200:242,1,140,2|0,0:0|0:0,0:0:0:0:
311,242,42905,2,0,B|280:171|316:108,1,140,2|4,0:0|0:0,0:0:0:0:
124,64,43605,1,4,0:0:0:0:
388,64,43905,1,4,0:0:0:0:
208,200,44305,1,0,0:0:0:0:
304,200,44505,1,8,0:0:0:0:
256,264,44705,1,0,0:0:0:0:
256,344,44905,5,4,0:0:0:0:
256,344,45105,1,0,0:0:0:0:
332,288,45305,1,8,0:0:0:0:
208,200,45505,1,0,0:0:0:0:
304,200,45705,1,0,0:0:0:0:
176,288,45905,1,0,0:0:0:0:
256,264,46105,2,2,B|256:120,1,140,8|2,0:0|0:0,0:0:0:0:
256,192,46605,12,0,48105,0:0:0:0:
120,312,48504,5,8,0:0:0:0:
188,264,48704,2,0,B|160:184|212:128,1,140,2|2,0:0|0:0,0:0:0:0:
304,132,49304,2,0,B|352:184|324:264,1,140,10|4,0:0|0:0,0:0:0:0:
120,312,50004,1,4,0:0:0:0:
392,312,50304,1,4,0:0:0:0:
256,212,50704,1,0,0:0:0:0:
212,140,50904,1,8,0:0:0:0:
300,140,51104,1,0,0:0:0:0:
175,215,51304,6,2,B|120:196|120:124|138:98,1,140,2|8,0:0|0:0,0:0:0:0:
256,68,51904,1,0,0:0:0:0:
373,98,52104,2,2,B|392:124|392:196|336:215,1,140,2|8,0:0|0:0,0:0:0:0:
188,296,52904,2,2,B|162:277|90:277|70:333,1,140,2|8,0:0|0:0,0:0:0:0:
144,368,53504,1,0,0:0:0:0:
324,296,53704,2,2,B|349:277|421:277|441:333,1,140,2|8,0:0|0:0,0:0:0:0:
368,368,54304,1,0,0:0:0:0:
256,192,54504,12,4,56054,0:0:0:0:
112,96,70503,5,6,0:0:0:0:
180,148,70703,1,0,0:0:0:0:
324,64,70903,2,2,B|256:36|188:64,1,140,8|2,0:0|0:0,0:0:0:0:
332,148,71503,1,0,0:0:0:0:
400,96,71703,1,8,0:0:0:0:
380,216,71903,5,0,0:0:0:0:
344,292,72103,1,2,0:0:0:0:
256,244,72302,1,0,0:0:0:0:
168,292,72502,1,8,0:0:0:0:
132,216,72702,1,0,0:0:0:0:
256,340,72902,1,2,0:0:0:0:
256,340,73302,1,8,0:0:0:0:
296,148,73702,6,0,B|352:190,1,70,2|0,0:0|0:0,0:0:0:0:
425,151,74102,2,0,B|371:105,1,70,8|0,0:0|0:0,0:0:0:0:
300,62,74502,1,0,0:0:0:0:
376,28,74702,1,2,0:0:0:0:
212,62,74902,1,8,0:0:0:0:
136,28,75102,1,0,0:0:0:0:
87,151,75302,2,0,B|140:105,1,70,0|2,0:0|0:0,0:0:0:0:
216,148,75702,2,0,B|160:190,1,70,0|0,0:0|0:0,0:0:0:0:
340,272,76102,1,2,0:0:0:0:
172,272,76502,1,8,0:0:0:0:
384,188,76902,6,2,B|392:108|472:92,1,140,2|8,0:0|0:0,0:0:0:0:
404,36,77502,1,0,0:0:0:0:
184,68,77702,2,0,B|324:68,1,140,2|8,0:0|0:0,0:0:0:0:
324,152,78302,2,0,B|184:152,1,140,2|0,0:0|0:0,0:0:0:0:
108,36,78902,1,8,0:0:0:0:
40,92,79102,1,0,0:0:0:0:
128,188,79302,5,2,0:0:0:0:
256,320,79702,1,8,0:0:0:0:
384,188,80102,1,2,0:0:0:0:
216,200,80302,6,0,B|172:224|172:272,1,70,0|8,0:0|0:0,0:0:0:0:
296,184,80702,2,0,B|340:160|340:112,1,70,0|2,0:0|0:0,0:0:0:0:
334,245,81102,1,0,0:0:0:0:
177,138,81302,1,8,0:0:0:0:
273,284,81502,1,0,0:0:0:0:
238,99,81702,1,2,0:0:0:0:
202,270,81902,1,0,0:0:0:0:
309,113,82102,1,8,0:0:0:0:
163,209,82302,1,0,0:0:0:0:
348,174,82502,1,2,0:0:0:0:
256,192,82902,5,8,0:0:0:0:
84,284,83302,6,0,B|108:320|176:320|204:268,1,140,4|8,0:0|0:0,0:0:0:0:
256,336,83902,1,0,0:0:0:0:
136,228,84102,2,0,B|124:196|96:168,1,70,2|0,0:0|0:0,0:0:0:0:
115,86,84501,2,0,B|147:104|168:132,1,70,8|0,0:0|0:0,0:0:0:0:
256,44,84901,2,2,B|256:104|256:184,1,140,2|8,0:0|0:0,0:0:0:0:
396,86,85501,2,0,B|364:104|344:131,1,70,0|8,0:0|0:0,0:0:0:0:
376,227,85901,2,0,B|388:196|414:169,2,70,0|2|2,0:0|0:0|0:0,0:0:0:0:
428,284,86501,6,0,B|404:320|336:320|308:268,1,140,0|8,0:0|0:0,0:0:0:0:
308,188,87101,1,0,0:0:0:0:
340,112,87301,1,2,0:0:0:0:
256,96,87501,1,0,0:0:0:0:
324,23,87701,2,0,B|256:-4|187:24,1,140,8|2,0:0|0:0,0:0:0:0:
172,112,88301,1,0,0:0:0:0:
204,188,88501,1,8,0:0:0:0:
176,267,88701,2,2,B|204:344|308:344|336:268,1,210,2|8,0:0|0:0,0:0:0:0:
120,344,89701,5,4,0:0:0:0:
88,264,89901,1,0,0:0:0:0:
128,188,90101,2,0,B|156:156|204:140,1,70,8|0,0:0|0:0,0:0:0:0:
214,68,90501,2,0,B|172:60|145:75,1,70,2|0,0:0|0:0,0:0:0:0:
328,147,90901,6,0,B|356:156|384:188,1,70,8|0,0:0|0:0,0:0:0:0:
367,75,91301,2,0,B|340:60|299:68,1,70,2|0,0:0|0:0,0:0:0:0:
384,188,91701,1,8,0:0:0:0:
424,264,91901,1,0,0:0:0:0:
392,344,92101,1,2,0:0:0:0:
256,244,92501,1,2,0:0:0:0:
120,40,92901,6,0,B|112:116|40:156,1,140,2|8,0:0|0:0,0:0:0:0:
132,292,93501,1,0,0:0:0:0:
108,212,93701,1,2,0:0:0:0:
48,276,93901,1,0,0:0:0:0:
192,228,94101,1,8,0:0:0:0:
256,176,94301,1,0,0:0:0:0:
320,228,94501,5,2,0:0:0:0:
464,276,94701,1,0,0:0:0:0:
404,212,94901,1,8,0:0:0:0:
380,292,95101,1,0,0:0:0:0:
466,152,95301,2,2,B|400:116|392:40,1,140,2|8,0:0|0:0,0:0:0:0:
404,212,96101,6,2,B|376:292|296:280,1,140,2|8,0:0|0:0,0:0:0:0:
216,280,96700,2,2,B|136:292|108:212,1,140,2|0,0:0|0:0,0:0:0:0:
192,200,97300,1,8,0:0:0:0:
256,148,97500,1,0,0:0:0:0:
129,64,97700,6,0,B|176:116,1,70,2|0,0:0|0:0,0:0:0:0:
336,116,98100,2,0,B|384:64,1,70,8|0,0:0|0:0,0:0:0:0:
256,60,98500,1,2,0:0:0:0:
320,200,98900,1,8,0:0:0:0:
112,176,99300,6,2,B|32:192|40:280,1,140,2|8,0:0|0:0,0:0:0:0:
124,260,99900,2,0,B|184:300,1,70,0|2,0:0|0:0,0:0:0:0:
256,256,100300,1,0,0:0:0:0:
389,260,100500,2,0,B|330:298,1,70,8|0,0:0|0:0,0:0:0:0:
328,204,100900,5,2,0:0:0:0:
256,160,101100,1,0,0:0:0:0:
184,204,101300,1,8,0:0:0:0:
256,80,101500,1,0,0:0:0:0:
400,176,101700,2,2,B|480:192|472:280,1,140,2|8,0:0|0:0,0:0:0:0:
184,180,102500,6,0,B|108:172|96:88,1,140,6|8,0:0|0:0,0:0:0:0:
180,100,103100,1,0,0:0:0:0:
125,288,103300,2,0,B|188:260,1,70,2|0,0:0|0:0,0:0:0:0:
324,260,103700,2,0,B|396:292,1,70,8|0,0:0|0:0,0:0:0:0:
328,180,104100,6,2,B|404:172|416:88,1,140,2|8,0:0|0:0,0:0:0:0:
332,100,104700,1,0,0:0:0:0:
256,60,104900,1,2,0:0:0:0:
180,100,105100,1,0,0:0:0:0:
256,140,105300,1,8,0:0:0:0:
328,180,105500,1,0,0:0:0:0:
184,180,105700,1,2,0:0:0:0:
400,216,105900,6,0,B|349:263,1,70,0|8,0:0|0:0,0:0:0:0:
256,368,106300,2,0,B|256:276,1,70,0|2,0:0|0:0,0:0:0:0:
112,216,106700,2,0,B|164:263,1,70,0|8,0:0|0:0,0:0:0:0:
108,68,107300,1,2,0:0:0:0:
256,140,107599,1,0,0:0:0:0:
404,68,107899,1,2,0:0:0:0:
256,192,108099,12,0,108899,0:0:0:0:
256,192,108999,12,0,110499,0:0:0:0:
256,192,110599,12,4,112099,0:0:0:0:
256,120,112499,5,8,0:0:0:0:
212,192,112699,2,2,P|140:160|124:104,1,140,2|0,0:0|0:0,0:0:0:0:
300,192,113299,2,2,P|372:160|388:104,1,140,2|8,0:0|0:0,0:0:0:0:
136,264,113999,1,4,0:0:0:0:
376,264,114299,1,4,0:0:0:0:
212,304,114699,5,0,0:0:0:0:
300,304,114899,1,8,0:0:0:0:
256,232,115099,1,0,0:0:0:0:
184,61,115299,2,2,B|136:120|183:190,1,140,0|8,0:0|0:0,0:0:0:0:
256,128,115899,1,0,0:0:0:0:
329,190,116099,2,2,B|376:120|327:61,1,140,2|8,0:0|0:0,0:0:0:0:
256,192,116899,12,0,118499,0:0:0:0:
184,128,118899,5,0,0:0:0:0:
256,86,119099,1,8,0:0:0:0:
256,172,119299,1,2,0:0:0:0:
328,128,119499,1,0,0:0:0:0:
328,44,119698,2,2,P|396:76|408:148,1,140,2|8,0:0|0:0,0:0:0:0:
124,268,120398,1,4,0:0:0:0:
388,268,120698,1,4,0:0:0:0:
256,84,121098,1,8,0:0:0:0:
184,44,121298,2,2,P|116:76|104:148,1,140,2|8,0:0|0:0,0:0:0:0:
404,264,121898,5,0,0:0:0:0:
464,204,122098,1,2,0:0:0:0:
324,240,122298,1,0,0:0:0:0:
256,288,122498,1,2,0:0:0:0:
188,240,122698,1,0,0:0:0:0:
108,264,122898,1,8,0:0:0:0:
176,324,123098,1,0,0:0:0:0:
48,204,123298,1,2,0:0:0:0:
256,116,123698,5,8,0:0:0:0:
256,200,123898,1,0,0:0:0:0:
256,32,124098,1,2,0:0:0:0:
404,264,124498,1,8,0:0:0:0:
336,324,124698,1,0,0:0:0:0:
464,204,124898,6,2,B|468:100|380:72,1,168.000004005432,6|8,0:0|0:0,0:0:0:0:
172,164,125498,2,2,B|340:164,1,168.000004005432,2|0,0:0|0:0,0:0:0:0:
129,72,126098,2,2,B|44:100|48:204,1,168.000004005432,8|2,0:0|0:0,0:0:0:0:
185,328,126698,2,0,B|132:264,1,84.0000020027161,0|8,0:0|0:0,0:0:0:0:
326,328,127098,2,0,B|380:264,1,84.0000020027161,0|2,0:0|0:0,0:0:0:0:
256,192,127498,5,2,0:0:0:0:
256,192,127598,1,0,0:0:0:0:
256,192,127698,1,2,0:0:0:0:
256,192,127798,1,0,0:0:0:0:
256,192,127898,1,0,0:0:0:0:
256,192,127998,1,0,0:0:0:0:
256,192,128098,1,8,0:0:0:0:
156,192,128298,5,0,0:0:0:0:
104,276,128498,1,2,0:0:0:0:
56,188,128698,1,0,0:0:0:0:
204,288,128898,1,8,0:0:0:0:
308,96,129098,1,0,0:0:0:0:
456,196,129298,1,2,0:0:0:0:
408,108,129498,1,0,0:0:0:0:
356,192,129698,1,8,0:0:0:0:
256,192,129798,12,0,131298,0:0:0:0:
152,232,131698,5,8,0:0:0:0:
60,272,131898,2,2,B|104:328|156:340|220:308,1,168.000004005432,2|0,0:0|0:0,0:0:0:0:
304,312,132497,2,2,B|356:338|408:326|452:270,1,168.000004005432,2|8,0:0|0:0,0:0:0:0:
360,232,133097,1,0,0:0:0:0:
396,108,133297,5,2,0:0:0:0:
331,28,133497,2,2,B|256:92|180:28,2,168.000004005432,8|0|8,0:0|0:0|0:0,0:0:0:0:
208,148,134497,1,0,0:0:0:0:
304,148,134697,1,0,0:0:0:0:
116,108,134897,1,2,0:0:0:0:
152,232,135097,5,0,0:0:0:0:
196,324,135297,1,8,0:0:0:0:
256,244,135497,1,0,0:0:0:0:
316,324,135697,1,2,0:0:0:0:
116,108,136097,1,8,0:0:0:0:
256,244,136497,1,2,0:0:0:0:
396,108,136897,1,8,0:0:0:0:
256,152,137297,5,2,0:0:0:0:
256,192,137697,12,0,139247,0:0:0:0:
120,112,139451,6,0,B|216:148,1,84.0000020027161,2|2,0:0|0:0,0:0:0:0:
256,64,139859,1,0,0:0:0:0:
392,112,140063,2,0,B|296:148,1,84.0000020027161,2|0,0:0|0:0,0:0:0:0:
384,272,140471,1,2,0:0:0:0:
128,272,140675,1,2,0:0:0:0:
236,111,140909,6,2,B|312:48|387:111,1,168.000004005432,4|8,0:0|0:0,0:0:0:0:
275,272,141509,2,2,B|200:336|124:272,1,168.000004005432,0|8,0:0|0:0,0:0:0:0:
76,180,142109,1,0,0:0:0:0:
20,264,142309,1,2,0:0:0:0:
56,80,142509,2,2,B|244:88,1,168.000004005432,0|8,0:0|0:0,0:0:0:0:
340,176,143109,2,2,B|172:176,1,168.000004005432,0|8,0:0|0:0,0:0:0:0:
288,87,143709,2,0,B|456:80,1,168.000004005432,0|2,0:0|0:0,0:0:0:0:
492,264,144309,5,0,0:0:0:0:
436,180,144509,1,8,0:0:0:0:
432,344,144709,2,2,B|400:399|324:399|300:336,1,168.000004005432,0|8,0:0|0:0,0:0:0:0:
80,344,145309,2,2,B|111:399|187:399|211:335,1,168.000004005432,0|2,0:0|0:0,0:0:0:0:
256,248,145909,1,0,0:0:0:0:
188,148,146109,1,8,0:0:0:0:
324,148,146309,1,2,0:0:0:0:
256,336,146709,5,8,0:0:0:0:
324,148,147295,6,2,B|396:224|328:296,1,168.000004005432,0|8,0:0|0:0,0:0:0:0:
188,148,147894,2,2,B|116:72|184:0,1,168.000004005432,0|8,0:0|0:0,0:0:0:0:
256,212,148494,1,0,0:0:0:0:
192,292,148694,1,8,0:0:0:0:
107,168,148894,2,2,B|100:336,1,168.000004005432,0|8,0:0|0:0,0:0:0:0:
320,292,149494,2,2,B|300:352|212:352|192:292,1,168.000004005432,0|8,0:0|0:0,0:0:0:0:
412,336,150094,2,0,B|405:168,1,168.000004005432,0|2,0:0|0:0,0:0:0:0:
256,180,150694,5,0,0:0:0:0:
324,104,150894,1,8,0:0:0:0:
164,220,151094,2,2,B|109:252|109:328|172:352,1,168.000004005432,0|8,0:0|0:0,0:0:0:0:
339,351,151694,2,2,B|403:327|403:251|348:220,1,168.000004005432,0|2,0:0|0:0,0:0:0:0:
188,104,152294,1,0,0:0:0:0:
256,180,152494,1,8,0:0:0:0:
192,312,152694,2,2,B|212:251|300:251|320:311,1,168.000004005432,2|8,0:0|0:0,0:0:0:0:
152,224,153294,6,2,B|80:168,1,84.0000020027161,0|8,0:0|0:0,0:0:0:0:
221,41,153694,2,2,B|172:4|108:20|76:72,1,168.000004005432,4|8,0:0|0:0,0:0:0:0:
164,124,154294,2,2,B|208:164|288:144|304:88,1,168.000004005432,2|8,0:0|0:0,0:0:0:0:
426,211,154894,2,2,B|360:160,1,84.0000020027161,0|8,0:0|0:0,0:0:0:0:
290,342,155294,2,2,B|340:380|404:364|436:312,1,168.000004005432,2|8,0:0|0:0,0:0:0:0:
348,260,155894,2,2,B|304:220|224:240|208:296,1,168.000004005432,2|8,0:0|0:0,0:0:0:0:
128,232,156494,1,2,0:0:0:0:
128,232,156894,6,2,B|72:212|57:130|107:83,1,168.000004005432,2|8,0:0|0:0,0:0:0:0:
331,155,157494,2,2,B|255:92|179:155,1,168.000004005432,2|8,0:0|0:0,0:0:0:0:
312,48,158094,1,0,0:0:0:0:
208,48,158294,1,8,0:0:0:0:
412,91,158494,2,2,B|454:130|440:212|385:231,1,168.000004005432,2|8,0:0|0:0,0:0:0:0:
172,324,159094,2,2,B|340:324,2,168.000004005432,2|8|2,0:0|0:0|0:0,0:0:0:0:
87,115,160093,6,2,B|128:164|128:224|87:268,1,168.000004005432,4|8,0:0|0:0,0:0:0:0:
20,192,160693,1,2,0:0:0:0:
324,84,161093,1,8,0:0:0:0:
256,160,161293,1,0,0:0:0:0:
188,84,161493,1,8,0:0:0:0:
424,115,161693,2,2,B|384:160|384:220|424:268,1,168.000004005432,2|8,0:0|0:0,0:0:0:0:
492,192,162292,1,2,0:0:0:0:
256,320,162693,5,8,0:0:0:0:
137,283,162893,2,2,B|204:232,1,84.0000020027161,0|2,0:0|0:0,0:0:0:0:
374,283,163293,2,2,B|308:232,1,84.0000020027161,0|8,0:0|0:0,0:0:0:0:
256,112,163693,1,0,0:0:0:0:
140,64,163893,2,2,P|256:20|370:62,1,251.999992309571,2|8,0:0|0:0,0:0:0:0:
256,196,164693,1,0,0:0:0:0:
180,268,164893,2,2,B|113:264|89:180|127:143,1,168.000004005432,2|8,0:0|0:0,0:0:0:0:
384,144,165493,2,0,B|421:181|397:265|330:269,1,168.000004005432,2|8,0:0|0:0,0:0:0:0:
128,144,166093,5,0,0:0:0:0:
32,176,166293,1,2,0:0:0:0:
56,80,166493,2,0,B|104:8,1,84.0000020027161,4|0,0:0|0:0,0:0:0:0:
32,176,166893,1,0,0:0:0:0:
128,144,167093,2,0,B|296:144,1,168.000004005432,2|2,0:0|0:0,0:0:0:0:
456,80,167693,1,0,0:0:0:0:
480,208,167893,5,2,0:0:0:0:
456,304,168093,2,0,B|408:376,1,84.0000020027161,4|0,0:0|0:0,0:0:0:0:
480,208,168493,1,0,0:0:0:0:
384,240,168693,2,0,B|216:240,1,168.000004005432,2|0,0:0|0:0,0:0:0:0:
56,304,169293,1,0,0:0:0:0:
32,176,169493,1,2,0:0:0:0:
195,91,169693,6,0,B|212:188|120:224,1,168.000004005432,4|0,0:0|0:0,0:0:0:0:
316,91,170293,2,0,B|300:188|392:224,1,168.000004005432,2|0,0:0|0:0,0:0:0:0:
336,308,170893,1,0,0:0:0:0:
208,212,171093,1,2,0:0:0:0:
304,212,171293,1,4,0:0:0:0:
176,308,171492,1,0,0:0:0:0:
256,368,171692,1,2,0:0:0:0:
112,228,171892,6,0,B|56:148|104:48,1,168.000004005432,4|4,0:0|0:0,0:0:0:0:
328,16,172492,1,0,0:0:0:0:
184,16,172692,1,2,0:0:0:0:
400,226,172892,2,0,B|456:148|416:68,1,168.000004005432,4|0,0:0|0:0,0:0:0:0:
476,292,173492,2,0,B|308:344,1,168.000004005432,2|0,0:0|0:0,0:0:0:0:
212,244,174092,2,0,B|296:244,1,84.0000020027161,0|2,0:0|0:0,0:0:0:0:
196,341,174492,2,0,B|36:292,1,168.000004005432,4|0,0:0|0:0,0:0:0:0:
64,196,175092,5,2,0:0:0:0:
448,196,175492,1,2,0:0:0:0:
448,196,175892,5,2,0:0:0:0:
336,100,176092,2,0,B|256:52|176:100,1,167.999994873047,4|0,0:0|0:0,0:0:0:0:
176,284,176692,2,0,B|255:331|335:283,1,167.999994873047,4|0,0:0|0:0,0:0:0:0:
256,192,177292,1,2,0:0:0:0:
256,56,177492,1,0,0:0:0:0:
68,72,177692,6,0,B|148:112,1,84.0000020027161,6|0,0:0|0:0,0:0:0:0:
444,72,178092,2,0,B|364:112,1,84.0000020027161,2|0,0:0|0:0,0:0:0:0:
256,56,178692,6,0,B|256:220,1,157.499995306134,2|4,0:0|0:0,0:0:0:0:
256,192,179392,12,0,182492,0:0:0:0:
