osu file format v12

[General]
AudioFilename: kyukkyukkyutsu nyaa !.mp3
AudioLeadIn: 1929
PreviewTime: 24533
Countdown: 0
SampleSet: None
StackLeniency: 0.8
Mode: 0
LetterboxInBreaks: 0
WidescreenStoryboard: 0

[Editor]
Bookmarks: 13867,45867
DistanceSpacing: 0.7
BeatDivisor: 4
GridSize: 8

[Metadata]
Title:kyukkyukkyutsu nyaa !
TitleUnicode:キュッキュッキュッ にゃあ!
Artist:Capcom Sound Team
ArtistUnicode:Capcom Sound Team
Creator:Hsiao-Chai
Version:Easy
Source:
Tags:jyc-Binggan Capcom Monster Hunter Hunting Music Collection III ~Monster Hunter Portable 3rd & Rare Track~
BeatmapID:219239
BeatmapSetID:76894

[Difficulty]
HPDrainRate:1
CircleSize:3
OverallDifficulty:2
ApproachRate:2
SliderMultiplier:1.6
SliderTickRate:1

[Events]
//Background and Video events
0,0,"1(3183).jpg",0,0
//Break Periods
//Storyboard Layer 0 (Background)
//Storyboard Layer 1 (Fail)
//Storyboard Layer 2 (Pass)
//Storyboard Layer 3 (Foreground)
//Storyboard Sound Samples
//Background Colour Transformations
3,100,163,162,255

[TimingPoints]
534,666.666666666667,4,3,0,35,1,0
3200,-100,4,3,0,45,0,0
50867,-100,4,3,0,35,0,0
51617,-100,4,3,0,25,0,0
52867,-100,4,3,0,20,0,0
54200,-100,4,3,0,15,0,0

[Colours]
Combo1 : 67,114,209
Combo2 : 150,101,65
Combo3 : 140,221,158

[HitObjects]
48,96,534,1,10,0:0:0:0:
104,192,1200,1,0,0:0:0:0:
40,280,1867,1,2,0:0:0:0:
104,192,2533,1,0,0:0:0:0:
176,112,3200,6,0,B|184:80|232:56|232:56|280:80|288:120|288:120,1,160,2|0,0:0|0:0,0:0:0:0:
396,108,4533,2,0,B|404:76|452:52|452:52|500:76|508:116|508:116,1,160
456,208,5867,1,0,0:0:0:0:
512,284,6533,2,0,B|504:316|456:340|456:340|408:316|400:276|400:276,1,160
296,248,7867,1,0,0:0:0:0:
192,288,8533,6,0,L|96:288|96:288,2,80,10|0|0,0:0|0:0|0:0,0:0:0:0:
128,200,9867,2,0,B|40:200|40:200|40:200,2,80,0|0|0,0:0|0:0|0:0,0:0:0:0:
64,112,11200,5,0,0:0:0:0:
152,40,11867,1,2,0:0:0:0:
240,112,12533,1,0,0:0:0:0:
328,40,13200,1,10,0:0:0:0:
416,112,13867,6,0,L|496:112|496:112,2,80
336,192,15200,2,0,L|432:192|432:192,2,80
328,304,16533,2,0,B|280:304|256:280|256:280|232:304|176:304,1,160
80,248,17867,1,0,0:0:0:0:
176,192,18533,1,2,0:0:0:0:
88,128,19200,6,0,L|8:128,2,80
168,56,20533,2,0,L|256:56,2,80,0|0|0,0:0|0:0|0:0,0:0:0:0:
56,88,21867,5,10,0:0:0:0:
112,184,22533,1,0,0:0:0:0:
160,88,23200,1,2,0:0:0:0:
224,176,23867,1,2,0:0:0:0:
172,276,24533,6,0,B|180:308|228:332|228:332|276:308|284:268|284:268,1,160,10|0,0:0|0:0,0:0:0:0:
396,272,25867,2,0,B|404:304|452:328|452:328|500:304|512:256|512:256,1,160,0|0,0:0|0:0,0:0:0:0:
456,176,27200,1,0,0:0:0:0:
504,96,27867,2,0,B|496:64|448:40|448:40|400:64|384:104|384:104,1,160,0|2,0:0|0:0,0:0:0:0:
292,144,29200,1,0,0:0:0:0:
192,96,29867,6,0,L|88:96|88:96,2,80,0|0|2,0:0|0:0|0:0,0:0:0:0:
128,184,31200,2,0,L|32:184,2,80,0|0|2,0:0|0:0|0:0,0:0:0:0:
64,272,32533,5,8,0:0:0:0:
152,344,33200,1,0,0:0:0:0:
240,272,33866,1,0,0:0:0:0:
328,344,34533,1,2,0:0:0:0:
416,272,35200,6,0,L|496:272,2,80,0|8|2,0:0|0:0|0:0,0:0:0:0:
336,192,36533,2,0,L|432:192,2,80,0|6|2,0:0|0:0|0:0,0:0:0:0:
328,80,37867,2,0,B|280:80|240:104|248:120|264:120|272:104|232:80|184:80,1,160,0|2,0:0|0:0,0:0:0:0:
80,136,39200,1,2,0:0:0:0:
176,192,39866,1,0,0:0:0:0:
88,256,40533,6,0,L|8:256,2,80,0|0|0,0:0|0:0|0:0,0:0:0:0:
168,328,41867,2,0,L|264:328,2,80
88,256,43200,5,10,0:0:0:0:
168,176,43866,1,0,0:0:0:0:
88,104,44533,1,0,0:0:0:0:
192,56,45200,2,0,P|256:96|328:40,1,160,0|4,0:0|0:2,0:0:0:0:
424,104,46533,6,0,L|496:144,1,80
408,216,47533,2,0,L|480:264,1,80
384,320,48533,6,0,P|312:280|248:328,1,160
184,232,49867,1,0,0:0:0:0:
120,320,50533,1,2,0:0:0:0:
64,224,51200,6,0,P|24:152|72:88,2,160
168,192,53200,1,0,0:0:0:0:
248,112,53867,5,0,0:0:0:0:
