osu file format v14

[General]
AudioFilename: wood man.mp3
AudioLeadIn: 0
PreviewTime: 0
Countdown: 0
SampleSet: Soft
StackLeniency: 0.7
Mode: 1
LetterboxInBreaks: 0
WidescreenStoryboard: 1

[Editor]
DistanceSpacing: 0.8
BeatDivisor: 4
GridSize: 8
TimelineZoom: 1

[Metadata]
Title:Wood Man
TitleUnicode:Wood Man
Artist:Capcom Sound Team
ArtistUnicode:Capcom Sound Team
Creator:lilligantEX
Version:Futsuu
Source:Mega Man 2
Tags:woodman megaman rockman takashi tateishi
BeatmapID:1256537
BeatmapSetID:594023

[Difficulty]
HPDrainRate:6
CircleSize:5
OverallDifficulty:4
ApproachRate:5
SliderMultiplier:1.4
SliderTickRate:1

[Events]
//Background and Video events
0,0,"wood.jpg",0,0
//Break Periods
//Storyboard Layer 0 (Background)
//Storyboard Layer 1 (Fail)
//Storyboard Layer 2 (Pass)
//Storyboard Layer 3 (Foreground)
//Storyboard Sound Samples

[TimingPoints]
283,332.733333333333,4,1,0,100,1,0
29397,-100,4,2,0,100,0,0
40044,-100,4,1,0,100,0,0
61339,-100,4,2,0,100,0,0

[HitObjects]
253,195,283,5,0,0:0:0:0:
253,195,615,1,8,0:0:0:0:
217,107,948,1,0,0:0:0:0:
217,107,1281,1,8,0:0:0:0:
217,107,1613,1,0,0:0:0:0:
217,107,1946,1,8,0:0:0:0:
217,107,2113,1,0,0:0:0:0:
217,107,2445,1,0,0:0:0:0:
217,107,2612,1,8,0:0:0:0:
253,195,2944,1,0,0:0:0:0:
253,195,3277,1,8,0:0:0:0:
217,107,3610,1,0,0:0:0:0:
217,107,3943,1,8,0:0:0:0:
66,151,4275,1,0,0:0:0:0:
116,185,4608,1,0,0:0:0:0:
231,280,4941,1,0,0:0:0:0:
231,280,5273,1,0,0:0:0:0:
364,62,5606,2,0,P|382:198|257:115,1,350
188,101,6771,1,0,0:0:0:0:
89,153,7104,1,0,0:0:0:0:
122,74,7603,1,0,0:0:0:0:
122,74,7935,1,0,0:0:0:0:
316,219,8102,1,0,0:0:0:0:
98,253,8601,1,8,0:0:0:0:
166,183,9100,1,0,0:0:0:0:
269,89,9433,1,8,0:0:0:0:
269,89,9765,1,0,0:0:0:0:
248,248,10264,1,8,0:0:0:0:
248,248,10597,1,8,0:0:0:0:
248,248,10930,1,0,0:0:0:0:
148,143,11263,1,8,0:0:0:0:
148,143,11595,1,0,0:0:0:0:
148,143,11928,1,0,0:0:0:0:
148,143,12095,1,8,0:0:0:0:
69,241,12427,1,8,0:0:0:0:
228,170,12926,1,0,0:0:0:0:
228,170,13259,1,0,0:0:0:0:
65,78,13425,1,8,0:0:0:0:
188,81,13925,1,8,0:0:0:0:
81,136,14590,1,0,0:0:0:0:
81,136,14756,1,8,0:0:0:0:
199,260,15255,1,8,0:0:0:0:
199,260,15588,1,0,0:0:0:0:
199,260,15921,1,0,0:0:0:0:
199,260,16254,1,8,0:0:0:0:
199,260,16586,1,0,0:0:0:0:
199,260,16753,1,0,0:0:0:0:
82,92,17418,1,8,0:0:0:0:
82,92,17751,1,8,0:0:0:0:
87,184,18250,1,8,0:0:0:0:
87,184,18583,1,8,0:0:0:0:
316,219,18749,1,0,0:0:0:0:
98,253,19248,1,8,0:0:0:0:
166,183,19747,1,0,0:0:0:0:
269,89,20080,1,8,0:0:0:0:
269,89,20412,1,0,0:0:0:0:
248,248,20911,1,8,0:0:0:0:
248,248,21244,1,8,0:0:0:0:
248,248,21577,1,0,0:0:0:0:
148,143,21910,1,8,0:0:0:0:
148,143,22242,1,0,0:0:0:0:
148,143,22575,1,0,0:0:0:0:
148,143,22742,1,8,0:0:0:0:
69,241,23074,1,8,0:0:0:0:
228,170,23573,1,0,0:0:0:0:
228,170,23906,1,0,0:0:0:0:
65,78,24072,1,8,0:0:0:0:
188,81,24572,1,8,0:0:0:0:
81,136,25237,1,0,0:0:0:0:
81,136,25403,1,8,0:0:0:0:
199,260,25903,1,8,0:0:0:0:
199,260,26236,1,0,0:0:0:0:
199,260,26569,1,0,0:0:0:0:
199,260,26902,1,8,0:0:0:0:
199,260,27233,1,0,0:0:0:0:
199,260,27400,1,0,0:0:0:0:
96,116,28066,1,8,0:0:0:0:
96,116,28398,1,8,0:0:0:0:
185,100,28898,1,8,0:0:0:0:
185,100,29230,1,0,0:0:0:0:
185,100,29397,1,4,0:0:0:0:
237,140,29896,1,8,0:0:0:0:
65,203,30229,1,0,0:0:0:0:
198,225,30728,1,8,0:0:0:0:
198,225,31061,1,0,0:0:0:0:
346,279,31393,1,0,0:0:0:0:
346,279,31560,1,8,0:0:0:0:
372,74,31893,1,8,0:0:0:0:
87,107,32225,2,0,P|123:222|222:61,1,420
166,103,33556,1,0,0:0:0:0:
293,130,33889,1,8,0:0:0:0:
293,130,34222,1,0,0:0:0:0:
293,130,34554,1,8,0:0:0:0:
106,281,34887,1,0,0:0:0:0:
106,281,35220,1,8,0:0:0:0:
167,95,35553,1,0,0:0:0:0:
322,241,36051,1,8,0:0:0:0:
322,241,36384,1,0,0:0:0:0:
301,192,36717,1,0,0:0:0:0:
301,192,36884,1,0,0:0:0:0:
367,104,37216,1,8,0:0:0:0:
158,43,37549,1,8,0:0:0:0:
158,43,37882,1,8,0:0:0:0:
158,43,38214,1,8,0:0:0:0:
121,98,38713,1,12,0:0:0:0:
121,98,39046,1,12,0:0:0:0:
121,98,39545,1,12,0:0:0:0:
121,98,39878,1,8,0:0:0:0:
316,219,40044,1,0,0:0:0:0:
98,253,40543,1,8,0:0:0:0:
166,183,41042,1,0,0:0:0:0:
269,89,41375,1,8,0:0:0:0:
269,89,41707,1,0,0:0:0:0:
248,248,42206,1,8,0:0:0:0:
248,248,42539,1,8,0:0:0:0:
248,248,42872,1,0,0:0:0:0:
148,143,43205,1,8,0:0:0:0:
148,143,43537,1,0,0:0:0:0:
148,143,43870,1,0,0:0:0:0:
148,143,44037,1,8,0:0:0:0:
69,241,44369,1,8,0:0:0:0:
228,170,44868,1,0,0:0:0:0:
228,170,45201,1,0,0:0:0:0:
65,78,45367,1,8,0:0:0:0:
188,81,45867,1,8,0:0:0:0:
81,136,46532,1,0,0:0:0:0:
81,136,46698,1,8,0:0:0:0:
199,260,47198,1,8,0:0:0:0:
199,260,47531,1,0,0:0:0:0:
199,260,47864,1,0,0:0:0:0:
199,260,48197,1,8,0:0:0:0:
199,260,48528,1,0,0:0:0:0:
199,260,48695,1,0,0:0:0:0:
89,133,49361,1,8,0:0:0:0:
89,133,49693,1,8,0:0:0:0:
89,133,50192,1,8,0:0:0:0:
89,133,50525,1,8,0:0:0:0:
316,219,50692,1,0,0:0:0:0:
98,253,51191,1,8,0:0:0:0:
166,183,51690,1,0,0:0:0:0:
269,89,52023,1,8,0:0:0:0:
269,89,52355,1,0,0:0:0:0:
248,248,52854,1,8,0:0:0:0:
248,248,53187,1,8,0:0:0:0:
248,248,53520,1,0,0:0:0:0:
148,143,53853,1,8,0:0:0:0:
148,143,54185,1,0,0:0:0:0:
148,143,54518,1,0,0:0:0:0:
148,143,54685,1,8,0:0:0:0:
69,241,55017,1,8,0:0:0:0:
228,170,55516,1,0,0:0:0:0:
228,170,55849,1,0,0:0:0:0:
65,78,56015,1,8,0:0:0:0:
188,81,56515,1,8,0:0:0:0:
81,136,57180,1,0,0:0:0:0:
81,136,57346,1,8,0:0:0:0:
199,260,57845,1,8,0:0:0:0:
199,260,58178,1,0,0:0:0:0:
199,260,58511,1,0,0:0:0:0:
199,260,58844,1,8,0:0:0:0:
199,260,59176,1,0,0:0:0:0:
199,260,59343,1,0,0:0:0:0:
265,165,60008,1,8,0:0:0:0:
265,165,60341,1,8,0:0:0:0:
265,165,60840,1,8,0:0:0:0:
104,87,61173,1,0,0:0:0:0:
185,100,61339,1,4,0:0:0:0:
237,140,61838,1,8,0:0:0:0:
65,203,62171,1,0,0:0:0:0:
198,225,62670,1,8,0:0:0:0:
198,225,63003,1,0,0:0:0:0:
346,279,63335,1,0,0:0:0:0:
346,279,63502,1,8,0:0:0:0:
372,74,63835,1,8,0:0:0:0:
87,107,64167,2,0,P|123:222|222:61,1,420
166,103,65498,1,0,0:0:0:0:
293,130,65831,1,8,0:0:0:0:
293,130,66164,1,0,0:0:0:0:
293,130,66496,1,8,0:0:0:0:
106,281,66829,1,0,0:0:0:0:
106,281,67162,1,8,0:0:0:0:
167,95,67495,1,0,0:0:0:0:
322,241,67994,1,8,0:0:0:0:
322,241,68326,1,0,0:0:0:0:
301,192,68659,1,0,0:0:0:0:
301,192,68826,1,0,0:0:0:0:
367,104,69158,1,8,0:0:0:0:
158,43,69491,1,8,0:0:0:0:
158,43,69824,1,8,0:0:0:0:
158,43,70156,1,8,0:0:0:0:
121,98,70489,1,8,0:0:0:0:
256,192,70656,8,0,73484,0:0:0:0:
