osu file format v5

[General]
AudioFilename: 09 THUNDER TORNADO [TORNADO MAN STAGE].mp3
AudioLeadIn: 2493
PreviewTime: 13035
Countdown: 1
SampleSet: Normal
StackLeniency: 0
Mode: 0
LetterboxInBreaks: 1

[Metadata]
Title:Thunder Tornado
Artist:Capcom Sound Team
Creator:Cyclone
Version:Normal
Source:Mega Man 9
Tags:

[Difficulty]
HPDrainRate:5
CircleSize:4
OverallDifficulty:6
SliderMultiplier:1.4
SliderTickRate:2

[Events]
//Background and Video events
0,0,"medium_2760984171_73974826cc_o.png"
//Break Periods
//Storyboard Layer 0 (Background)
//Storyboard Layer 1 (Failing)
//Storyboard Layer 2 (Passing)
//Storyboard Layer 3 (Foreground)
//Storyboard Sound Samples
//Background Colour Transformations
3,100,163,162,255

[TimingPoints]
1025,375,4,1,0,49,1

[HitObjects]
440,64,1025,1,2
440,176,1400,1,0
352,176,1681,2,0,L|304:176,1,35
256,176,1962,1,0
144,176,2337,5,2
144,288,2712,1,0
256,288,3087,2,0,L|352:288,4,70
256,232,4025,5,2
256,120,4400,1,0
336,120,4681,2,0,L|336:160,1,35
336,208,4962,1,0
448,208,5337,5,2
448,96,5712,2,0,L|360:96,1,70
320,96,6087,1,0
320,96,6181,1,2
256,144,6462,1,0
256,200,6650,1,0
256,256,6837,1,0
256,312,7025,5,2
160,256,7400,1,0
160,168,7681,2,0,L|160:104,1,35,0|0
160,80,7962,1,0
272,80,8337,5,2
360,152,8712,1,0
424,240,9087,2,0,L|424:336,4,70,0|0|0|0|0
424,184,10025,5,2
312,184,10400,1,0
224,184,10681,2,0,L|176:184,1,35,0|0
128,184,10962,1,0
16,184,11337,1,4
144,288,11900,6,0,L|144:344,2,35,8|0|8
200,288,12275,6,0,L|248:288,2,35,0|0|0
200,232,12650,6,0,L|200:192,2,35,4|4|4
200,64,13400,5,0
200,176,13775,1,0
200,232,13962,1,0
312,232,14337,1,0
448,56,15087,1,0
360,128,15462,1,0
304,128,15650,1,0
248,128,15837,1,0
248,184,16025,2,4,B|432:184|432:184|449:52|280:48|280:48|104:48,2,560
136,192,19400,5,0
208,280,19775,1,0
264,280,19962,1,0
336,192,20337,2,0,B|336:120|336:120|408:36|408:36|496:128,1,280,4|0
480,216,21462,1,0
440,256,21650,1,0
400,216,21837,1,0
400,160,22025,1,4
256,192,22212,12,4,24275
88,72,24650,2,0,B|160:72,2,70,0|0|4
88,184,25400,1,0
144,184,25587,1,0
352,264,26337,2,0,B|416:176|336:128,1,140,4|0
304,104,26900,1,0
256,80,27087,1,0
200,72,27275,1,0
144,80,27462,1,0
96,104,27650,1,0
56,144,27837,1,0
48,200,28025,6,0,B|159:372|352:208,1,350,4|0
456,192,29337,2,0,B|72:192,1,350,4|0
104,304,30650,5,0
144,272,30837,1,0
184,304,31025,2,0,B|328:304|336:104,1,280,4|0
224,104,32150,1,0
184,144,32337,1,0
144,104,32525,2,0,B|64:104|56:200,1,140,4|0
56,248,33087,1,0
56,360,33462,1,0
152,304,33837,1,4
320,304,34400,5,0
320,248,34587,1,0
320,136,34962,1,0
320,24,35337,1,4
56,192,37025,5,4
168,192,37400,1,0
168,136,37587,1,2
168,24,37962,1,0
264,80,38337,1,2
328,168,38712,1,0
352,280,39087,1,2
240,280,39462,1,0
184,280,39650,1,2
72,280,40025,6,0,B|72:88|248:88,1,280,4|0
336,96,41150,1,0
392,96,41337,2,0,B|448:144|424:320|304:320|304:320|120:176,1,490,4|0
56,120,43025,5,4
168,120,43400,1,0
224,120,43587,1,2
320,64,43962,1,0
416,8,44337,1,2
416,128,44712,1,0
304,128,45087,1,2
248,288,45650,6,4,B|144:288,2,70
304,288,46212,2,0,B|392:288,1,70
432,288,46587,1,4
432,176,46962,2,0,B|352:176,1,70
304,176,47337,2,4,B|394:385|-19:384|120:128,1,490,4|0
256,112,49025,5,4
256,280,49587,1,0
400,192,50150,1,0
288,192,50525,1,4
120,192,51087,1,0
216,56,51650,1,4
256,16,51837,1,4
256,192,52025,12,0,54650
416,64,55025,1,4
304,192,55587,1,0
192,320,56150,1,0
192,208,56525,1,4
320,320,57087,1,0
432,192,57650,1,0
376,192,57837,1,4
320,192,58025,6,0,B|252:262|200:192,7,140
64,192,61025,5,4
232,192,61587,1,0
64,192,62150,1,0
64,80,62525,1,4
232,80,63087,1,0
64,80,63650,1,4
64,136,63837,1,4
256,192,64025,12,0,66650
424,304,67025,1,4
256,304,67587,1,0
88,304,68150,1,0
88,192,68525,1,4
256,192,69087,1,0
424,192,69650,1,4
424,136,69837,1,4
424,80,70025,6,0,B|376:80,7,35
360,80,70775,6,0,B|320:80,7,35
320,104,71525,6,0,B|304:144,7,35
280,136,72275,6,0,B|232:136,8,35,0|0|0|0|0|0|0|0|4
