osu file format v5

[General]
AudioFilename: 09 THUNDER TORNADO [TORNADO MAN STAGE].mp3
AudioLeadIn: 2493
PreviewTime: 13035
Countdown: 1
SampleSet: Normal
StackLeniency: 0.6
Mode: 0
LetterboxInBreaks: 1

[Metadata]
Title:Thunder Tornado
Artist:Capcom Sound Team
Creator:Cyclone
Version:Insane
Source:Mega Man 9
Tags:

[Difficulty]
HPDrainRate:6
CircleSize:5
OverallDifficulty:8
SliderMultiplier:1.4
SliderTickRate:4

[Events]
//Background and Video events
0,0,"medium_2760984171_73974826cc_o.png"
//Break Periods
2,47547,48285
//Storyboard Layer 0 (Background)
//Storyboard Layer 1 (Failing)
//Storyboard Layer 2 (Passing)
//Storyboard Layer 3 (Foreground)
//Storyboard Sound Samples
//Background Colour Transformations
3,100,163,162,255

[TimingPoints]
1025,375,4,1,0,49,1

[HitObjects]
72,64,1025,1,2
136,176,1400,1,0
208,176,1681,1,0
232,176,1775,1,0
280,136,1962,1,0
376,56,2337,5,2
376,184,2712,1,0
376,312,3087,1,0
312,312,3275,1,0
248,312,3462,1,0
248,248,3650,1,0
312,248,3837,1,0
376,248,4025,5,2
488,192,4400,1,0
424,120,4681,1,0
392,120,4775,1,0
328,120,4962,1,0
224,40,5337,5,2
128,120,5712,1,0
88,168,5900,1,0
48,216,6087,1,0
48,248,6181,1,2
48,344,6462,1,0
112,344,6650,1,0
176,344,6837,1,0
240,344,7025,5,2
344,272,7400,1,0
400,192,7681,1,0
432,192,7775,1,0
432,256,7962,1,0
432,128,8337,5,2
304,128,8712,1,0
208,48,9087,1,0
208,112,9275,1,0
144,112,9462,1,0
80,112,9650,1,0
112,160,9837,1,0
152,208,10025,5,2
280,208,10400,1,0
376,208,10681,1,0
408,208,10775,1,0
472,208,10962,1,0
472,80,11337,1,4
256,128,11900,5,8
256,128,11993,1,0
256,128,12087,1,0
256,192,12275,5,8
256,192,12368,1,0
256,192,12462,1,0
256,256,12650,5,8
256,256,12743,1,0
256,256,12837,1,0
80,328,13400,5,0
80,200,13775,1,0
80,264,13962,1,0
208,264,14337,2,0,L|504:264,1,280
488,136,15462,1,0
440,88,15650,1,0
392,136,15837,1,0
440,184,16025,1,0
256,192,16212,12,4,19025
80,56,19400,5,0
208,56,19775,1,0
272,56,19962,1,0
400,56,20337,2,0,L|400:336,1,280
272,336,21462,1,0
224,288,21650,1,0
272,336,21837,1,0
320,288,22025,1,0
256,192,22212,12,4,24275
440,64,24650,1,0
440,128,24837,1,0
440,192,25025,1,0
440,320,25400,1,0
440,256,25587,1,0
184,256,26337,5,0
184,128,26712,1,0
232,88,26900,1,0
288,64,27087,1,0
352,64,27275,1,0
408,88,27462,1,0
456,128,27650,1,0
456,192,27837,1,0
456,256,28025,5,2
456,320,28212,1,0
456,256,28400,1,0
392,256,28587,1,8
392,256,28681,1,0
328,256,28868,1,0
328,256,28962,1,8
328,320,29150,1,0
392,320,29337,1,0
392,256,29525,5,2
392,320,29712,1,0
392,256,29900,1,0
328,256,30087,1,8
328,256,30181,1,0
264,256,30368,1,0
264,256,30462,1,8
264,320,30650,1,0
328,320,30837,1,0
264,320,31025,6,0,L|96:312|112:200,1,280,4|0
176,88,32150,1,0
232,64,32337,1,0
288,88,32525,1,4
232,200,32900,1,0
232,264,33087,1,0
360,264,33462,1,0
464,192,33837,1,4
360,32,34400,5,0
296,32,34587,1,0
296,160,34962,1,0
168,160,35337,1,0
40,136,35900,5,8
40,136,35993,1,8
40,136,36087,1,8
40,136,36181,1,8
40,168,36275,5,0
40,168,36368,1,0
40,168,36462,1,0
40,168,36556,1,0
40,200,36650,5,2
40,200,36743,1,2
40,200,36837,1,2
40,200,36931,1,2
40,232,37025,5,4
120,328,37400,1,0
184,328,37587,1,0
256,224,37962,1,0
328,328,38337,1,0
456,328,38712,1,0
392,216,39087,1,0
392,88,39462,1,0
392,24,39650,1,0
264,24,40025,5,8
264,24,40118,1,0
264,24,40212,1,0
264,88,40400,1,0
200,88,40587,1,0
200,88,40681,1,4
200,152,40868,1,0
200,152,40962,1,4
200,216,41150,1,0
200,280,41337,1,0
200,344,41525,5,8
200,344,41618,1,0
200,344,41712,1,0
264,344,41900,1,0
264,280,42087,1,0
264,280,42181,1,4
328,280,42368,1,0
328,280,42462,1,4
392,280,42650,1,0
456,280,42837,1,0
456,216,43025,5,4
376,112,43400,1,0
312,112,43587,1,0
248,224,43962,1,0
312,336,44337,1,0
184,336,44712,1,0
56,336,45087,1,0
56,144,45650,5,0
120,144,45837,1,0
120,80,46025,1,4
120,144,46212,1,0
184,144,46400,1,0
184,208,46587,1,4
296,208,46962,1,0
296,144,47150,1,0
360,144,47337,1,4
72,304,49025,5,8
72,304,49118,1,0
72,304,49212,1,0
120,264,49400,1,0
168,304,49587,1,0
232,304,49775,1,2
232,240,49962,1,2
232,240,50056,1,0
296,240,50243,1,0
296,240,50337,1,2
296,176,50525,5,8
296,176,50618,1,0
296,176,50712,1,0
336,128,50900,1,0
296,80,51087,1,0
232,80,51275,1,2
168,80,51462,1,2
168,80,51556,1,0
168,16,51743,1,0
168,16,51837,1,2
168,144,52212,5,0
232,144,52400,1,4
168,144,52587,1,0
232,144,52775,1,0
232,208,52962,1,0
232,144,53150,1,4
296,144,53337,1,0
424,144,53712,5,0
376,184,53900,1,4
320,216,54087,1,0
256,224,54275,1,0
192,216,54462,1,0
136,184,54650,1,4
88,144,54837,1,0
48,96,55025,5,8
48,96,55118,1,0
48,96,55212,1,0
48,32,55400,1,0
112,32,55587,1,0
112,96,55775,1,2
176,96,55962,1,2
176,96,56056,1,0
240,96,56243,1,0
240,96,56337,1,2
304,96,56525,5,8
304,96,56618,1,0
304,96,56712,1,0
368,96,56900,1,0
432,96,57087,1,0
432,32,57275,1,2
496,32,57462,1,2
496,32,57556,1,0
496,96,57743,1,0
496,96,57837,1,2
496,160,58025,5,8
496,192,58118,1,0
496,224,58212,1,0
496,256,58306,1,0
504,288,58400,1,2
504,288,58493,1,0
504,288,58587,1,0
504,288,58681,1,0
480,288,58775,5,8
448,288,58868,1,0
416,288,58962,1,0
384,288,59056,1,0
360,296,59150,1,2
360,296,59243,1,0
360,296,59337,1,0
360,296,59431,1,0
360,272,59525,5,8
360,240,59618,1,0
360,208,59712,1,0
360,176,59806,1,0
368,152,59900,1,2
368,152,59993,1,0
368,152,60087,1,0
368,152,60181,1,0
344,152,60275,5,8
320,152,60368,1,0
288,152,60462,1,0
256,152,60556,1,0
232,160,60650,1,2
232,160,60743,1,0
232,160,60837,1,0
232,160,60931,1,0
208,160,61025,5,4
208,160,61118,1,0
208,160,61212,1,4
136,160,61400,1,0
136,232,61587,1,0
208,232,61775,1,2
208,304,61962,1,2
208,304,62056,1,0
136,304,62243,1,0
136,304,62337,1,2
136,232,62525,5,4
136,232,62618,1,0
136,232,62712,1,4
208,232,62900,1,0
280,232,63087,1,0
352,232,63275,1,2
352,304,63462,1,2
352,304,63556,1,0
424,304,63743,1,0
424,304,63837,1,2
424,160,64212,5,0
424,88,64400,1,4
352,88,64587,1,0
280,88,64775,1,0
280,160,64962,1,0
280,88,65150,1,4
208,88,65337,1,0
80,128,65712,5,0
80,192,65900,1,4
80,256,66087,1,0
80,320,66275,1,0
144,320,66462,1,0
208,320,66650,1,4
272,320,66837,1,0
272,256,67025,5,4
272,256,67118,1,0
272,256,67212,1,4
272,192,67400,1,0
328,160,67587,1,0
384,192,67775,1,2
384,256,67962,1,2
384,256,68056,1,0
448,256,68243,1,0
448,256,68337,1,2
448,320,68525,5,4
448,320,68618,1,0
448,320,68712,1,4
448,256,68900,1,0
448,192,69087,1,0
448,128,69275,1,2
384,128,69462,1,2
384,128,69556,1,0
384,64,69743,1,0
384,64,69837,1,2
320,64,70025,5,8
288,64,70118,1,0
256,64,70212,1,0
224,64,70306,1,0
192,64,70400,1,2
160,64,70493,1,0
128,64,70587,1,0
96,64,70681,1,0
64,64,70775,5,8
64,96,70868,1,0
64,128,70962,1,0
64,160,71056,1,0
64,192,71150,1,2
64,224,71243,1,0
64,256,71337,1,0
64,288,71431,1,0
64,320,71525,5,8
88,296,71618,1,0
112,272,71712,1,0
136,248,71806,1,0
160,224,71900,1,2
184,200,71993,1,0
208,176,72087,1,0
232,152,72181,1,0
256,136,72275,5,8
280,152,72368,1,0
304,176,72462,1,0
328,200,72556,1,0
352,224,72650,1,2
376,248,72743,1,0
400,272,72837,1,0
424,296,72931,1,0
448,320,73025,5,4
