osu file format v4

[General]
AudioFilename: Street Fighter Medley Remix.mp3
AudioLeadIn: 0
AudioHash: ddca97410058b6e5721b3bef6ece838b
PreviewTime: -1
SampleSet: Soft
EditorBookmarks: 30065,31220,51995,60075,60536,71155,72540,89160,105781,106243,106473,106704,107051,107397,109474,109936,110744,111090,122401,123671,124248,125518,162683,185190,216353,229511

[Metadata]
Title:Street Fighter 2 Megamix
Artist:Capcom Sound Team
Creator:EiJi
Version:Hard

[Difficulty]
HPDrainRate:5
CircleSize:5
OverallDifficulty:5
SliderMultiplier: 1.4
SliderTickRate: 1

[Events]
0,0,"sf2.jpg"
2,43654,51026
2,114522,117508
2,178003,183990
2,244254,250472
2,273917,287176
3,0,163,162,255

[TimingPoints]
980,461.680517082179,4,2,0

[HitObjects]
40,192,15292,1,0,
312,192,16561,1,0,
312,192,16677,1,0,
312,240,16907,1,0,
312,288,17138,1,0,
136,296,17946,5,0,
136,248,18177,1,0,
136,200,18408,1,0,
136,200,18523,1,0,
136,152,18754,1,0,
184,152,18985,1,0,
336,80,19793,5,0,
336,128,20024,1,0,
336,176,20255,1,0,
336,176,20370,1,0,
336,224,20601,1,0,
336,272,20832,1,0,
240,272,21293,5,0,
168,272,21640,1,0,
120,272,21871,1,0,
72,272,22101,1,0,
72,272,22217,1,0,
72,224,22448,1,0,
72,176,22678,1,0,
224,96,23486,5,0,
256,128,23717,1,0,
288,168,23948,1,0,
288,168,24064,1,0,
320,208,24294,1,0,
344,248,24525,1,0,
176,272,25333,5,0,
144,232,25564,1,0,
112,192,25795,1,0,
112,192,25910,1,0,
80,152,26141,1,0,
384,72,27988,5,0,
384,120,28219,1,0,
384,120,28334,1,0,
384,192,28680,1,0,
384,192,28796,1,0,
384,264,29142,6,0,B|384:264|320:264,7,35
349,264,30065,6,0,B|349:264|200:272|264:184|128:144|240:56|80:64,1,350
96,112,31450,1,0,
96,160,31681,1,0,
96,208,31912,1,0,
240,216,32605,2,0,B|240:216|232:272,2,35
240,312,33297,2,0,B|240:312|336:312|304:192,1,140
112,208,34913,6,0,B|112:208|120:104,3,70
216,144,36067,1,0,
208,312,36875,5,0,
208,312,36991,1,0,
256,312,37221,5,0,
304,312,37452,5,0,
304,312,37568,1,0,
352,312,37799,5,0,
352,312,37914,1,0,
360,112,38837,5,0,
312,112,39068,5,0,
264,112,39299,5,0,
264,112,39414,1,0,
216,112,39645,5,0,
216,112,39761,1,0,
32,192,40684,5,0,
128,192,41146,1,0,
368,192,42300,5,0,
328,224,42531,1,0,
328,272,42762,1,0,
288,296,42992,1,0,
192,296,43454,1,0,
256,32,52226,5,0,
256,80,52457,5,0,
256,104,52572,1,0,
256,128,52688,1,0,
208,128,52919,5,0,
208,152,53034,1,0,
208,176,53149,1,0,
160,176,53380,5,0,
136,176,53496,1,0,
112,176,53611,1,0,
112,224,53842,5,0,
112,272,54073,1,0,
112,320,54304,5,0,
136,320,54419,1,0,
160,320,54534,1,0,
168,272,54765,5,0,
168,248,54881,1,0,
168,224,54996,1,0,
216,224,55227,5,0,
240,224,55342,1,0,
264,224,55458,1,0,
272,272,55689,5,0,
272,320,55919,1,0,
272,368,56150,5,0,
296,368,56266,1,0,
320,368,56381,1,0,
352,328,56612,5,0,
368,312,56727,1,0,
384,296,56843,1,0,
384,248,57074,5,0,
368,224,57189,1,0,
352,200,57305,1,0,
344,152,57535,5,0,
376,112,57766,1,0,
408,80,57997,5,0,
384,80,58112,1,0,
360,80,58228,1,0,
312,80,58459,5,0,
296,96,58574,1,0,
280,112,58690,1,0,
232,112,58920,5,0,
208,112,59036,1,0,
184,112,59151,1,0,
184,160,59382,5,0,
184,208,59613,1,0,
184,304,60075,6,0,B|184:304|216:312,4,35
328,312,61229,5,0,
376,312,61460,2,0,B|376:312|448:312,2,70
256,192,63768,6,0,B|256:192|256:168,4,35
104,192,64922,5,0,
104,240,65153,1,0,
104,240,65269,1,0,
104,288,65499,1,0,
432,88,67461,5,0,
432,88,67577,1,0,
416,104,67692,1,0,
416,104,67808,1,0,
400,120,67923,1,0,
264,72,68616,5,0,
264,120,68847,1,0,
264,120,68962,1,0,
264,168,69193,1,0,
256,192,71155,6,0,B|256:192|256:200,12,35
48,64,74387,5,0,
48,256,75310,1,0,
240,256,76233,5,0,
336,256,76695,1,0,
408,88,78080,5,0,
312,88,78542,1,0,
240,88,78888,1,0,
48,200,79927,5,0,
144,200,80389,1,0,
216,200,80735,1,0,
216,248,80966,1,0,
216,296,81196,1,0,
216,296,81312,1,0,
312,296,81774,5,0,
408,296,82235,1,0,
408,224,82582,1,0,
408,176,82812,1,0,
360,176,83043,1,0,
360,176,83159,1,0,
312,176,83389,1,0,
312,128,83620,1,0,
216,112,84082,5,0,
168,168,84428,1,0,
136,208,84659,1,0,
104,248,84890,1,0,
104,248,85005,1,0,
104,296,85236,1,0,
104,344,85467,1,0,
256,32,87083,5,0,
248,64,89160,6,0,B|248:64|296:120|208:192,3,140
200,232,90776,6,0,B|200:232|120:264|248:336,1,140
288,328,91469,1,0,
432,328,92161,5,0,
432,232,92623,1,0,
432,80,93316,5,0,
352,144,93777,1,0,
352,240,94239,1,0,
304,240,94470,1,0,
208,240,94931,1,0,
160,240,95162,1,0,
72,120,95855,5,0,
72,216,96317,1,0,
184,120,97009,5,0,
280,120,97471,1,0,
376,120,97932,2,0,B|376:120|424:160|360:184,1,70
376,272,98625,2,0,B|376:272|376:200|336:208,2,70
280,280,99548,2,0,B|280:280|208:312,1,70
120,296,100241,5,0,
120,152,100933,1,0,
264,152,101626,1,0,
360,152,102088,1,0,
456,152,102549,1,0,
456,200,102780,1,0,
264,48,103934,5,0,
200,120,104396,1,0,
200,192,104742,1,0,
200,240,104973,1,0,
200,240,105088,1,0,
344,248,105781,6,0,B|344:248|344:280,4,35
392,248,106473,2,0,B|392:248|392:296,1,35
392,328,106820,1,0,
344,328,107051,2,0,B|344:328|344:264,3,35
296,288,107628,5,0,
200,288,108089,1,0,
128,288,108436,1,0,
80,288,108666,1,0,
80,288,108782,1,0,
80,144,109474,6,0,B|80:144|80:160,4,35
128,144,110167,2,0,B|128:144|128:192,1,35
176,184,110513,1,0,
224,184,110744,2,0,B|224:184|224:240,3,35
224,264,111321,5,0,
320,272,111783,1,0,
320,200,112129,1,0,
368,200,112360,1,0,
368,200,112475,1,0,
368,48,113168,5,0,
272,48,113630,1,0,
200,48,113976,1,0,
152,48,114207,1,0,
152,48,114322,1,0,
48,200,118708,5,0,
144,200,119170,1,0,
144,248,119401,1,0,
144,296,119631,1,0,
240,304,120093,5,0,
288,304,120324,1,0,
384,304,120786,5,0,
384,256,121016,1,0,
384,208,121247,1,0,
384,160,121478,1,0,
312,160,121824,1,0,
192,160,122401,6,0,B|192:160|192:192,11,35
192,192,123787,1,0,
288,192,124248,6,0,B|288:192|288:216,11,35
288,232,125633,1,0,
192,232,126095,5,0,
144,232,126326,1,0,
96,232,126557,1,0,
48,232,126787,1,0,
48,280,127018,1,0,
120,344,127480,5,0,
168,344,127711,1,0,
240,344,128057,5,0,
240,320,128172,1,0,
288,312,128403,5,0,
336,312,128634,1,0,
384,312,128865,1,0,
384,216,129327,5,0,
384,128,129788,1,0,
336,128,130019,1,0,
288,128,130250,5,0,
288,104,130365,1,0,
288,56,130596,5,0,
240,56,130827,1,0,
192,56,131058,5,0,
192,80,131173,1,0,
144,80,131404,5,0,
96,80,131635,1,0,
48,80,131866,1,0,
48,32,132097,5,0,
72,32,132212,1,0,
48,128,132674,5,0,
48,176,132905,5,0,
72,176,133020,1,0,
72,224,133251,5,0,
72,272,133482,1,0,
264,288,134405,5,0,
456,288,135329,5,0,
456,88,136252,5,0,
256,88,137175,5,0,
160,88,137637,1,0,
64,296,139022,5,0,
144,352,139484,1,0,
56,72,140869,5,0,
56,168,141330,1,0,
128,168,141677,5,0,
176,168,141907,1,0,
224,168,142138,1,0,
224,168,142254,1,0,
272,168,142485,1,0,
320,168,142715,1,0,
416,168,143177,5,0,
416,240,143523,1,0,
416,288,143754,1,0,
416,336,143985,1,0,
416,336,144100,1,0,
368,336,144331,1,0,
320,336,144562,1,0,
224,336,145024,5,0,
152,336,145370,1,0,
104,336,145601,1,0,
56,336,145832,1,0,
56,336,145947,1,0,
56,288,146178,1,0,
56,240,146409,1,0,
256,200,148256,5,0,
336,192,151949,5,0,
288,192,152180,1,0,
264,192,152295,1,0,
56,192,153680,1,0,
56,192,155642,5,0,
104,192,155873,1,0,
128,192,155989,1,0,
176,192,156220,1,0,
224,192,156450,1,0,
416,192,157374,1,0,
104,56,159337,5,0,
112,104,159567,1,0,
120,128,159683,1,0,
128,176,159914,1,0,
136,224,160145,1,0,
152,272,160375,1,0,
168,336,160606,2,0,B|168:336|208:336,5,35
64,56,163029,5,0,
160,56,163491,1,0,
256,56,163953,1,0,
352,56,164414,5,0,
352,104,164645,1,0,
352,152,164876,1,0,
352,248,165338,5,0,
256,248,165799,1,0,
160,248,166261,5,0,
120,280,166492,1,0,
80,312,166723,1,0,
72,216,167184,5,0,
72,120,167646,1,0,
168,120,168108,5,0,
216,120,168339,1,0,
264,120,168570,1,0,
360,104,169031,5,0,
360,176,169377,1,0,
360,224,169608,1,0,
360,272,169839,1,0,
360,272,169955,1,0,
360,320,170185,1,0,
360,360,170416,5,0,
264,360,170878,1,0,
168,360,171340,1,0,
168,264,171801,5,0,
216,264,172032,1,0,
264,264,172263,1,0,
264,168,172725,5,0,
168,168,173186,1,0,
72,168,173648,5,0,
72,120,173879,1,0,
72,72,174110,1,0,
168,72,174571,1,0,
264,72,175033,1,0,
360,72,175495,5,0,
360,120,175726,1,0,
360,168,175956,5,0,
360,168,176072,1,0,
360,240,176418,5,0,
360,240,176534,1,0,
360,312,176880,6,0,B|360:312|368:312,7,35
392,312,177803,1,0,
256,192,185190,6,0,B|256:192|448:112|392:336|200:312,1,350
168,312,186575,2,0,B|168:312|88:296|104:248,1,70
112,232,187037,2,0,B|112:232|96:152|224:168,1,140
216,120,187729,2,0,B|216:120|176:88|256:40|288:176,1,140
376,152,188653,2,0,B|376:152|520:240|296:360,1,280
168,336,190038,5,0,
168,288,190269,1,0,
168,240,190499,1,0,
168,192,190730,1,0,
168,96,191192,5,0,
216,96,191423,1,0,
312,96,191884,1,0,
384,160,192346,1,0,
416,192,192577,1,0,
168,224,193731,5,0,
152,176,193962,1,0,
168,128,194193,1,0,
160,80,194424,1,0,
400,80,195578,5,0,
360,112,195809,1,0,
400,144,196040,1,0,
368,184,196270,1,0,
248,192,197886,5,0,
248,192,198117,1,0,
448,200,199040,6,0,B|448:200|448:176,8,35
104,192,201580,5,0,
152,192,201811,1,0,
152,288,202272,1,0,
392,288,203426,5,0,
392,240,203657,1,0,
392,144,204119,1,0,
144,128,205273,5,0,
144,176,205504,1,0,
144,272,205966,1,0,
344,128,207120,5,0,
392,128,207351,1,0,
488,128,207812,1,0,
488,200,208159,1,0,
352,304,208967,5,0,
304,304,209197,1,0,
208,304,209659,1,0,
136,304,210005,1,0,
136,128,210813,5,0,
184,128,211044,1,0,
280,136,211506,1,0,
352,136,211852,1,0,
400,136,212083,1,0,
400,256,212660,5,0,
352,256,212891,1,0,
256,256,213353,1,0,
160,256,213814,1,0,
104,104,214738,6,0,B|104:104|104:208|296:88|152:336|88:264|72:200|144:352|224:280|216:232|248:192|416:296,1,490
408,288,216469,5,0,
408,288,216584,6,0,B|408:288|400:213|264:173|216:168,1,210
144,176,217739,2,0,B|144:176|32:208|24:128,1,140
24,88,218431,1,0,
344,128,220047,5,0,
344,128,220162,1,0,
344,128,220278,1,0,
344,272,220970,5,0,
248,272,221432,1,0,
152,272,221894,1,0,
152,328,222124,2,0,B|152:328|320:336|456:208|408:72|408:80|288:96|256:128,1,490
272,120,223856,5,0,
272,120,223971,1,0,
120,120,224664,5,0,
120,216,225125,1,0,
120,312,225587,1,0,
168,312,225818,1,0,
256,200,227665,6,0,B|256:200|256:176,15,35
256,165,229511,5,0,
376,96,231127,5,0,
96,144,232974,5,0,
424,352,234821,5,0,
128,96,236667,5,0,
256,192,238514,12,0,240361
256,192,242208,12,0,244054
192,192,251672,1,0,
144,192,251903,2,0,B|144:192|144:168,2,35
152,96,252595,5,0,
248,96,253057,1,0,
320,96,253519,5,0,
344,96,253634,2,0,B|344:96|344:32,3,35
352,160,254442,5,0,
352,256,254904,1,0,
352,304,255135,1,0,
304,304,255365,1,0,
256,304,255596,5,0,
256,304,255712,1,0,
256,304,255827,1,0,
160,304,256289,5,0,
160,208,256751,1,0,
160,112,257212,5,0,
160,88,257328,2,0,B|160:88|160:56,3,35
248,80,258136,5,0,
344,80,258597,1,0,
392,80,258828,1,0,
392,128,259059,1,0,
392,224,259521,5,0,
296,232,259982,1,0,
200,232,260444,1,0,
152,232,260675,1,0,
152,184,260906,5,0,
152,184,261021,1,0,
152,184,261136,1,0,
152,184,261252,1,0,
152,184,261367,1,0,
152,88,261829,5,0,
248,88,262291,1,0,
296,88,262522,1,0,
344,88,262752,1,0,
392,88,262983,5,0,
392,88,263099,1,0,
392,88,263214,1,0,
392,184,263676,5,0,
392,280,264137,1,0,
296,280,264599,6,0,B|296:280|296:224,4,35
200,288,265522,5,0,
104,288,265984,1,0,
56,288,266215,1,0,
56,240,266446,1,0,
56,192,266677,5,0,
56,192,266792,1,0,
56,192,266907,1,0,
152,192,267369,5,0,
248,192,267831,1,0,
344,192,268293,5,0,
344,192,268408,1,0,
344,192,268523,1,0,
344,192,268639,1,0,
344,192,268754,1,0,
344,96,269216,5,0,
248,96,269678,1,0,
200,96,269908,1,0,
152,96,270139,1,0,
56,96,270601,5,0,
56,192,271063,1,0,
56,192,271178,1,0,
128,192,271524,1,0,
224,192,271986,6,0,B|224:192|224:168,3,35
272,160,272563,6,0,B|272:160|272:176,2,35
272,160,272909,6,0,B|272:160|272:128,4,17.5
296,160,273256,6,0,B|296:160|328:160,4,35
144,192,288376,5,0,
192,192,288606,1,0,
440,192,289761,5,0,
440,144,289992,1,0,
440,96,290222,1,0,
440,48,290453,1,0,
296,40,291146,5,0,
296,40,291261,1,0,
296,40,291377,1,0,
200,40,291838,1,0,
104,40,292300,1,0,
104,88,292531,1,0,
104,136,292762,1,0,
104,136,292877,1,0,
104,256,293454,5,0,
144,272,293685,1,0,
192,288,293916,1,0,
240,304,294147,1,0,
336,304,294608,1,0,
432,160,295416,5,0,
432,160,295532,1,0,
384,160,295763,1,0,
336,160,295993,1,0,
336,160,296109,1,0,
288,160,296340,1,0,
288,160,296455,1,0,
288,88,296801,1,0,
216,88,297148,5,0,
168,88,297378,1,0,
120,88,297609,1,0,
120,136,297840,1,0,
120,136,297955,1,0,
120,184,298186,1,0,
120,184,298302,1,0,
104,352,299225,5,0,
200,352,299687,1,0,
248,352,299918,1,0,
296,352,300148,1,0,
368,352,300495,1,0,
416,352,300726,1,0,
416,304,300956,5,0,
416,304,301072,1,0,
416,256,301303,1,0,
416,208,301534,1,0,
416,112,301995,1,0,
160,192,303380,5,0,
256,192,303842,2,0,B|256:192|264:112,2,70
456,56,305458,5,0,
456,152,305919,2,0,B|456:152|472:176|432:224,5,70
336,216,307535,6,0,B|336:216|360:208|288:160,2,70
256,192,308112,12,0,310305
112,216,310767,6,0,B|112:216|8:192|136:104,1,140
160,120,311460,1,0,
208,120,311690,2,0,B|208:120|208:104,2,35
384,88,312845,6,0,B|384:88|440:32|424:160|504:176,1,140
472,208,313537,1,0,
472,256,313768,1,0,
472,304,313999,1,0,
472,352,314230,1,0,
424,352,314461,1,0,
328,352,314922,5,0,
280,352,315153,1,0,
184,352,315615,1,0,
88,352,316076,1,0,
256,192,318154,12,0,320001
256,192,320116,12,0,321847
256,192,321963,12,0,323694
256,192,323810,12,0,325541
256,96,326003,1,0,
328,96,326349,1,0,
376,96,326580,1,0,
424,96,326811,1,0,
424,96,326926,1,0,
424,144,327157,1,0,
424,192,327388,1,0,
424,288,327849,5,0,
352,288,328196,1,0,
304,288,328426,1,0,
256,288,328657,1,0,
256,288,328773,1,0,
208,288,329004,1,0,
160,288,329234,1,0,
160,192,329696,5,0,
160,120,330042,1,0,
160,72,330273,1,0,
160,24,330504,1,0,
160,24,330619,1,0,
208,24,330850,1,0,
256,24,331081,1,0,
352,24,331543,5,0,
352,72,331774,1,0,
352,120,332004,1,0,
352,168,332235,1,0,
352,216,332466,1,0,
352,264,332697,1,0,
352,312,332928,1,4,
