osu file format v5

[General]
AudioFilename: 17 - X - STORM EAGLEED STAGE.mp3
AudioLeadIn: 1985
PreviewTime: -1
Countdown: 1
SampleSet: Normal
StackLeniency: 0.7
Mode: 0
LetterboxInBreaks: 1
EditorBookmarks: 14178,28591,33864,44850,59614

[Metadata]
Title:Storm Eagle
Artist:Capcom Sound Team
Creator:Donjo
Version:Rain
Source:
Tags:

[Difficulty]
HPDrainRate:3
CircleSize:4
OverallDifficulty:3
SliderMultiplier:0.7
SliderTickRate:1

[Events]
//Background and Video events
0,0,"Storm-Eagle.jpg"
//Break Periods
2,28722,32705
//Storyboard Layer 0 (Background)
//Storyboard Layer 1 (Failing)
//Storyboard Layer 2 (Passing)
//Storyboard Layer 3 (Foreground)
//Storyboard Sound Samples
//Background Colour Transformations
3,100,0,210,255

[TimingPoints]
395,351.411502869861,4,1,0,100,1

[Colours]
Combo1 : 204,204,0
Combo2 : 0,132,0
Combo3 : 0,0,170
Combo4 : 215,0,0

[HitObjects]
256,192,3205,1,0
168,192,3732,1,2
56,192,4435,1,4
160,64,5489,5,0
240,80,6016,2,2,B|158:266|152:240,1,175
152,264,7070,1,2
264,264,7773,1,4
384,152,8827,5,2
272,152,9530,1,2
272,264,10233,1,2
160,264,10936,1,2
160,152,11639,6,2,B|360:176|328:192,1,175
352,200,12693,1,2
240,200,13396,1,4
120,80,14450,5,2
120,192,15153,1,2
232,192,15856,1,2
232,80,16558,1,2
344,80,17261,5,0
344,192,17964,1,2
248,136,18667,1,0
136,136,19370,1,4
136,248,20073,5,6
232,184,20775,1,6
320,248,21478,1,6
456,64,22884,5,0
368,136,23587,1,2
280,200,24289,1,0
168,200,24992,1,4
96,288,25695,5,6
168,200,26398,1,6
240,288,27101,1,6
312,200,27804,1,6
384,288,28506,1,6
72,80,34129,5,0
136,128,34656,1,2
248,128,35359,1,4
400,56,36413,5,0
360,128,36940,2,2,B|184:168|224:216,1,175
192,208,37995,1,2
104,136,38697,1,4
248,56,39752,5,2
328,136,40454,1,2
328,248,41157,1,2
240,320,41860,1,2
200,216,42563,6,2,B|288:56,1,175
304,80,43617,1,2
304,192,44320,1,4
200,64,45374,5,2
296,120,46077,1,2
408,120,46780,1,2
408,232,47483,1,2
296,232,48185,5,0
200,176,48888,1,2
200,288,49591,1,0
256,192,50294,1,4
368,192,50997,5,6
256,192,51700,1,6
368,192,52402,1,6
144,192,53808,5,0
232,120,54511,1,2
232,232,55214,1,0
336,184,55917,1,4
336,296,56619,5,6
280,200,57322,1,6
392,200,58025,1,6
336,104,58728,1,6
224,104,59431,1,6
56,56,62242,5,0
120,104,62769,1,2
232,104,63472,1,4
392,272,65053,5,0
328,216,65580,1,2
232,216,66283,1,4
80,88,67337,5,0
80,144,67689,1,0
256,192,67952,12,0,71026
