osu file format v9

[General]
AudioFilename: Capcom Sound Team - Moliarty.mp3
AudioLeadIn: 2000
PreviewTime: 29970
Countdown: 0
SampleSet: Normal
StackLeniency: 0.4
Mode: 0
LetterboxInBreaks: 0

[Editor]
Bookmarks: 29970,59895,89820
DistanceSpacing: 1
BeatDivisor: 4
GridSize: 4

[Metadata]
Title:Moliarty
Artist:Capcom Sound Team
Creator:Kert
Version:Easy
Source:Darkwing Duck
Tags:yasuaki fujita nes disney skyscraper icebeam mapper_31

[Difficulty]
HPDrainRate:3
CircleSize:3
OverallDifficulty:3
ApproachRate:3
SliderMultiplier:1.4
SliderTickRate:1

[Events]
//Background and Video events
0,0,"BG.png"
//Break Periods
//Storyboard Layer 0 (Background)
//Storyboard Layer 1 (Fail)
//Storyboard Layer 2 (Pass)
//Storyboard Layer 3 (Foreground)
//Storyboard Sound Samples
//Background Colour Transformations
3,100,163,162,255

[TimingPoints]
45,467.617488894085,4,1,0,50,1,0
74863,-100,4,1,0,50,0,1
89827,-100,4,1,0,50,0,0

[Colours]
Combo1 : 255,129,26
Combo2 : 0,255,0
Combo3 : 255,128,255

[HitObjects]
72,152,44,1,0
180,64,512,1,8
308,116,980,2,0,B|456:116,1,140,2|8
436,256,1915,6,0,B|394:336|273:376|192:335,2,280,0|2|0
372,132,4253,5,8
268,224,4721,2,0,B|184:220|144:160,1,140,2|8
60,56,5656,6,0,B|28:88|28:88|12:196,1,140,4|0
52,316,6591,2,0,B|192:348,1,140,2|8
328,336,7526,5,0
512,124,8462,1,2
236,172,9397,6,0,B|240:96|312:64,1,140,4|0
432,140,10332,2,0,B|448:188|448:188|480:212|480:212|496:264,1,140,2|8
396,356,11267,5,0
116,356,12203,1,6
256,192,13138,12,4,15008
188,364,15476,5,0
48,344,15943,2,0,B|100:308|100:308|100:232,1,140,2|8
32,108,16879,5,2
172,96,17346,2,0,B|264:40,1,105
184,348,18749,5,4
324,368,19217,1,0
464,344,19684,2,0,B|412:308|412:308|412:232,1,140,2|8
480,108,20620,5,2
340,96,21087,2,0,B|248:40,1,105,4|2
40,276,22490,6,0,B|180:288,1,140,0|4
104,168,23425,2,0,B|180:176|180:176|240:156,1,140,0|8
356,80,24361,5,2
487,128,24828,2,0,B|512:76|484:28,1,105,0|2
472,276,26231,6,0,B|332:288,1,140,0|4
408,168,27166,2,0,B|332:176|332:176|272:156,1,140,0|8
156,80,28102,5,2
28,28,28569,2,0,B|0:76|24:128,1,105,2|2
256,340,29972,6,0,B|352:368|448:272|420:175,1,280,4|2
300,108,31375,1,8
256,240,31842,6,0,B|159:268|63:172|91:75,1,280,4|6
212,8,33245,1,8
344,52,33713,6,0,B|400:104|476:92,1,140,0|2
364,180,34648,2,0,B|312:236|324:312,1,140,0|8
464,284,35583,5,2
464,284,36051,1,2
480,144,36519,2,0,B|452:68|376:60,1,140,0|8
240,48,37454,6,0,B|180:100|180:100|180:220|180:220|120:272,1,280,4|2
32,164,38857,1,8
32,164,39324,6,0,B|236:164|236:164|296:212,1,280,6|2
400,304,40727,1,8
264,340,41195,6,0,B|124:308,1,140,0|2
244,228,42130,2,2,B|384:196,1,140,2|8
392,56,43065,6,0,B|256:-8|120:56,1,280,4|0
12,312,44936,6,0,B|156:304,1,140,0|2
256,212,45871,2,0,B|400:220,1,140,0|8
492,116,46806,6,0,B|429:10|312:47,2,210,0|2|8
452,252,48677,5,0
336,332,49144,1,2
256,216,49612,2,0,B|112:216,1,140,0|8
28,108,50547,5,2
128,12,51015,1,0
244,92,51482,6,0,B|320:148|432:52|516:100,1,280,4|0
480,236,52885,5,2
380,336,53353,2,0,B|324:196,1,140,0|8
184,208,54288,6,0,B|132:336,1,140,0|2
0,288,55223,1,0
56,160,55691,1,8
116,32,56159,5,0
396,32,57094,1,6
256,192,58029,12,4,59900
348,96,60367,5,8
468,168,60835,2,0,B|504:240|464:304,1,140,2|8
332,344,61770,5,0
256,224,62238,2,0,B|256:120,1,105,0|2
56,32,63640,5,4
164,96,64108,1,8
44,168,64576,2,0,B|8:240|48:304,1,140,2|8
180,344,65511,5,2
256,224,65979,2,0,B|256:120,1,105,0|2
456,32,67381,5,4
352,124,67849,1,8
456,216,68317,1,2
352,312,68784,1,8
212,328,69252,5,4
72,344,69720,2,0,B|44:300|44:300|44:232,1,105,0|2
56,32,71122,5,4
160,124,71590,1,8
56,216,72058,1,2
160,312,72525,1,8
300,328,72993,5,2
440,344,73460,2,0,B|468:300|468:300|468:232,1,105,4|2
376,44,74863,6,0,B|408:36|408:36|460:52|460:52|484:44,2,105,0|2|0
356,120,75799,2,0,B|320:192|244:200,1,140,4|8
148,100,76734,6,0,B|116:92|116:92|64:108|64:108|40:100,2,105,0|2|0
144,180,77669,2,0,B|212:216|224:296,1,140,4|8
108,368,78604,6,0,B|40:332|28:252,3,140,0|2|0|8
32,120,80475,2,0,B|42:46|110:10,3,140,2|2|0|8
248,48,82345,6,0,B|388:76,1,140,4|0
464,192,83280,1,2
324,168,83748,1,8
188,168,84216,6,0,B|48:192,1,140,4|0
4,324,85151,1,2
136,368,85619,1,8
276,348,86086,6,0,B|315:326|315:326|333:277|333:277|379:248,1,140,4|2
232,232,87021,2,0,B|192:210|192:210|174:161|174:161|128:132,1,140,0|8
48,244,87957,5,2
0,112,88424,1,8
104,16,88892,1,4
256,192,89827,5,2
