osu file format v7

[General]
AudioFilename: 06 - Megaman II OST - Metalman Stage.mp3
AudioLeadIn: 0
PreviewTime: 12839
Countdown: 0
SampleSet: Soft
StackLeniency: 0.7
Mode: 0
LetterboxInBreaks: 0

[Editor]
DistanceSpacing: 1
BeatDivisor: 4
GridSize: 8

[Metadata]
Title:Metal Man
Artist:Capcom Sound Team
Creator:Larto
Version:Hard
Source:Mega Man 2
Tags:II Stage Nes

[Difficulty]
HPDrainRate:4
CircleSize:4
OverallDifficulty:5
SliderMultiplier:1.4
SliderTickRate:4

[Events]
//Background and Video events
0,0,"Metalman_Wallpaper_by_twincannon.jpg"
//Break Periods
//Storyboard Layer 0 (Background)
//Storyboard Layer 1 (Fail)
//Storyboard Layer 2 (Pass)
//Storyboard Layer 3 (Foreground)
//Storyboard Sound Samples
//Background Colour Transformations
3,100,163,162,255

[TimingPoints]
2188,399.334442595674,4,2,0,70,1,0
6890,-100,4,1,0,70,0,0
8487,-100,4,2,0,70,0,0
13279,-100,4,1,0,70,0,0
14676,-100,4,2,0,70,0,0
38737,-100,4,1,0,70,0,0
38826,-100,4,1,0,70,0,1
40334,-100,4,2,0,70,0,0
45316,-100,4,1,0,70,0,0
46713,-100,4,2,0,70,0,0
51675,-100,4,1,0,70,0,0
53052,-100,4,2,0,70,0,0
77163,-100,4,1,0,70,0,1
78860,-100,4,1,0,70,0,0

[Colours]
Combo1 : 255,255,255
Combo2 : 233,244,0
Combo3 : 5,5,240
Combo4 : 240,5,5

[HitObjects]
256,120,2188,5,4
256,264,2587,1,0
136,296,2986,2,2,L|80:256|64:160,1,140,2|0
96,72,3785,5,2
144,16,3985,1,0
216,16,4184,1,2
352,32,4584,2,2,L|416:104|416:240,1,210,2|0
416,296,5382,6,2,L|328:384|224:384,1,210,6|0
168,376,6181,2,2,L|155:327|168:240,1,105,2|0
184,88,6980,5,4
328,88,7379,1,2
184,176,7778,1,4
256,176,7978,1,0
328,176,8177,1,2
456,280,8577,6,0,L|400:344|256:344,1,210,4|0
192,344,9376,2,0,L|97:344,1,70,2|0
43,339,9775,2,0,L|43:235,1,70,0|2
43,181,10174,1,2
5,22,10574,1,2
151,57,10973,2,2,L|375:57,1,210,2|0
361,135,11772,6,2,L|145:135,1,210,6|0
208,208,12570,2,0,L|336:208,1,105,2|0
328,80,13369,5,4
184,80,13768,1,2
328,168,14167,1,4
256,168,14367,1,0
184,168,14566,1,2
96,312,14966,6,0,L|40:312,2,35,6|0|0
187,313,15366,2,0,L|267:313,1,70,8|0
352,312,15765,2,2,L|400:280|400:176,1,140,2|0
320,48,16564,2,0,L|256:72|160:40,3,140,2|2|2|2
80,160,18161,6,0,L|184:264,1,140,4|8
333,258,18960,2,0,L|431:159,1,140,4|8
424,8,19758,2,2,L|256:64|80:8,1,350,2|0
104,88,20956,1,2
152,232,21356,6,0,L|248:232,1,70,4|0
296,232,21755,2,0,L|296:328,1,70,8|0
296,376,22154,2,2,L|368:368|440:304,1,140,2|8
496,192,22953,2,2,L|448:144|352:144,2,140
424,56,24151,5,4
264,56,24550,2,2,L|264:128|208:208,1,140,2|8
152,224,25149,1,0
72,216,25349,2,2,L|72:288|128:368,1,140,2|8
256,304,26148,2,0,L|384:288|512:312,1,245,6|2
328,192,27346,5,4
328,40,27745,1,2
184,40,28144,1,8
184,192,28544,1,2
256,328,28943,2,0,L|256:272,1,35,0|2
256,176,29342,6,4,L|256:72,2,70
186,261,30141,2,0,L|338:261,1,140,0|2
184,192,30940,5,4
184,40,31339,1,8
328,40,31738,1,2
328,192,32138,1,2
291,301,32437,2,0,L|203:301,1,70,2|2
104,296,32936,6,0,L|56:296,12,35,2|0|0|2|0|0|2|0|0|2|0|0|4
184,168,34534,1,8
328,168,34933,1,2
408,296,35332,1,2
256,256,35732,6,4,L|256:336,2,70,4|4|4
210,109,36530,2,2,L|226:77|258:67|291:78|314:133,2,140,2|2|6
136,248,37728,5,8
256,352,38128,1,2
376,248,38527,1,2
256,257,38826,5,6
292,160,39126,2,0,L|188:160,1,70,0|2
221,90,39525,2,2,L|325:90,1,70
400,128,40124,1,8
408,280,40524,6,0,L|456:280,2,35,4|0|2
323,280,40923,2,0,L|256:297|184:280,1,140,8|2
80,176,41722,2,0,L|80:80,1,70,0|2
160,104,42121,2,0,L|160:8,1,70,2|0
256,32,42520,6,0,L|352:32,1,70,8|0
352,32,42820,2,2,L|400:144|360:272,1,245,2|0
304,320,43718,6,2,L|192:360|96:320,1,210,6|0
40,280,44517,1,2
136,184,44916,1,0
312,216,45316,5,4
184,136,45715,1,2
312,128,46114,1,4
248,180,46314,1,0
184,232,46514,1,2
96,368,46913,6,0,L|200:368,1,70,4|0
248,336,47312,2,0,L|376:336,1,105,8|0
392,336,47712,2,0,L|408:280|384:208,1,105,2|0
264,105,48510,1,2
184,137,48710,1,0
104,168,48910,5,2
147,284,49209,2,4,L|176:314|255:295|336:314|382:271,1,245,4|0
344,210,50108,2,4,L|324:241|254:225|188:241|169:210,1,210,4|0
136,144,50906,2,0,L|88:32,1,105,2|0
312,168,51705,5,4
184,248,52104,1,2
312,256,52503,1,4
248,204,52703,1,0
184,152,52903,1,2
256,24,53302,5,4
400,80,53702,1,8
432,152,53901,1,0
400,224,54101,2,0,L|368:280|272:296,1,140,2|0
216,304,54700,1,0
136,320,54900,2,2,L|64:336|48:248,2,140
288,192,56098,5,4
368,200,56297,1,0
424,144,56497,2,0,L|400:80|320:48,1,140,2|8
178,53,57296,2,0,L|112:80|88:144,1,140,2|8
64,216,57895,1,0
64,296,58094,2,4,L|432:296,1,350,4|0
448,224,59292,5,2
448,144,59492,1,0
448,64,59692,2,0,L|288:64,1,140,4|8
192,176,60490,2,0,L|32:176,1,140,2|8
23,345,61289,5,2
81,295,61489,2,2,L|433:294,1,350
440,144,62886,5,4
72,240,63485,1,0
72,240,63685,1,4
256,64,64284,1,0
256,64,64484,1,2
256,144,64683,1,0
256,224,64883,2,0,L|256:360,1,105,2|4
40,312,65682,5,4
56,184,66081,1,2
136,64,66480,1,8
256,0,66880,1,2
376,64,67279,1,8
456,184,67678,1,4
392,224,67878,1,4
387,148,68078,2,0,L|227:148,2,140,4|2|2
472,312,69276,5,4
456,184,69675,1,8
376,64,70074,1,2
256,0,70474,2,0,L|256:136,1,105,8|2
256,184,70973,1,2
360,224,71272,6,4,L|360:320|256:368|152:320|152:208,1,420,4|6
176,72,72870,1,8
256,192,73269,1,2
336,72,73668,1,8
368,208,74068,5,4
312,256,74267,1,4
256,304,74467,2,4,L|104:304,1,140,4|2
32,192,75266,5,8
128,96,75665,1,4
256,40,76064,1,8
384,96,76464,1,2
480,192,76863,1,8
256,192,77163,12,4,78860
