osu file format v7

[General]
AudioFilename: 06 - Megaman II OST - Metalman Stage.mp3
AudioLeadIn: 0
PreviewTime: 12839
Countdown: 0
SampleSet: Soft
StackLeniency: 0.7
Mode: 0
LetterboxInBreaks: 0

[Editor]
DistanceSpacing: 1.10000002384186
BeatDivisor: 4
GridSize: 8

[Metadata]
Title:Metal Man
Artist:Capcom Sound Team
Creator:Larto
Version:Crazy!
Source:Mega Man 2
Tags:II Stage Nes

[Difficulty]
HPDrainRate:6
CircleSize:5
OverallDifficulty:9
SliderMultiplier:1.8
SliderTickRate:4

[Events]
//Background and Video events
0,0,"Metalman_Wallpaper_by_twincannon.jpg"
//Break Periods
//Storyboard Layer 0 (Background)
//Storyboard Layer 1 (Fail)
//Storyboard Layer 2 (Pass)
//Storyboard Layer 3 (Foreground)
//Storyboard Sound Samples
//Background Colour Transformations
3,100,163,162,255

[TimingPoints]
2188,399.334442595674,4,2,0,70,1,0
6890,-100,4,1,0,70,0,0
8487,-100,4,2,0,70,0,0
13279,-100,4,1,0,70,0,0
14676,-100,4,2,0,70,0,0
38737,-100,4,1,0,70,0,0
38826,-100,4,1,0,70,0,1
40334,-100,4,2,0,70,0,0
45316,-100,4,1,0,70,0,0
46713,-100,4,2,0,70,0,0
51675,-100,4,1,0,70,0,0
53052,-100,4,2,0,70,0,0
77163,-100,4,1,0,70,0,1
78860,-100,4,1,0,70,0,0

[Colours]
Combo1 : 255,255,255
Combo2 : 233,244,0
Combo3 : 5,5,240
Combo4 : 240,5,5

[HitObjects]
256,192,2188,6,0,B|256:240,2,45,4|0|2
256,112,2587,2,0,L|184:112|120:144,1,135,0|0
144,200,2986,2,0,L|176:232|128:280,1,90,2|0
88,248,3286,2,0,L|56:280|104:328,2,90,0|2|2
144,344,3885,2,2,L|216:352|304:320,1,135,0|2
384,272,4384,1,0
384,272,4484,2,2,L|312:232|288:168|304:104|400:40,1,315,2|0
424,120,5382,5,4
424,120,5482,1,0
424,120,5582,1,2
368,184,5782,2,0,L|224:184,1,135,0|0
184,184,6181,2,2,L|136:136|184:88,2,135
104,272,6980,5,4
408,112,7379,1,2
184,104,7778,1,4
256,192,7978,1,0
328,280,8177,1,2
176,312,8577,5,4
176,312,8677,1,0
176,312,8777,1,2
88,312,8976,2,0,L|24:304|16:232,1,135,0|0
16,200,9376,2,0,L|64:192|80:144,1,90,2|0
96,112,9675,2,0,L|109:63|160:56,2,90,0|2|2
176,168,10274,2,0,L|344:168,1,135,0|2
400,96,10773,1,0
400,96,10873,2,2,L|56:96,1,315,2|0
208,168,11772,5,0
208,168,11871,1,0
208,168,11971,1,2
304,168,12171,1,0
328,312,12470,1,0
328,312,12570,2,2,L|272:312|264:288|184:288,2,135
408,272,13369,5,4
104,112,13768,1,2
328,104,14167,1,4
256,192,14367,1,0
184,280,14566,1,2
32,336,14966,5,6
32,336,15066,1,0
32,336,15166,1,0
32,248,15366,2,0,L|32:192|64:176,1,90,8|0
144,144,15765,2,2,L|192:216|288:216,1,180,2|0
376,216,16364,1,0
376,128,16564,1,2
472,216,16763,1,0
472,128,16963,2,2,L|472:80|416:24|336:24,2,180
472,128,17861,1,0
472,128,17961,1,0
256,128,18161,6,2,L|48:128,1,180,2|8
232,192,18760,1,0
320,256,18960,2,2,L|168:256,2,135,2|2|0
408,256,19758,6,2,L|480:240|528:192|488:144|400:112,1,270,2|0
400,104,20457,2,0,L|288:104,1,90,2|0
304,64,20757,2,0,L|192:64,2,90,0|2|0
256,192,21356,5,6
256,192,21455,1,0
256,192,21555,1,0
344,232,21755,2,0,L|328:264|288:280|256:280,1,90,8|0
160,200,22154,2,2,L|160:160|184:120|224:104|280:104,1,180,2|0
368,104,22753,1,0
456,128,22953,1,2
480,216,23153,2,2,L|480:264|440:280,1,90,2|0
256,336,23752,5,2
200,192,24051,1,0
200,192,24151,2,2,L|160:160|160:104,1,90,2|0
166,48,24550,6,2,L|346:48,1,180,2|8
256,192,25149,1,0
166,336,25349,2,2,L|358:336,1,180,2|8
416,280,25948,1,0
400,192,26148,5,2
320,120,26347,1,2
192,120,26547,1,0
112,192,26746,1,0
112,192,26846,2,0,L|184:192|240:240|336:240,1,225,2|0
352,240,27445,6,2,L|384:176|384:128,1,90,2|0
384,120,27745,2,2,L|304:120|256:64,1,135,6|0
248,56,28144,2,2,L|176:40|112:88,1,135,2|0
112,96,28544,2,2,L|112:176|168:224,1,135,2|0
184,232,28943,1,0
184,232,29043,1,2
56,246,29342,5,4
109,368,29542,1,4
240,344,29742,1,4
240,344,29841,2,0,L|240:312|280:248|280:216,1,135,0|2
160,240,30540,5,0
160,240,30640,2,2,L|128:176|128:136,1,90,2|0
128,120,30939,2,2,L|208:120|256:64,1,135,6|0
264,56,31339,2,2,L|336:40|400:88,1,135,2|0
400,96,31738,2,2,L|400:176|344:224,1,135,2|0
328,232,32137,1,0
328,232,32237,1,2
312,144,32437,1,4
200,144,32637,1,4
80,328,32936,5,2
112,312,33036,1,0
144,296,33136,1,0
168,280,33236,1,2
200,296,33336,1,0
232,312,33436,1,0
256,328,33535,1,2
280,312,33635,1,0
312,296,33735,1,0
344,280,33835,1,2
368,296,33935,1,0
400,312,34035,1,0
432,328,34134,6,2,L|488:288|488:200,1,135,6|0
472,176,34534,2,2,L|411:206|333:165,1,135,2|0
320,152,34933,2,2,L|264:112|264:24,1,135,2|0
264,8,35332,1,0
264,8,35432,1,2
136,0,35732,5,4
24,32,35931,1,4
96,104,36131,1,4
96,104,36231,2,0,L|96:224,1,90
96,232,36530,2,2,L|160:288|256:288,1,180,2|0
288,288,37029,1,2
344,136,37329,6,2,L|351:67|288:39,1,135,2|0
222,40,37728,2,2,L|162:67|168:135,1,135,2|0
200,192,38128,2,2,L|256:232|310:193,1,135,2|0
256,128,38527,1,0
256,128,38627,1,2
128,128,38826,5,6
136,240,39026,1,0
136,240,39126,1,2
256,296,39326,1,2
376,240,39525,1,2
384,128,39725,1,6
256,352,40024,5,0
256,352,40124,1,8
256,352,40224,1,0
48,200,40524,5,4
48,200,40623,1,0
48,200,40723,1,2
40,296,40923,2,0,L|88:336|184:336,1,135
208,336,41322,2,0,L|208:272|272:248,1,90,2|0
288,248,41622,2,0,L|288:184|352:160,1,90,2|0
368,160,41921,1,2
320,48,42121,5,4
320,48,42221,2,0,L|256:64|168:40,1,135,0|2
112,96,42720,1,0
112,96,42820,2,2,L|256:136|432:88,1,315,2|0
456,184,43718,5,4
456,184,43818,1,0
456,184,43918,1,2
384,256,44118,1,0
312,320,44317,1,0
200,352,44517,2,0,L|200:320|240:248,1,90,2|0
256,232,44816,2,0,L|304:136|256:24,1,225,2|4
256,360,45715,5,2
96,88,46114,1,4
256,128,46314,1,0
416,88,46514,1,2
352,272,46913,5,4
352,272,47013,1,0
352,272,47113,1,2
256,272,47312,2,0,L|192:272|160:200,1,135
152,168,47712,2,0,L|40:168,1,90,2|0
16,168,48011,2,0,L|16:120|64:88,1,90,2|0
72,80,48311,1,2
160,32,48510,6,0,L|224:16|312:40,1,135,4|0
336,56,48910,2,2,L|320:104|336:152,1,90,2|0
344,192,49209,2,2,L|416:208|472:280|424:344|344:368,1,315,2|0
160,352,50108,2,2,L|88:336|64:280|96:216|168:200,1,270,6|0
256,304,50906,2,2,L|244:256|264:184,1,90,2|0
264,192,51206,2,2,L|275:144|256:72,1,90,2|0
256,64,51505,1,0
256,64,51605,1,2
256,64,51705,1,4
256,360,52104,5,2
416,88,52503,1,4
256,128,52703,1,0
96,88,52903,1,2
48,240,53302,5,6
48,240,53402,1,0
48,240,53502,1,0
112,320,53702,2,0,L|160:320|200:256,1,90,8|0
232,200,54101,2,2,L|336:200|400:272,1,180,2|0
448,336,54700,1,0
448,336,54900,2,2,L|504:280|504:168,2,180
256,320,55998,5,0
256,320,56098,1,2
256,320,56197,1,2
120,264,56497,2,0,L|48:208|136:144,1,180,4|8
256,192,57096,1,0
392,208,57296,2,0,L|440:160|376:88,2,135,4|2|0
319,180,58094,2,2,L|298:145|254:129|208:149|196:191|209:232|253:253|303:237,1,315,6|2
304,336,58993,1,0
304,336,59093,2,0,L|176:336,2,90,0|2|2
392,296,59692,5,6
392,296,59791,1,0
392,296,59891,1,0
464,224,60091,2,0,L|488:184|488:120,1,90,8|0
448,48,60490,2,2,L|368:88|272:88,1,180,2|0
168,88,61089,1,0
56,88,61289,1,2
112,176,61489,1,0
120,280,61688,2,2,L|200:328|280:280,2,180,2|2|0
120,280,62587,1,2
256,224,62886,6,0,L|352:224|408:144,1,180,4|8
360,64,63485,1,0
256,128,63685,2,0,L|160:128|120:64,2,135,4|2|0
168,32,64484,5,2
256,8,64683,1,0
344,32,64883,1,2
416,88,65083,1,0
416,88,65183,2,2,L|392:120|416:160|392:200|416:256,1,180,2|0
432,280,65682,5,0
432,280,65782,2,2,L|312:280,1,90,2|0
304,280,66081,2,2,L|224:280|168:208,1,135,6|0
184,192,66480,2,2,L|217:148|297:148,1,135,2|0
328,152,66880,2,2,L|408:152|488:96,1,135,2|0
480,96,67279,1,0
480,96,67379,1,2
384,0,67678,5,4
336,96,67878,1,4
256,32,68078,1,4
256,32,68178,2,0,L|208:80|120:80,1,135,0|2
140,80,68876,5,0
140,80,68976,2,0,L|120:120|144:192,1,90,2|0
152,208,69276,2,2,L|176:272|248:296,1,135,6|0
272,293,69675,2,2,L|336:272|360:208,1,135,2|0
360,176,70074,2,2,L|336:112|264:88,1,135,2|0
232,80,70474,5,0
232,80,70574,1,2
320,40,70773,1,4
400,0,70973,1,4
488,96,71272,5,2
480,128,71372,1,0
472,160,71472,1,0
456,184,71572,1,2
423,190,71672,1,0
391,197,71772,1,0
360,200,71871,1,2
332,180,71971,1,0
304,163,72071,1,0
280,144,72171,1,2
247,150,72271,1,0
215,157,72371,1,0
184,168,72470,6,2,L|165:235|184:312,1,135,6|0
192,344,72870,2,2,L|264:360|360:344,1,135,2|0
331,298,73269,2,2,L|346:235|328:168,1,135,2|0
320,128,73668,1,0
320,128,73768,1,2
448,56,74068,5,4
352,16,74267,1,4
240,48,74467,1,4
240,48,74567,2,0,L|176:48|144:112,1,135,0|2
256,192,75266,1,0
256,192,75366,1,2
256,192,75665,12,4,77163
256,192,77262,12,8,78460
256,280,78860,5,4
