osu file format v5

[General]
AudioFilename: 18 - Megaman II OST - Dr. Wily Stage 1.ogg
AudioLeadIn: 3000
PreviewTime: -1
Countdown: 1
SampleSet: Normal
StackLeniency: 0.7
Mode: 0
LetterboxInBreaks: 1
EditorBookmarks: 40042,50857
EditorDistanceSpacing: 0.899999976158142

[Metadata]
Title:Dr. Wily Stage 1-2
Artist:Capcom Sound Team
Creator:Cyclone
Version:Normal
Source:Mega Man 2
Tags:

[Difficulty]
HPDrainRate:4
CircleSize:4
OverallDifficulty:5
SliderMultiplier:0.8
SliderTickRate:2

[Events]
//Background and Video events
//Break Periods
//Storyboard Layer 0 (Background)
//Storyboard Layer 1 (Failing)
//Storyboard Layer 2 (Passing)
//Storyboard Layer 3 (Foreground)
//Storyboard Sound Samples
//Background Colour Transformations
3,100,0,0,0

[TimingPoints]
275,332.778702163062,4,1,0,100,1,0

[Colours]
Combo1 : 255,128,0
Combo2 : 0,0,255
Combo3 : 128,255,255
Combo4 : 0,255,0

[HitObjects]
40,344,275,1,0
112,344,607,1,8
184,344,940,2,0,B|264:344,1,40
328,344,1606,1,0
400,344,1938,2,0,B|456:344,1,40,8|0
512,344,2438,2,8,B|512:272,2,40,8|8|8
512,200,3270,5,8
512,128,3602,2,0,B|512:64,1,40,0|0
448,128,4101,1,8
376,128,4434,1,8
336,184,4767,1,8
408,184,5100,1,8
384,32,5932,5,8
312,32,6265,2,0,B|248:32,1,40,0|0
200,32,6764,1,8
144,72,7096,1,8
200,112,7429,1,8
256,152,7762,1,8
200,192,8095,2,0,B|64:272|232:360,1,200,0|0
304,344,9426,2,0,B|440:264|272:176,1,200,0|0
256,272,10591,2,14,B|256:224,1,40
256,136,11256,5,8
152,64,11922,1,8
48,136,12587,1,8
48,240,13086,2,2,B|48:288,2,40
144,280,13918,5,8
320,280,14750,2,0,B|408:280,1,80,0|0
400,208,15416,2,0,B|288:208,1,80
400,48,16581,5,8
304,128,17246,1,8
400,216,17912,1,8
304,320,18577,1,8
304,320,18744,2,0,B|88:320,1,200,4|0
104,208,20075,2,0,B|320:208,1,200,0|0
352,264,21240,5,14
352,264,21406,2,0,B|496:264|496:176|496:72,1,280,4|0
496,72,22737,1,0
432,32,23070,1,0
376,80,23403,1,0
328,136,23735,1,0
256,56,24235,1,8
136,136,24900,2,8,B|136:72,1,40
24,96,25566,2,8,B|24:160,3,40,8|0|8|8
24,240,26564,5,8
96,240,26897,2,0,B|376:240,1,240,4|0
344,240,28062,1,0
400,280,28395,1,0
344,320,28728,1,0
272,320,29060,1,0
216,360,29393,1,0
32,360,30225,1,8
32,248,30724,1,8
32,176,31057,2,0,B|32:96,3,40,8|8|0|8
256,192,32221,12,8,33386
184,192,34052,5,0
256,192,34385,1,0
328,192,34717,1,0
256,192,34883,12,8,36048
256,120,36714,5,0
256,192,37047,1,0
256,264,37379,1,0
88,192,38211,2,0,B|32:192,3,40,0|0|0|0
296,192,40042,5,0
296,120,40374,2,0,B|296:64,3,40,0|8|0|0
216,192,41373,1,0
216,120,41705,2,0,B|216:64,3,40,0|8|0|0
144,192,42537,5,14
144,192,42704,2,0,B|144:296|312:288,1,200,4|0
360,288,43869,2,0,B|360:208,1,40,0|0
360,176,44368,1,0
360,72,44867,5,8
304,120,45200,1,8
248,168,45532,2,0,B|248:336,1,160,0|0
176,328,46531,2,0,B|112:328,1,40,0|0
136,256,47030,1,0
136,144,47529,5,8
136,64,47862,1,8
200,104,48195,1,0
344,104,48860,2,0,B|400:104,2,40
304,104,49359,2,0,B|168:104,1,120,8|0
128,152,50191,1,0
184,200,50524,1,0
240,248,50857,2,0,B|240:304,3,40,0|0|0|0
256,96,53186,5,6
256,96,53352,2,0,B|352:96|416:168|352:240|256:240,1,280,4|0
256,240,54683,1,8
208,288,55016,1,0
160,336,55349,1,8
112,288,55681,1,8
24,216,56181,1,0
24,72,56846,2,8,B|24:8,1,40
120,72,57512,2,0,B|184:72,3,40,8|0|8|8
256,72,58511,5,8
256,144,58844,2,0,B|256:216|328:272|400:216|400:144,1,240,0|0
400,144,60008,1,8
448,96,60341,1,0
496,144,60674,1,8
448,192,61006,1,8
448,264,61339,1,0
264,264,62171,1,8
152,264,62670,1,8
208,216,63003,2,0,B|208:136,3,40,8|8|0|8
304,216,64002,5,0
368,240,64334,2,0,B|368:192,1,40,0|8
432,216,64834,1,0
432,288,65166,2,0,B|432:352,1,40,0|8
360,328,65666,1,8
288,328,65998,1,8
216,328,66331,1,8
144,328,66664,5,0
144,216,67163,1,8
144,216,67496,1,8
248,216,67995,1,0
248,104,68494,1,8
248,104,68827,1,8
336,168,69326,5,0
408,168,69659,2,0,B|408:216,1,40,0|8
336,208,70158,1,0
256,184,70491,2,0,B|200:184,1,40,0|8
144,184,70990,1,8
88,232,71323,1,8
144,280,71656,1,8
240,232,72155,2,0,B|312:232,3,40
