osu file format v8

[General]
AudioFilename: Megaman 10 - Chill Man.mp3
AudioLeadIn: 2000
PreviewTime: 69826
Countdown: 0
SampleSet: Normal
StackLeniency: 0.8
Mode: 0
LetterboxInBreaks: 1

[Editor]
Bookmarks: 6426,19226,32026,44826,57626,64026,70426,83226
DistanceSpacing: 1.5
BeatDivisor: 4
GridSize: 8

[Metadata]
Title:Chill Man
Artist:Capcom Sound Team
Creator:CracK
Version:Insane
Source:Mega Man 10
Tags:megaman rockman rock samiljul

[Difficulty]
HPDrainRate:7
CircleSize:4
OverallDifficulty:8
ApproachRate:8
SliderMultiplier:1.5
SliderTickRate:2

[Events]
//Background and Video events
0,0,"chillman.jpg"
//Break Periods
//Storyboard Layer 0 (Background)
//Storyboard Layer 1 (Fail)
//Storyboard Layer 2 (Pass)
//Storyboard Layer 3 (Foreground)
//Storyboard Sound Samples
//Background Colour Transformations
3,100,163,162,255

[TimingPoints]
16,400.053340445393,4,1,0,60,1,0
4126,-100,4,1,1,60,0,0
4726,-100,4,1,0,60,0,0
6526,-100,4,1,1,60,0,0
6926,-100,4,1,0,60,0,0
7526,-100,4,1,1,60,0,0
8126,-100,4,1,0,60,0,0
8326,-100,4,1,1,60,0,0
10126,-100,4,1,0,60,0,0
10726,-100,4,1,1,60,0,0
11326,-100,4,1,0,60,0,0
11526,-100,4,1,1,60,0,0
13526,-100,4,1,0,60,0,0
14126,-100,4,1,1,60,0,0
15126,-100,4,1,0,60,0,0
15726,-100,4,1,1,60,0,0
15926,-100,4,1,0,60,0,0
16726,-100,4,1,1,60,0,0
16926,-100,4,1,0,60,0,0
33726,-100,4,1,2,60,0,0
33926,-100,4,1,1,60,0,0
34126,-100,4,1,0,60,0,0
37126,-100,4,1,1,60,0,0
37326,-100,4,1,2,60,0,0
37526,-100,4,1,0,60,0,0
44726,-100,4,1,1,60,0,0
44926,-100,4,1,0,60,0,0
45326,-100,4,1,1,60,0,0
45526,-100,4,1,0,60,0,0
46126,-100,4,1,1,60,0,0
46326,-100,4,1,0,60,0,0
47926,-100,4,1,1,60,0,0
48126,-100,4,1,0,60,0,0
48726,-100,4,1,1,60,0,0
48926,-100,4,1,0,60,0,0
51926,-100,4,1,1,60,0,0
52126,-100,4,1,0,60,0,0
52926,-100,4,1,1,60,0,0
55326,-100,4,1,0,60,0,0
55526,-100,4,1,1,60,0,0
56096,-100,4,1,0,60,0,0
56726,-100,4,1,1,60,0,0
56926,-100,4,1,0,60,0,0
57526,-100,4,2,0,40,0,0
60726,-100,4,1,0,40,0,0
62326,-100,4,1,0,50,0,0
63926,-100,4,1,0,60,0,0
65526,-100,4,1,0,70,0,0
67126,-100,4,1,1,80,0,0
69526,-100,4,1,0,80,0,0
69726,-100,4,1,1,80,0,0
70426,-100,4,1,0,80,0,1
72126,-100,4,1,2,80,0,1
72326,-100,4,1,1,80,0,1
74126,-100,4,1,0,80,0,1
75526,-100,4,1,1,80,0,1
75726,-100,4,1,0,80,0,1
83226,-100,4,1,0,80,0,0

[Colours]
Combo1 : 0,128,255
Combo2 : 45,111,99
Combo3 : 100,37,205
Combo4 : 164,49,49

[HitObjects]
104,248,16,1,0
104,248,216,1,0
200,248,416,2,0,B|272:216,1,75,0|8
312,128,816,1,0
360,216,1016,2,0,B|432:248,2,75,0|8|0
312,304,1616,5,2
216,304,1816,2,0,B|144:272,1,75
96,192,2216,1,8
96,192,2416,1,0
152,112,2616,2,0,B|224:80,2,75,0|8|0
208,192,3216,6,2,B|192:296|288:376|448:320,1,300,2|0
416,232,4216,2,0,B|416:128,1,75,0|2
416,56,4616,1,0
416,56,4816,2,2,B|328:56|264:128,1,150,2|8
328,200,5416,2,2,B|256:248|160:184,1,150
231,111,6016,2,0,B|184:56|96:56,1,150,2|2
56,160,6616,5,0
72,272,6816,2,0,B|128:336|232:344,1,150,2|0
256,240,7416,1,0
256,128,7617,1,2
256,240,7817,1,0
309,339,8017,2,0,B|384:336|440:272,1,150,0|2
456,160,8617,5,0
376,80,8817,2,0,B|376:40,2,37.5
296,160,9217,1,2
376,240,9417,1,2
296,312,9617,6,0,B|192:328,1,75,0|0
112,320,10017,2,0,B|32:264|40:160,1,150,2|0
80,88,10617,1,0
184,56,10817,1,2
288,104,11017,1,0
400,64,11217,6,0,B|480:120|472:224,1,150,0|2
472,304,11817,1,0
360,336,12017,1,0
288,248,12217,1,0
360,160,12417,1,8
472,192,12617,1,8
472,192,12817,6,0,B|424:128,1,75
336,72,13217,1,0
224,72,13417,2,0,B|64:144,2,150,2|0|2
280,168,14417,6,0,B|224:232,1,75
136,168,14817,1,0
136,280,15018,2,0,B|296:352,2,150,2|0|2
64,192,16018,6,0,B|144:56|328:48,1,300,0|2
424,48,17018,5,0
504,128,17218,1,8
424,208,17418,1,0
344,128,17618,1,4
424,48,18818,5,0
480,144,19018,1,0
368,144,19218,1,0
368,144,19318,1,0
368,144,19418,1,0
296,56,19618,2,0,B|216:80,1,75
168,80,19918,2,0,B|72:80,1,75
40,80,20218,1,0
40,80,20318,1,0
40,80,20418,1,0
40,80,20518,1,0
40,80,20618,1,8
40,304,20818,5,0
144,256,21018,2,0,B|144:304,2,37.5
256,256,21418,1,0
256,200,21518,2,0,B|256:112,1,75
312,128,21818,2,0,B|416:128,1,75,0|8
440,128,22118,1,0
440,128,22218,1,0
440,128,22318,1,0
440,128,22418,5,0
440,280,22619,2,0,L|488:320,2,37.5
304,208,23019,1,8
168,280,23219,2,0,L|120:320,2,37.5
304,344,23619,1,8
384,216,23819,5,0
384,216,23919,1,0
384,216,24019,1,8
304,136,24219,1,0
224,216,24419,1,0
224,216,24519,1,0
224,216,24619,1,8
120,248,24819,5,0
104,192,24919,1,0
128,144,25019,1,0
176,112,25119,1,0
224,144,25219,1,8
272,112,25319,1,0
320,144,25419,1,0
344,192,25519,1,0
328,248,25619,1,0
224,296,25819,6,0,B|264:328|312:328,1,75,0|8
408,320,26219,1,0
456,296,26319,2,0,B|504:192|464:96,1,187.5,0|8
368,72,27019,5,0
312,72,27119,1,0
256,72,27219,1,8
200,72,27319,1,0
144,72,27419,1,0
72,160,27619,1,0
72,272,27819,6,0,B|136:312|232:312,1,150,8|0
328,304,28419,1,8
416,232,28619,1,0
448,128,28819,2,0,B|384:88|288:88,1,150,0|8
256,192,29619,12,4,30420
168,312,31220,5,0
280,312,31420,1,0
224,216,31620,2,0,B|224:112,1,75,8|0
112,144,32020,5,0
72,248,32220,1,0
72,248,32320,1,0
72,248,32420,1,8
184,248,32620,2,2,B|256:296|352:232,1,150
440,248,33220,1,8
400,144,33420,2,0,B|256:72|96:152,1,300,0|0
144,40,34420,5,0
144,40,34520,1,0
144,40,34620,1,0
256,64,34820,1,8
368,40,35020,1,0
424,136,35220,5,0
424,248,35420,2,0,B|488:248,2,37.5,0|0|8
312,248,35820,2,2,B|272:312|184:328,1,150
88,288,36420,1,8
64,176,36620,1,0
152,104,36820,1,0
152,104,37020,2,0,B|256:64|379:79,1,225,0|0
408,184,37821,5,0
408,184,37921,1,0
408,184,38021,1,8
408,184,38221,1,0
368,288,38421,5,0
256,264,38621,2,0,B|256:192,2,37.5,0|0|8
144,288,39021,2,2,B|72:304|72:304|32:272|64:216,1,150
160,192,39621,1,8
56,144,39821,2,0,B|32:106|72:74|72:74|144:90,1,150,0|0
256,80,40421,5,2
256,136,40521,1,2
256,192,40621,1,2
256,248,40721,1,2
256,304,40821,1,0
368,280,41021,1,0
368,280,41121,1,0
368,280,41221,1,8
440,192,41421,1,0
368,104,41621,6,0,B|256:16|144:120,1,225
264,144,42421,1,0
264,256,42621,1,0
368,288,42821,2,0,B|256:376|144:272,1,225,8|0
88,56,44021,5,0
160,144,44221,1,0
264,96,44421,1,8
344,176,44621,1,0
424,256,44821,6,0,B|392:328|304:336,1,150,2|0
88,256,45422,2,0,B|120:328|208:336,1,150,2|0
256,104,46022,1,0
256,104,46222,2,0,B|256:256,1,150,2|0
256,336,46822,6,4,B|352:336,2,75,0|8|0
152,304,47422,1,0
64,240,47622,1,8
40,128,47822,1,0
96,32,48022,6,0,B|224:8|320:56,1,225,2|0
208,96,48822,2,0,B|300:142|428:118,1,225,2|0
328,56,49622,2,0,B|304:144|336:208,1,150,0|8
448,208,50222,2,0,B|520:288,2,75
344,256,50822,5,8
240,312,51022,2,0,B|184:368|104:368|48:312|56:248,1,225,0|0
160,232,51822,1,0
240,152,52022,2,0,B|184:96|104:96|48:152|64:216,1,225,2|0
96,288,52823,5,0
200,336,53023,2,0,B|256:280,1,75,2|8
352,336,53423,1,0
352,224,53623,2,0,B|296:168,1,75,0|0
352,72,54023,2,0,B|272:72,1,75,8|8
168,72,54423,5,2
80,192,54689,1,0
168,320,54956,1,2
256,192,55223,2,0,B|432:192,1,150,0|2
448,88,55823,1,0
448,88,55923,1,0
448,88,56023,2,0,B|524:194|445:300,1,225,2|0
336,296,56823,2,0,B|259:193|335:87,1,225,2|0
224,88,57623,6,0,B|128:56,1,75,0|0
40,64,58023,2,0,B|40:168,1,75,8|0
40,248,58423,2,0,B|40:336,1,75
152,319,58823,2,0,B|224:296,1,75,8|0
256,192,59223,2,0,B|176:192,1,75
256,192,59623,2,0,B|360:192,1,75,8|0
256,192,60024,2,0,B|256:272,1,75
256,192,60424,2,0,B|256:104,1,75,8|0
352,64,60824,5,0
440,136,61024,1,0
440,248,61224,1,8
352,320,61424,1,0
256,264,61624,1,0
160,320,61824,1,0
72,248,62024,1,8
72,136,62224,1,0
160,64,62424,5,0
256,128,62624,1,0
352,64,62824,1,8
256,128,63024,1,0
256,240,63224,1,0
160,296,63424,1,0
256,240,63624,1,8
352,296,63824,1,0
440,240,64024,6,0,B|440:144,1,75
440,56,64424,1,8
344,112,64624,2,0,B|264:80,1,75
160,88,65024,2,0,B|90:115,2,75,0|8|0
216,184,65624,6,0,B|216:272,1,75
112,304,66024,1,8
216,352,66224,1,0
320,304,66424,1,0
408,232,66624,2,0,B|496:232,2,75,0|8|0
392,120,67224,6,0,B|328:72,1,75,2|0
180,75,67625,2,0,B|120:120,1,75,0|2
119,264,68025,2,0,B|180:309,1,75,0|2
332,309,68425,2,0,B|392:264,1,75,2|0
256,224,68825,5,8
176,96,69025,1,0
328,96,69225,1,8
256,224,69425,2,0,B|256:72,1,150,2|2
256,312,70025,6,0,B|256:368,4,37.5,0|0|0|0|0
256,200,70625,1,0
256,200,70725,1,0
256,200,70825,1,8
360,232,71025,2,2,B|412:169|392:80,1,150
304,160,71625,1,8
392,88,71825,2,0,B|256:-24|112:96,1,300
208,160,72825,1,0
117,91,73025,2,0,B|99:169|152:232,1,150
256,320,73625,5,0
352,264,73825,1,0
352,264,73925,1,0
352,264,74025,1,8
464,288,74225,2,2,B|448:184|352:160,1,150
312,80,74825,1,8
256,176,75026,1,0
200,80,75226,1,0
129,170,75426,2,0,B|48:200|48:288,1,150
152,320,76026,5,0
152,320,76126,1,0
152,320,76226,1,0
256,272,76426,1,8
360,320,76626,1,0
360,320,76726,1,0
360,320,76826,1,0
408,216,77026,6,0,B|432:168,2,37.5,0|0|8
456,112,77426,2,2,B|288:48,1,150,2|2
196,58,78026,2,0,B|56:112,1,150
256,144,78626,5,0
256,224,78826,2,0,B|256:288,4,37.5
256,40,79426,5,0
256,40,79526,1,0
256,40,79626,1,8
256,344,80026,5,0
360,296,80226,1,0
400,256,80326,1,0
424,208,80426,1,8
432,96,80626,2,2,B|360:32|272:24,1,150
256,128,81226,1,8
211,28,81426,2,0,B|152:32|80:96,1,150,0|0
88,208,82026,1,0
112,256,82126,1,0
152,296,82226,1,0
256,336,82426,6,0,B|256:176,1,150,0|8
304,96,83027,1,0
256,72,83127,1,0
208,96,83227,1,4
