osu file format v8

[General]
AudioFilename: Megaman 10 - Chill Man.mp3
AudioLeadIn: 2000
PreviewTime: 69826
Countdown: 0
SampleSet: Normal
StackLeniency: 0.8
Mode: 0
LetterboxInBreaks: 1

[Editor]
Bookmarks: 6426,19226,32026,44826,57626,64026,70426,83226
DistanceSpacing: 1.5
BeatDivisor: 4
GridSize: 8

[Metadata]
Title:Chill Man
Artist:Capcom Sound Team
Creator:CracK
Version:Hard
Source:Mega Man 10
Tags:megaman rockman rock samiljul

[Difficulty]
HPDrainRate:6
CircleSize:4
OverallDifficulty:6
ApproachRate:6
SliderMultiplier:1.2
SliderTickRate:2

[Events]
//Background and Video events
0,0,"chillman.jpg"
//Break Periods
//Storyboard Layer 0 (Background)
//Storyboard Layer 1 (Fail)
//Storyboard Layer 2 (Pass)
//Storyboard Layer 3 (Foreground)
//Storyboard Sound Samples
//Background Colour Transformations
3,100,163,162,255

[TimingPoints]
16,400.053340445393,4,1,0,60,1,0
6526,-100,4,1,1,60,0,0
6926,-100,4,1,0,60,0,0
7526,-100,4,1,1,60,0,0
8126,-100,4,1,0,60,0,0
9926,-100,4,1,1,60,0,0
10126,-100,4,1,0,60,0,0
10726,-100,4,1,1,60,0,0
11326,-100,4,1,0,60,0,0
12326,-100,4,1,1,60,0,0
13326,-100,4,1,0,60,0,0
14126,-100,4,1,1,60,0,0
14926,-100,4,1,0,60,0,0
15726,-100,4,1,1,60,0,0
15926,-100,4,1,0,60,0,0
16726,-100,4,1,1,60,0,0
16926,-100,4,1,0,60,0,0
44726,-100,4,1,1,60,0,0
44926,-100,4,1,0,60,0,0
46126,-100,4,1,1,60,0,0
46326,-100,4,1,0,60,0,0
46726,-100,4,1,1,60,0,0
48126,-100,4,1,0,60,0,0
48726,-100,4,1,1,60,0,0
48926,-100,4,1,0,60,0,0
54226,-100,4,1,1,60,0,0
56096,-100,4,1,0,60,0,0
56726,-100,4,1,1,60,0,0
56926,-100,4,1,0,60,0,0
57526,-100,4,2,0,40,0,0
60726,-100,4,1,0,40,0,0
62326,-100,4,1,0,50,0,0
63926,-100,4,1,0,60,0,0
65526,-100,4,1,0,70,0,0
67126,-100,4,1,1,80,0,0
69526,-100,4,1,0,80,0,0
69726,-100,4,1,1,80,0,0
69926,-100,4,1,0,80,0,0
70126,-100,4,1,1,80,0,0
70326,-100,4,1,0,80,0,0
70426,-100,4,1,0,80,0,1
83226,-100,4,1,0,80,0,0

[Colours]
Combo1 : 0,128,255
Combo2 : 45,111,99
Combo3 : 100,37,205
Combo4 : 164,49,49

[HitObjects]
160,136,15,2,0,B|104:72,2,60
232,136,616,2,0,B|304:136,1,60
368,136,1016,2,0,B|424:72,2,60,0|8|0
368,208,1616,6,0,B|424:272,2,60
296,208,2216,2,0,B|224:208,1,60
160,208,2616,2,0,B|104:272,2,60,0|8|0
208,152,3216,6,2,B|288:48|440:48,1,240,2|0
456,112,4216,1,0
456,192,4416,1,8
456,264,4616,1,0
416,328,4816,2,2,B|287:329|207:225,1,240,2|0
208,152,5816,2,0,L|208:80,1,60,0|8
72,48,6416,6,0,B|72:136,1,60
72,192,6816,2,0,B|48:312|168:352,1,180,2|0
216,312,7617,2,0,B|216:224,2,60,2|0|0
288,344,8217,1,0
360,312,8417,2,0,B|496:352,2,120,0|0|8
360,168,9617,6,0,L|360:88,1,60
360,32,10017,2,0,B|240:40|192:136,1,180,2|0
168,184,10817,2,0,B|80:184,2,60,2|0|0
208,248,11417,1,0
248,184,11617,2,0,B|392:184,2,120,0|0|8
112,104,12817,6,0,B|192:72,1,60
232,56,13217,2,0,B|320:16|432:56,1,180,2|0
440,112,14017,1,8
480,176,14217,1,0
408,176,14417,1,0
440,312,14817,2,0,B|289:345|201:281,1,240,2|0
344,248,16018,6,0,B|184:224|160:80,1,240,0|2
216,56,17018,2,0,B|296:32,3,60,0|0|0|4
256,120,18818,5,0
256,192,19018,1,0
256,264,19218,1,0
256,336,19418,2,0,B|336:336,1,60
384,336,19818,1,0
384,336,19918,2,0,B|472:296,1,90
472,224,20418,2,0,B|472:176,2,30,0|0|8
400,224,20818,5,0
400,152,21018,2,0,B|400:104,2,30
328,152,21418,1,0
328,152,21518,2,0,B|232:152,1,90,0|0
200,216,22018,1,8
160,152,22218,1,0
128,152,22318,1,0
96,152,22418,6,0,B|40:96|112:24,1,120
96,232,23219,6,0,B|40:288|112:360,1,120
184,288,23919,1,0
184,288,24019,2,0,B|320:288,1,120,8|0
376,288,24619,1,0
448,288,24819,2,0,B|480:336,4,30,0|0|0|0|0
448,216,25419,1,8
448,144,25619,6,0,B|432:64|352:48,1,120
336,112,26219,1,0
336,112,26319,2,0,B|256:160|184:104,1,150
152,56,27019,1,8
80,56,27219,2,0,B|80:8,2,30
80,144,27619,5,0
120,224,27819,2,0,B|144:288|232:312,1,120
296,304,28419,2,0,B|360:248,1,60
352,176,28819,2,0,B|328:112|240:88,1,120,0|8
88,120,29619,5,0
248,208,30020,1,0
88,296,30420,1,4
304,216,31220,5,0
368,280,31420,1,0
432,216,31620,1,8
368,152,31820,2,0,B|368:80,1,60
280,72,32220,5,0
240,56,32320,1,0
200,72,32420,1,8
112,96,32620,2,2,B|32:200,1,120
128,192,33220,1,8
40,192,33420,2,0,B|116:284,1,120
216,288,34020,6,0,B|216:360,2,60,8|0|0
304,288,34620,2,0,B|304:360,2,60,0|8|0
392,288,35220,5,0
392,200,35420,2,0,B|440:200,2,30,0|0|8
384,112,35820,2,2,B|320:120|280:176,1,120
256,256,36420,1,8
228,171,36620,2,0,B|192:120|128:112,1,120
80,192,37220,6,0,B|120:256,1,60,8|0
184,296,37621,2,0,B|224:232,1,60
304,248,38021,2,0,B|392:248,1,60,8|0
440,296,38421,6,0,B|488:192|432:112,1,180
72,120,39621,1,0
72,120,40021,2,0,B|23:188|71:292,1,180
160,296,40821,2,0,B|240:296,1,60
216,208,41221,2,0,B|304:208,1,60,8|0
352,208,41621,6,0,B|352:328|480:336,1,180
456,192,42621,1,0
456,48,43021,2,0,B|408:64|360:8|280:56,1,180
80,104,44021,5,0
80,280,44421,1,8
240,192,44821,6,0,B|256:280|384:304,1,180,2|0
448,304,45622,1,0
480,152,46022,1,0
480,152,46222,2,0,B|464:64|336:40,1,180,2|2
264,184,47222,5,0
160,336,47622,1,8
64,192,48022,6,0,B|136:96|224:80,1,180,2|0
280,72,48822,1,0
448,40,49222,1,0
448,40,49422,2,0,B|488:120|400:128|480:232,1,180,2|2
344,312,50422,5,0
288,256,50622,1,0
216,240,50822,1,8
136,248,51022,2,0,B|56:216|32:160|48:88,1,180
192,48,52022,6,0,B|272:32,2,60
368,80,52823,2,0,B|424:144,2,60
456,240,53623,2,0,B|440:320,2,60
288,312,54423,5,2
232,208,54689,1,0
304,112,54956,1,2
208,40,55223,1,0
88,280,55823,5,0
128,288,55923,1,0
168,304,56023,2,0,B|224:336|304:328,1,120,2|0
440,328,56823,2,0,B|472:272|440:192,1,120,2|0
256,96,57623,6,0,B|184:96,3,60,0|0|8|0
256,160,58423,6,0,B|336:160,3,60,0|0|8|0
256,224,59223,6,0,B|184:224,3,60,0|0|8|0
256,288,60024,6,0,B|328:288,3,60,0|0|8|0
408,288,60824,6,0,B|464:168,1,120,0|8
312,72,61624,2,0,B|168:72,1,120,0|8
52,179,62424,2,0,B|104:288,1,120,0|8
256,240,63224,2,0,B|256:160,2,60,0|0|8
424,312,64024,6,0,B|424:224,3,60
424,160,64824,1,0
248,160,65224,1,8
72,160,65624,6,0,B|72:248,3,60
72,312,66424,1,0
248,312,66824,1,8
248,160,67224,6,0,B|320:160,1,60
384,160,67625,2,0,B|424:224,1,60
416,288,68025,2,0,B|480:288,2,60,0|8|8
256,296,68825,5,2
200,240,69025,1,0
176,168,69225,1,2
192,96,69425,2,0,B|224:32|320:56,2,120,2|2|2
272,136,70425,5,0
344,192,70625,2,0,B|320:232,2,30,0|0|8
432,192,71025,2,2,B|488:232|480:312,1,120
400,328,71625,1,8
312,328,71825,2,0,B|256:360|184:320,1,120,0|0
104,328,72425,2,0,B|24:352,2,60,8|0|0
104,240,73025,2,0,B|24:208,2,60,0|8|0
192,240,73625,5,0
256,176,73825,1,0
256,176,73925,1,0
256,176,74025,1,8
344,176,74225,2,2,B|424:176|448:96,1,120
360,80,74825,1,8
272,80,75026,2,0,B|213:96|213:173,1,120
208,264,75626,6,0,B|256:336,1,60,8|0
320,264,76026,2,0,B|392:224,1,60
456,192,76426,2,0,B|456:112,1,60,8|0
456,40,76826,6,0,B|208:40,1,240
112,192,78026,1,0
112,192,78426,2,0,B|360:192,1,240
88,328,79626,5,8
424,328,80026,5,0
464,248,80226,1,0
480,208,80326,1,0
464,168,80426,1,8
416,88,80626,2,2,B|360:48|288:40,1,120
256,120,81226,1,8
205,42,81426,2,0,B|152:48|96:88,1,120
64,168,82026,1,0
48,208,82126,1,0
64,248,82226,1,0
144,288,82426,6,0,B|216:320,1,60
272,264,82827,2,0,B|312:200,1,60,8|0
256,136,83227,1,4
