osu file format v8

[General]
AudioFilename: Megaman 10 - Chill Man.mp3
AudioLeadIn: 2000
PreviewTime: 69826
Countdown: 0
SampleSet: Normal
StackLeniency: 0.8
Mode: 0
LetterboxInBreaks: 1

[Editor]
Bookmarks: 6426,19226,32026,44826,57626,64026,70426,83226
DistanceSpacing: 1
BeatDivisor: 2
GridSize: 8

[Metadata]
Title:Chill Man
Artist:Capcom Sound Team
Creator:CracK
Version:Easy
Source:Mega Man 10
Tags:megaman rockman rock samiljul

[Difficulty]
HPDrainRate:3
CircleSize:3
OverallDifficulty:2
ApproachRate:2
SliderMultiplier:0.8
SliderTickRate:1

[Events]
//Background and Video events
0,0,"chillman.jpg"
//Break Periods
2,45021,56063
//Storyboard Layer 0 (Background)
//Storyboard Layer 1 (Fail)
//Storyboard Layer 2 (Pass)
//Storyboard Layer 3 (Foreground)
//Storyboard Sound Samples
//Background Colour Transformations
3,100,163,162,255

[TimingPoints]
16,400.053340445393,4,1,0,60,1,0
4426,-100,4,1,1,60,0,0
31626,-100,4,1,0,60,0,0
38826,-100,4,1,1,60,0,0
41226,-100,4,1,0,60,0,0
57526,-100,4,2,0,40,0,0
60726,-100,4,1,0,40,0,0
62326,-100,4,1,0,50,0,0
63926,-100,4,1,0,60,0,0
65526,-100,4,1,0,70,0,0
66826,-100,4,1,1,80,0,0
67426,-100,4,1,0,80,0,0
70426,-100,4,1,0,80,0,1
83226,-100,4,1,0,80,0,0

[Colours]
Combo1 : 0,128,255
Combo2 : 45,111,99
Combo3 : 100,37,205
Combo4 : 164,49,49

[HitObjects]
64,192,15,2,0,B|192:64,1,160
336,80,1616,2,0,B|449:193,1,160
336,304,3216,2,2,B|160:304,1,160,2|0
256,168,4816,2,0,B|256:72,2,80,2|0|0
368,56,6416,5,0
456,192,7216,1,2
368,328,8017,2,0,B|288:328,1,80
208,328,8817,1,0
48,328,9617,5,0
128,192,10417,1,2
56,48,11217,2,0,B|56:144,2,80,2|0|0
216,48,12817,5,0
376,48,13617,2,0,B|464:136|416:264,1,160,2|0
336,328,15218,2,0,B|272:288|224:360|152:304,1,160,2|0
80,192,16818,1,0
80,112,17218,1,8
80,32,17618,1,4
400,32,19218,6,0,L|456:88|384:160,1,160
320,144,20418,1,0
240,144,20818,2,0,L|184:200|256:272,1,160
320,256,22018,1,0
400,256,22418,6,0,L|480:256,3,80,0|8|0|0
480,176,24019,2,0,L|480:80,3,80,0|8|0|0
400,96,25619,6,0,L|176:96,1,160
160,96,26819,1,0
80,96,27219,2,0,L|80:320,1,160
256,192,28819,12,4,30420
416,312,32020,6,0,L|416:224,1,80
416,152,32820,2,2,L|416:56,1,80
336,72,33620,1,0
256,72,34020,1,0
176,72,34420,1,8
72,192,35220,6,0,L|176:192,1,80
232,192,36020,2,2,L|328:192,1,80
392,192,36820,1,0
464,152,37220,1,0
464,232,37621,1,8
328,336,38421,5,0
176,280,39221,1,2
328,224,40021,1,0
176,160,40821,1,8
256,24,41621,6,0,L|256:408,1,320
104,344,44021,1,0
104,184,44821,1,4
104,32,57623,5,0
104,192,58423,1,8
104,352,59223,1,0
256,288,60024,1,8
408,352,60824,5,0
408,192,61624,1,8
408,32,62424,1,0
256,80,63224,1,8
320,256,64024,6,0,L|256:208|192:256,1,160,0|8
32,272,65624,2,0,L|32:104,1,160,0|8
192,128,67224,2,0,L|256:176|320:128,1,160,2|8
480,112,68825,2,0,L|480:280,1,160,0|8
328,312,70425,6,0,L|240:312,1,80
168,312,71225,2,2,L|56:312,1,80
88,232,72025,1,0
88,152,72425,1,0
88,72,72825,1,8
240,112,73625,6,0,L|344:112,1,80
400,112,74425,1,2
456,168,74825,1,2
456,248,75226,2,0,L|456:336,1,80
376,328,76026,1,8
216,328,76826,6,0,B|96:328|96:232,1,160
96,168,78026,1,8
176,168,78426,2,0,B|352:168,1,160
416,168,79626,1,8
416,248,80026,6,2,B|416:328|296:328,1,160
224,328,81226,1,8
192,256,81626,1,0
224,184,82026,1,0
304,184,82426,1,0
336,112,82827,1,8
304,40,83227,1,4
