osu file format v12

[General]
AudioFilename: Cannon Ball.mp3
AudioLeadIn: 2000
PreviewTime: 40528
Countdown: 0
SampleSet: Soft
StackLeniency: 0.7
Mode: 0
LetterboxInBreaks: 0
WidescreenStoryboard: 0

[Editor]
Bookmarks: 66248
DistanceSpacing: 0.7
BeatDivisor: 4
GridSize: 4

[Metadata]
Title:Cannon Ball
TitleUnicode:Cannon Ball
Artist:Capcom Sound Team
ArtistUnicode:Capcom Sound Team
Creator:lkx_Shore
Version:Insane
Source:Rockman Zero 3
Tags:GBA kapukong OMEGA Zero__Wind Game Boy Advance Megaman
BeatmapID:264679
BeatmapSetID:99523

[Difficulty]
HPDrainRate:6
CircleSize:4
OverallDifficulty:7
ApproachRate:8
SliderMultiplier:1.8
SliderTickRate:1

[Events]
//Background and Video events
0,0,"zero3.jpg",0,0
//Break Periods
//Storyboard Layer 0 (Background)
//Storyboard Layer 1 (Fail)
//Storyboard Layer 2 (Pass)
//Storyboard Layer 3 (Foreground)
//Storyboard Sound Samples
//Background Colour Transformations
3,100,163,162,255

[TimingPoints]
341,401.875418620228,4,2,1,70,1,0
2752,-100,4,1,0,50,0,0
3254,-100,4,2,1,70,0,0
5967,-100,4,1,0,50,0,0
6469,-100,4,2,1,70,0,0
9182,-100,4,1,0,50,0,0
9684,-100,4,2,1,70,0,0
11794,-100,4,1,0,20,0,0
12196,-100,4,1,0,30,0,0
12598,-100,4,1,0,40,0,0
13000,-100,4,1,0,50,0,0
13201,-100,4,2,1,75,0,1
13301,-100,4,2,1,70,0,0
39121,-100,4,1,0,20,0,0
39523,-100,4,1,0,30,0,0
39925,-100,4,1,0,40,0,0
40327,-100,4,1,0,50,0,0
40528,-100,4,2,1,75,0,1
40629,-100,4,2,1,60,0,0
59818,-83.3333333333333,4,2,1,70,0,1
59919,-83.3333333333333,4,2,1,70,0,0
64842,-83.3333333333333,4,1,0,20,0,0
65243,-83.3333333333333,4,1,0,30,0,0
65653,-83.3333333333333,4,1,0,40,0,0
66047,-83.3333333333333,4,1,0,50,0,0
66248,-83.3333333333333,4,2,1,100,0,0

[Colours]
Combo1 : 239,134,99
Combo2 : 255,0,0
Combo3 : 255,128,0

[HitObjects]
88,88,341,2,0,L|176:120,1,90,6|0,0:0|0:0,0:0:0:0:
296,168,642,2,0,L|208:200,1,90,2|0,0:0|0:0,0:0:0:0:
112,232,943,1,2,0:0:0:0:
112,232,1144,2,0,P|128:272|176:296,1,90,6|0,0:0|0:0,0:0:0:0:
264,184,1446,2,0,P|221:189|185:229,1,90,2|0,0:0|0:0,0:0:0:0:
248,280,1747,1,2,0:0:0:0:
376,312,1948,5,4,0:0:0:0:
386,315,2249,1,2,0:0:0:0:
397,319,2551,1,2,0:0:0:0:
248,280,2752,6,2,P|208:232|224:160,1,135,2|0,0:0|2:0,0:0:0:0:
288,208,3154,2,0,P|352:216|400:168,1,135,2|0,0:0|0:0,0:0:0:0:
464,48,3556,6,0,P|424:56|392:96,1,90,6|0,0:0|0:0,0:0:0:0:
448,232,3857,2,0,P|472:192|464:136,1,90,2|0,0:0|0:0,0:0:0:0:
352,256,4158,1,2,0:0:0:0:
352,256,4359,2,0,P|312:288|272:288,1,90,6|0,0:0|0:0,0:0:0:0:
224,160,4661,2,0,P|272:176|288:216,1,90,2|0,0:0|0:0,0:0:0:0:
216,232,4962,1,2,0:0:0:0:
104,304,5163,5,4,0:0:0:0:
96,312,5464,1,2,0:0:0:0:
88,320,5766,1,2,0:0:0:0:
216,232,5967,2,2,P|316:258|327:311,1,135,2|0,0:0|2:0,0:0:0:0:
248,304,6369,2,0,P|168:304|136:256,1,135,2|0,0:0|0:0,0:0:0:0:
64,112,6771,6,0,P|112:120|144:168,1,90,6|0,0:0|0:0,0:0:0:0:
144,184,7072,1,2,0:0:0:0:
16,216,7273,2,0,L|64:200,1,45,2|0,0:0|0:0,0:0:0:0:
248,152,7574,2,0,L|336:120,1,90,6|0,0:0|0:0,0:0:0:0:
368,112,7876,1,2,0:0:0:0:
480,104,8077,2,0,L|480:176,1,45,2|0,0:0|0:0,0:0:0:0:
480,336,8378,6,0,P|456:304|408:296,1,90,6|2,0:0|0:0,0:0:0:0:
376,312,8679,2,0,L|296:264,1,90,0|2,0:0|0:0,0:0:0:0:
258,201,8981,1,0,0:0:0:0:
258,201,9182,2,2,P|272:144|344:120,1,135,2|0,0:0|2:0,0:0:0:0:
424,208,9584,2,0,P|410:265|338:289,1,135,2|0,0:0|0:0,0:0:0:0:
264,280,9986,6,0,L|176:304,1,90,6|2,0:0|0:0,0:0:0:0:
136,320,10287,2,0,P|176:328|208:368,1,90,0|2,0:0|0:0,0:0:0:0:
88,248,10588,1,0,0:0:0:0:
88,248,10789,2,0,L|120:160,1,90,6|0,0:0|0:0,0:0:0:0:
128,136,11091,2,0,P|128:96|96:56,1,90,2|0,0:0|0:0,0:0:0:0:
56,40,11392,1,2,0:0:0:0:
32,160,11593,5,2,0:0:0:0:
184,224,11794,1,0,0:0:0:0:
208,232,11894,1,0,0:0:0:0:
232,224,11995,5,0,0:0:0:0:
256,200,12095,1,0,0:0:0:0:
288,192,12196,1,0,0:0:0:0:
320,200,12296,1,0,0:0:0:0:
344,224,12397,1,0,0:0:0:0:
360,256,12497,1,0,0:0:0:0:
360,296,12598,1,0,0:0:0:0:
336,320,12698,1,0,0:0:0:0:
304,336,12799,1,0,0:0:0:0:
272,336,12899,1,0,0:0:0:0:
240,320,13000,1,0,0:0:0:0:
216,296,13100,1,0,0:0:0:0:
192,272,13201,5,4,0:0:0:0:
440,168,13502,1,2,0:0:0:0:
192,272,13803,1,0,0:0:0:0:
192,272,13904,1,0,0:0:0:0:
192,272,14004,2,0,P|152:264|120:224,1,90,2|0,0:0|0:0,0:0:0:0:
192,88,14406,2,0,L|192:184,1,90,8|0,0:0|0:0,0:0:0:0:
264,216,14808,6,0,P|320:208|376:256,2,135,2|2|2,0:0|0:0|0:0,0:0:0:0:
304,288,15612,2,0,L|344:144,2,135,2|2|2,0:0|0:0|0:0,0:0:0:0:
240,336,16416,6,0,L|144:336,1,90,2|0,0:0|0:0,0:0:0:0:
24,272,16717,2,0,L|120:272,1,90,2|0,0:0|0:0,0:0:0:0:
152,208,17018,1,2,0:0:0:0:
152,208,17219,1,0,0:0:0:0:
296,144,17420,1,2,0:0:0:0:
152,208,17621,1,8,0:0:0:0:
232,272,17822,1,0,0:0:0:0:
232,272,17923,1,0,0:0:0:0:
232,272,18023,6,0,P|280:256|304:216,1,90,2|0,0:0|0:0,0:0:0:0:
200,112,18324,2,0,L|232:200,1,90,2|0,0:0|0:0,0:0:0:0:
328,320,18626,2,0,L|352:280,1,45
416,168,18827,1,2,0:0:0:0:
456,336,19028,1,2,0:0:0:0:
456,336,19128,1,0,0:0:0:0:
456,336,19229,2,0,L|480:248,1,90,8|0,0:0|0:0,0:0:0:0:
456,56,19631,6,0,P|408:112|336:104,1,135,6|2,0:0|0:0,0:0:0:0:
351,111,20032,2,0,P|304:120|274:148,1,90,0|2,0:0|0:0,0:0:0:0:
346,205,20434,1,0,0:0:0:0:
200,72,20635,1,2,0:0:0:0:
200,72,20836,2,0,L|136:168,1,90,8|0,0:0|0:0,0:0:0:0:
88,240,21238,6,0,P|160:248|192:304,2,135,2|2|2,0:0|0:0|0:0,0:0:0:0:
320,128,22042,2,0,P|248:136|216:192,2,135,2|2|2,0:0|0:0|0:0,0:0:0:0:
296,200,22846,6,0,L|248:120,1,90,2|0,0:0|0:0,0:0:0:0:
120,32,23147,2,0,L|168:112,1,90,2|0,0:0|0:0,0:0:0:0:
192,192,23448,1,2,0:0:0:0:
192,192,23649,1,0,0:0:0:0:
56,280,23850,1,2,0:0:0:0:
192,192,24051,2,0,P|256:192|280:216,1,90,8|0,0:0|0:0,0:0:0:0:
280,248,24353,1,0,0:0:0:0:
280,248,24453,6,0,L|368:208,1,90,2|0,0:0|0:0,0:0:0:0:
448,64,24754,2,0,P|400:80|376:120,1,90,2|0,0:0|0:0,0:0:0:0:
488,168,25056,2,0,L|448:144,1,45,2|0,0:0|0:0,0:0:0:0:
208,56,25257,1,0,0:0:0:0:
88,192,25458,1,2,0:0:0:0:
208,56,25659,1,8,0:0:0:0:
256,152,25860,1,0,0:0:0:0:
256,152,25960,1,0,0:0:0:0:
256,152,26061,6,0,P|320:144|352:40,1,180,4|8,0:0|0:0,0:0:0:0:
280,72,26663,1,0,0:0:0:0:
424,152,26864,2,0,L|424:280,1,90,2|2,0:0|0:0,0:0:0:0:
424,328,27266,1,10,0:0:0:0:
424,328,27668,6,0,P|368:328|328:296,1,90,0|2,0:0|0:0,0:0:0:0:
280,168,28070,2,0,P|336:168|376:200,1,90,10|2,0:0|0:0,0:0:0:0:
192,288,28472,1,2,0:0:0:0:
160,112,28673,1,2,0:0:0:0:
72,224,28874,1,8,0:0:0:0:
32,48,29075,1,2,0:0:0:0:
32,48,29276,6,0,P|64:80|152:72,1,135,6|2,0:0|0:0,0:0:0:0:
222,39,29677,2,0,P|184:40|148:74,1,90,0|2,0:0|0:0,0:0:0:0:
144,112,29979,1,0,0:0:0:0:
160,144,30079,1,0,0:0:0:0:
280,152,30280,1,2,0:0:0:0:
280,152,30481,2,0,L|376:152,1,90,8|0,0:0|0:0,0:0:0:0:
400,136,30783,1,0,0:0:0:0:
400,136,30883,6,0,P|368:184|392:248,1,90,2|0,0:0|0:0,0:0:0:0:
488,328,31184,2,0,P|462:276|395:265,1,90,2|0,0:0|0:0,0:0:0:0:
362,298,31486,1,2,0:0:0:0:
362,298,31586,1,0,0:0:0:0:
362,298,31687,2,0,L|272:280,1,90,0|2,0:0|0:0,0:0:0:0:
112,320,32089,2,0,L|202:338,1,90,8|0,0:0|0:0,0:0:0:0:
362,298,32491,6,0,B|392:288|408:248|408:248|400:224|352:208|312:240,1,180,4|8,0:0|0:0,0:0:0:0:
464,344,33093,1,0,0:0:0:0:
464,344,33294,2,0,L|488:256,1,90,2|2,0:0|0:0,0:0:0:0:
216,72,33696,2,0,P|168:88|144:128,1,90,8|0,0:0|0:0,0:0:0:0:
248,240,34098,6,0,L|224:144,1,90,0|2,0:0|0:0,0:0:0:0:
226,152,34500,1,8,0:0:0:0:
192,304,34701,1,2,0:0:0:0:
192,304,34801,1,0,0:0:0:0:
192,304,34902,2,0,P|248:280|344:336,1,180,2|8,0:0|0:0,0:0:0:0:
448,200,35505,1,0,0:0:0:0:
376,48,35706,6,0,L|351:226,1,180,4|8,0:0|0:0,0:0:0:0:
448,200,36308,1,0,0:0:0:0:
264,190,36509,6,0,L|376:48,1,180,4|8,0:0|0:0,0:0:0:0:
448,200,37112,1,0,0:0:0:0:
376,48,37313,6,0,L|208:115,1,180,4|8,0:0|0:0,0:0:0:0:
448,200,37916,1,0,0:0:0:0:
248,144,38117,6,0,B|152:144,1,90,4|2,0:0|0:0,0:0:0:0:
136,112,38418,1,2,0:0:0:0:
72,168,38619,1,2,0:0:0:0:
72,168,38720,1,0,0:0:0:0:
72,168,38820,2,0,P|50:217|64:258,1,90,0|0,0:0|0:0,0:0:0:0:
96,272,39121,5,0,0:0:0:0:
128,264,39222,1,0,0:0:0:0:
160,256,39322,1,0,0:0:0:0:
192,248,39423,1,0,0:0:0:0:
224,240,39523,1,0,0:0:0:0:
256,232,39624,1,0,0:0:0:0:
288,224,39724,5,0,0:0:0:0:
328,200,39825,1,0,0:0:0:0:
344,160,39925,1,0,0:0:0:0:
344,112,40026,1,0,0:0:0:0:
320,72,40126,1,0,0:0:0:0:
280,48,40227,1,0,0:0:0:0:
232,48,40327,1,0,0:0:0:0:
192,72,40428,1,0,0:0:0:0:
168,112,40528,5,6,0:0:0:0:
360,280,40829,1,0,0:0:0:0:
360,280,40930,2,0,L|456:240,1,90,8|0,0:0|0:0,0:0:0:0:
448,152,41332,1,2,0:0:0:0:
272,320,41633,2,0,L|224:304,1,45,0|8,0:0|0:0,0:0:0:0:
48,232,41935,1,2,0:0:0:0:
48,232,42136,6,0,P|152:240|208:160,1,180,4|8,0:0|0:0,0:0:0:0:
136,64,42738,1,0,0:0:0:0:
120,96,42839,1,0,0:0:0:0:
104,128,42939,2,0,L|152:312,1,180,4|8,0:0|0:0,0:0:0:0:
296,272,43542,1,0,0:0:0:0:
296,272,43643,1,0,0:0:0:0:
296,272,43743,5,6,0:0:0:0:
440,72,44044,2,0,L|416:112,1,45,2|8,0:0|0:0,0:0:0:0:
296,272,44346,1,2,0:0:0:0:
176,240,44547,2,0,P|128:208|152:96,1,180,0|8,0:0|0:0,0:0:0:0:
256,208,45150,1,0,0:0:0:0:
240,176,45250,1,0,0:0:0:0:
208,160,45351,6,0,P|128:160|80:240,2,180,4|8|4,0:0|0:0|0:0,0:0:0:0:
296,248,46355,1,2,0:0:0:0:
296,248,46456,1,0,0:0:0:0:
296,248,46556,2,0,L|352:152,1,90,8|0,0:0|0:0,0:0:0:0:
416,32,46958,6,0,P|392:96|424:152,1,135,4|0,0:0|0:0,0:0:0:0:
512,136,47360,2,0,L|422:150,1,90,8|0,0:0|0:0,0:0:0:0:
128,200,47762,2,0,P|80:224|64:272,1,90,2|0,0:0|0:0,0:0:0:0:
152,288,48063,2,0,P|196:317|246:307,1,90,2|0,0:0|0:0,0:0:0:0:
208,224,48365,1,0,0:0:0:0:
208,224,48566,6,0,L|304:192,1,90,4|0,0:0|0:0,0:0:0:0:
64,72,48967,2,0,L|160:104,1,90,8|0,0:0|0:0,0:0:0:0:
392,144,49369,2,0,B|424:128|440:104|440:104|472:160|440:216,1,180,6|8,0:0|0:0,0:0:0:0:
352,296,49972,1,0,0:0:0:0:
352,296,50073,1,0,0:0:0:0:
352,296,50173,6,0,L|264:336,1,90,6|0,0:0|0:0,0:0:0:0:
200,288,50474,2,0,P|240:296|270:333,1,90,2|0,0:0|0:0,0:0:0:0:
104,224,50776,1,2,0:0:0:0:
104,224,50977,2,0,L|168:160,1,90
264,40,51379,1,8,0:0:0:0:
168,264,51580,1,0,0:0:0:0:
128,256,51680,1,0,0:0:0:0:
104,224,51781,6,0,B|104:176|144:152|144:152|192:128|192:72,1,180,4|8,0:0|0:0,0:0:0:0:
88,64,52383,1,0,0:0:0:0:
256,192,52584,2,0,B|280:224|312:216|312:216|320:176|360:144|400:152,1,180,4|8,0:0|0:0,0:0:0:0:
320,320,53187,1,0,0:0:0:0:
144,272,53388,1,4,0:0:0:0:
256,192,53589,5,2,0:0:0:0:
256,192,53689,1,0,0:0:0:0:
256,192,53790,2,0,P|304:192|336:216,1,90,8|0,0:0|0:0,0:0:0:0:
360,352,54192,2,0,L|416:224,1,135,2|0,0:0|0:0,0:0:0:0:
414,228,54594,2,0,P|456:200|496:208,1,90,8|0,0:0|0:0,0:0:0:0:
472,288,54996,6,0,L|376:304,1,90,2|0,0:0|0:0,0:0:0:0:
192,200,55397,1,8,0:0:0:0:
192,200,55598,2,0,L|288:184,2,90
96,160,56201,2,0,P|120:104|96:56,1,90,8|0,0:0|0:0,0:0:0:0:
96,64,56503,1,0,0:0:0:0:
72,64,56603,6,0,P|128:88|176:64,1,90,6|2,0:0|0:0,0:0:0:0:
190,57,56904,2,0,L|320:104,1,135,0|2,0:0|0:0,0:0:0:0:
432,144,57407,2,0,P|376:192|400:288,1,180,2|8,0:0|0:0,0:0:0:0:
456,224,58010,1,0,0:0:0:0:
456,224,58110,1,0,0:0:0:0:
456,224,58211,6,0,P|416:200|368:208,1,90,6|2,0:0|0:0,0:0:0:0:
344,232,58512,2,0,B|320:264|336:304|336:304|296:352,1,135,2|2,0:0|0:0,0:0:0:0:
152,168,59014,2,0,B|224:136|216:192|288:168,2,135,2|2|2,0:0|0:0|0:0,0:0:0:0:
184,240,59818,6,0,L|216:136,1,107.999996704102,6|0,0:0|0:0,0:0:0:0:
215,136,60119,2,0,P|184:104|120:104,1,107.999996704102,2|0,0:0|0:0,0:0:0:0:
48,216,60421,2,0,L|104:216,1,53.9999983520508,2|0,0:0|0:0,0:0:0:0:
288,224,60622,2,0,P|344:224|384:192,1,107.999996704102,6|0,0:0|0:0,0:0:0:0:
296,48,60923,2,0,L|320:160,1,107.999996704102,2|0,0:0|0:0,0:0:0:0:
384,320,61225,2,0,L|416:272,1,53.9999983520508,2|0,0:0|0:0,0:0:0:0:
488,80,61426,6,0,P|432:80|392:112,1,107.999996704102,6|0,0:0|0:0,0:0:0:0:
280,224,61727,2,0,L|384:192,1,107.999996704102,2|0,0:0|0:0,0:0:0:0:
512,192,62028,2,0,L|460:180,1,53.9999983520508,2|0,0:0|0:0,0:0:0:0:
320,128,62229,2,0,L|268:116,3,53.9999983520508,4|0|0|0,0:0|0:0|0:0|0:0,0:0:0:0:
232,108,62631,1,4,0:0:0:0:
120,160,62832,1,0,0:0:0:0:
120,160,62933,1,0,0:0:0:0:
120,160,63033,6,0,P|64:136|48:88,1,107.999996704102,6|0,0:0|0:0,0:0:0:0:
144,72,63334,2,0,P|192:35|242:45,1,107.999996704102,2|0,0:0|0:0,0:0:0:0:
208,136,63636,2,0,L|264:152,1,53.9999983520508,2|0,0:0|0:0,0:0:0:0:
448,192,63837,2,0,L|416:296,1,107.999996704102,4|0,0:0|0:0,0:0:0:0:
314,294,64138,2,0,P|360:280|415:296,1,107.999996704102,2|0,0:0|0:0,0:0:0:0:
264,368,64440,1,2,0:0:0:0:
264,368,64641,5,2,0:0:0:0:
112,296,64842,1,0,0:0:0:0:
83,256,64942,1,0,0:0:0:0:
89,205,65042,1,0,0:0:0:0:
128,177,65143,1,0,0:0:0:0:
179,182,65243,1,0,0:0:0:0:
213,216,65344,1,0,0:0:0:0:
264,222,65444,1,0,0:0:0:0:
304,194,65545,1,0,0:0:0:0:
326,148,65645,1,0,0:0:0:0:
315,103,65746,1,0,0:0:0:0:
276,75,65846,6,0,P|247:69|213:80,1,53.9999983520508,0|0,0:0|0:0,0:0:0:0:
161,218,66047,2,0,P|189:223|223:212,1,53.9999983520508
100,114,66248,5,4,0:0:0:0:
