osu file format v4

[General]
AudioFilename: Become The Storm.mp3
AudioLeadIn: 0
AudioHash: 9284a54d3a0528efe3ea507469abe8d2
PreviewTime: -1
SampleSet: Soft
EditorBookmarks: 23876,24821,27655,28600,43482,44663,44899,45136,45372,170096

[Metadata]
Title:Become the Storm (Ryu)
Artist:Capcom Sound Team
Creator:EiJi
Version:Hard

[Difficulty]
HPDrainRate:6
CircleSize:5
OverallDifficulty:6
SliderMultiplier: 1.8
SliderTickRate: 2

[Events]
0,0,"sf22.jpg"
2,85264,98747
2,144323,153790
2,196768,210606
3,0,163,162,255

[TimingPoints]
18,472.47814788566,4,2,1

[HitObjects]
120,120,7577,1,0,
144,152,7813,1,0,
168,184,8050,1,2,
416,80,9467,5,0,
400,120,9703,1,0,
384,160,9940,1,2,
144,280,11357,5,0,
168,240,11593,1,0,
184,200,11829,1,2,
432,296,13247,5,0,
432,248,13483,1,0,
432,200,13719,1,2,
360,200,14074,5,4,
288,200,14428,5,0,
248,224,14664,1,0,
208,248,14901,1,0,
176,280,15137,1,0,
144,312,15373,1,0,
104,336,15609,1,0,
32,336,15964,5,4,
32,264,16318,1,0,
32,216,16554,1,2,
104,168,17027,5,0,
144,184,17263,1,0,
184,200,17499,1,0,
192,128,17854,5,4,
256,128,18208,1,0,
304,128,18444,1,2,
392,128,18917,5,0,
392,168,19153,1,0,
392,216,19389,1,0,
392,280,19743,5,4,
320,280,20098,1,0,
272,280,20334,1,2,
184,280,20807,5,0,
152,248,21043,1,0,
128,208,21279,1,0,
136,136,21633,1,4,
200,136,21988,1,0,
240,136,22224,1,2,
280,136,22460,1,0,
280,136,22578,1,0,
320,136,22696,2,4,L|320:136|320:256,2,90
440,136,23523,5,0,
440,256,23878,2,2,L|440:256|344:256,4,90
440,176,25059,1,2,
440,96,25295,5,0,
400,96,25413,1,0,
360,96,25531,1,2,
280,96,25768,1,2,
200,96,26004,1,4,
40,96,26476,6,2,L|40:96|40:200,2,90
136,168,27303,1,0,
136,288,27657,6,2,L|136:288|232:280,4,90
136,208,28839,1,2,
136,88,29193,1,4,
256,88,29547,2,0,L|256:88|360:88,2,90
192,136,30256,5,0,
192,136,30374,1,2,
192,216,30610,5,0,
192,216,30729,1,2,
192,336,31083,5,0,
312,336,31437,1,2,
392,336,31674,2,2,L|392:336|392:224,1,90
392,168,32146,5,0,
392,208,32264,1,2,
392,128,32500,1,0,
392,168,32618,1,2,
280,128,32973,5,0,
160,128,33327,1,0,
80,128,33563,2,0,L|80:128|80:232,1,90
80,296,34036,1,0,
160,296,34272,2,0,L|160:296|256:296,1,90
368,296,34863,1,0,
368,176,35217,2,0,L|368:176|368:80,3,90
288,88,36162,6,0,L|288:88|288:56,2,22.5
288,88,36398,2,0,L|288:88|80:88|64:184,1,270
72,312,37580,2,0,L|72:312|192:312|184:312,1,90
88,40,38997,5,0,
88,120,39233,2,0,L|88:120|88:232,1,90
88,288,39706,1,0,
168,288,39942,2,0,L|168:288|264:288,1,90
376,288,40533,5,0,
376,168,40887,2,0,L|376:168|288:104,1,90
264,112,41241,2,0,L|264:112|232:112,2,45
184,112,41714,2,0,L|184:112|88:112|64:160,1,135
72,224,42304,2,0,L|72:224|72:256|144:272,1,90
248,272,42895,1,0,
128,104,43485,6,0,L|128:104|120:272|312:272|352:176,1,450
352,104,44903,2,0,L|352:104|256:72,1,90
184,72,45375,2,0,L|184:72|64:152|72:264|136:288|272:280,1,450
344,272,46793,5,0,
384,272,46911,1,0,
384,232,47029,1,0,
344,232,47147,1,0,
368,152,47383,1,0,
248,152,47738,5,0,
248,72,47974,1,0,
168,72,48210,1,0,
48,80,48565,5,0,
48,200,48919,1,0,
256,192,49155,12,4,51045
96,192,51518,1,2,
256,192,51990,1,0,
336,192,52226,2,2,L|336:192|336:112,1,45
336,72,52581,1,0,
256,72,52817,1,2,
200,136,53053,2,4,L|200:136|176:136,1,45
72,136,53408,5,4,
72,216,53644,1,0,
72,296,53880,1,2,
152,296,54116,1,2,
152,296,54234,1,0,
232,296,54471,2,2,L|232:296|328:296,2,90
232,296,55061,1,0,
232,216,55297,1,4,
232,96,55652,6,2,L|232:96|156:56|96:64,1,135
112,144,56242,2,2,L|112:144|112:240,2,90
112,144,56833,2,0,L|112:144|112:112,1,45
112,104,57069,2,0,L|112:104|248:104|280:160,1,180
392,144,57896,6,0,L|392:144|400:248,5,90
352,80,59550,5,2,
272,80,59786,1,0,
232,80,59904,1,0,
152,80,60140,1,0,
72,80,60377,1,2,
72,200,60731,5,4,
72,280,60967,1,4,
232,280,61440,5,0,
312,280,61676,1,0,
352,280,61794,1,0,
432,280,62030,1,2,
432,200,62266,1,2,
432,120,62503,5,4,
392,120,62621,1,4,
64,96,63566,5,0,
64,176,63802,1,0,
144,176,64038,1,0,
144,96,64275,1,2,
304,128,64747,1,2,
80,216,65456,6,2,L|80:216|160:264,1,90
240,272,65928,1,0,
320,272,66164,5,0,
320,272,66283,1,2,
400,280,66519,5,0,
400,280,66637,1,2,
400,160,66991,2,0,L|400:160|400:56|352:56,1,135
288,56,67582,1,0,
128,56,68054,5,2,
128,136,68291,2,0,L|128:136|128:248,1,90
120,344,68881,1,4,
240,344,69236,1,0,
320,344,69472,1,2,
416,216,69944,1,2,
416,136,70181,5,0,
416,136,70299,1,0,
416,136,70417,1,4,
336,136,70653,5,0,
336,136,70771,1,0,
336,136,70889,1,4,
336,216,71125,5,0,
336,216,71244,1,0,
336,216,71362,1,4,
336,216,71480,5,0,
336,216,71598,1,0,
336,216,71716,1,4,
336,256,71834,2,2,L|336:256|248:288|144:288,3,180
168,208,73488,5,0,
168,128,73724,1,0,
88,128,73960,5,0,
88,168,74078,1,0,
88,208,74197,1,4,
88,288,74433,5,0,
128,288,74551,1,0,
168,288,74669,1,4,
248,288,74905,5,0,
280,264,75023,1,0,
304,232,75142,1,4,
304,152,75378,1,2,
256,192,75614,12,6,77504
152,48,78213,2,0,L|152:48|192:56,1,45
232,64,78449,1,2,
296,112,78685,2,4,L|296:112|344:152,5,45
336,176,79394,2,2,L|336:176|360:296|304:352,3,180
240,336,81048,5,0,
160,336,81284,1,0,
80,336,81520,5,0,
40,336,81638,1,0,
40,296,81756,2,2,L|40:296|44:225|48:200,1,90
56,168,82111,5,0,
64,128,82229,2,2,L|64:128|104:112|152:128,1,90
192,128,82583,5,0,
232,128,82701,1,0,
312,128,82937,1,2,
256,192,83174,12,6,85064
144,136,99947,5,2,
160,168,100065,1,2,
176,200,100183,1,6,
344,96,101364,5,0,
344,176,101600,1,0,
424,176,101837,1,0,
392,248,102073,1,2,
152,240,102781,5,0,
176,208,102900,1,0,
184,248,103018,1,4,
344,256,103490,5,2,
336,96,103963,1,2,
176,88,104435,1,0,
88,168,104790,1,2,
88,288,105144,5,0,
168,288,105380,1,0,
248,288,105616,1,0,
328,288,105853,1,2,
424,160,106325,1,2,
200,56,107034,5,2,
136,104,107270,1,2,
88,168,107506,1,2,
88,248,107743,5,0,
88,288,107861,1,2,
168,304,108097,5,0,
208,288,108215,1,2,
320,240,108569,5,4,
424,176,108924,1,0,
408,96,109160,1,2,
344,48,109396,1,2,
264,40,109632,5,0,
224,40,109751,1,2,
144,64,109987,5,0,
112,88,110105,1,2,
64,224,111050,5,0,
224,232,111522,1,0,
152,88,112704,5,0,
232,88,112940,1,2,
176,144,113176,1,0,
256,144,113412,1,2,
400,72,113885,1,4,
408,328,114593,5,0,
248,328,115066,1,0,
168,328,115302,1,2,
16,256,116483,5,0,
16,176,116720,1,0,
16,96,116956,1,2,
16,16,117192,1,2,
416,16,118373,1,4,
416,96,118610,5,0,
416,136,118728,1,2,
416,176,118846,1,0,
416,216,118964,1,2,
416,296,119200,5,6,
296,296,119554,1,0,
216,296,119791,1,0,
136,296,120027,1,2,
16,296,120381,1,2,
24,96,120972,1,4,
424,96,122153,5,0,
376,160,122389,1,0,
328,224,122626,1,0,
280,288,122862,1,2,
48,104,124043,5,2,
88,176,124279,5,0,
112,208,124397,1,0,
136,240,124515,1,0,
160,272,124634,1,4,
240,272,124870,5,4,
320,272,125106,5,0,
360,272,125224,1,2,
408,208,125460,5,4,
432,128,125697,1,2,
368,72,125933,5,0,
328,72,126051,1,2,
248,72,126287,5,0,
208,72,126405,1,2,
176,144,126642,5,0,
176,184,126760,1,0,
176,224,126878,1,6,
176,264,126996,1,0,
144,288,127114,1,2,
104,288,127232,5,0,
80,256,127350,1,2,
80,216,127468,1,0,
80,176,127587,1,2,
80,136,127705,2,6,L|80:136|80:80,7,45
240,96,129004,5,2,
400,96,129477,2,0,L|400:96|400:208,1,90
400,224,129831,2,2,L|400:224|400:280|352:304,1,90
288,296,130303,1,4,
88,296,130894,5,2,
88,136,131366,1,4,
168,136,131603,1,0,
168,136,131721,1,0,
248,136,131957,2,2,L|248:136|352:136,2,90
248,136,132548,1,2,
256,192,133729,5,0,
256,192,133965,1,0,
256,192,134201,12,2,136091
48,72,136564,2,2,L|48:72|160:72|200:128,1,180
280,128,137272,1,0,
280,128,137391,2,2,L|280:128|280:232,2,90
408,280,138454,5,4,
248,272,138926,2,2,L|248:272|144:272,1,90
158,272,139280,1,0,
160,192,139517,2,0,L|160:192|168:176|248:152,1,90
320,152,139989,1,2,
320,152,140107,1,0,
80,112,141052,6,2,L|80:112|104:216,3,90
256,224,142233,2,4,L|256:224|416:128|360:64|320:64,1,270
280,64,143178,2,2,L|280:64|168:64,2,90
280,64,143769,1,2,
360,64,144005,1,0,
360,64,144123,1,2,
96,192,154990,5,0,
176,192,155227,1,2,
256,192,155463,1,4,
256,32,155935,5,0,
256,112,156159,5,4,
256,112,156218,5,4,
256,112,156290,5,0,
256,152,156408,5,0,
72,192,157353,5,6,
256,192,157825,12,2,158298
416,200,158770,1,4,
256,200,159243,1,2,
256,192,159715,12,2,160188
256,32,160660,1,4,
256,192,161133,1,2,
256,192,161605,12,0,162078
472,64,162550,2,6,L|472:64|472:336|96:336|104:72|416:72|416:288|144:288|152:104|384:104|376:264|184:264|192:128|328:128|328:224|288:224,1,2880
136,224,170582,5,6,
256,192,171055,12,2,171527
96,192,172000,1,4,
96,32,172472,1,2,
256,192,172945,12,2,173417
384,88,173889,1,4,
264,192,174362,1,2,
256,192,174834,12,2,175307
264,192,175779,1,6,
256,192,176252,12,2,177669
112,120,178142,1,2,
112,120,178614,1,0,
192,120,178850,1,0,
192,120,178969,1,2,
272,120,179205,1,0,
272,120,179441,1,6,
264,320,180032,5,4,
264,320,180504,1,2,
184,320,180740,2,2,L|184:320|152:320,1,45
56,328,181095,1,0,
56,328,181331,1,2,
256,192,181567,12,4,182394
96,192,182867,6,2,L|96:192|208:192,2,90
96,192,183457,1,4,
96,192,183575,1,4,
96,192,183693,1,4,
360,56,185701,6,2,L|360:56|304:144|360:232,1,180
376,280,186410,2,0,L|376:280|344:296,1,45
256,304,186764,2,2,L|256:304|256:200,1,90
256,88,187355,5,2,
176,88,187591,2,0,L|176:88|80:88|128:176,1,180
120,240,188300,1,2,
120,280,188418,1,2,
120,360,188654,2,2,L|120:360|248:360,1,90
256,192,189127,12,6,189717
384,96,190190,1,0,
304,96,190426,1,2,
304,176,190662,1,2,
384,176,190899,1,4,
256,192,191371,12,6,193261
256,184,193615,1,0,
256,184,193970,1,0,
256,184,194206,1,2,
256,192,194678,12,0,195151
256,192,195742,2,4,L|256:192|256:168,7,45
48,192,211806,5,2,
128,192,212042,1,0,
128,192,212160,1,4,
208,192,212396,1,2,
288,192,212633,1,2,
368,192,212869,1,0,
368,192,212987,1,4,
448,192,213223,1,0,
448,192,213341,1,6,
