osu file format v6

[General]
AudioFilename: 03_-_boss_select.mp3
AudioLeadIn: 1004
PreviewTime: -1
Countdown: 0
SampleSet: None
StackLeniency: 0.7
Mode: 0
LetterboxInBreaks: 1

[Editor]
DistanceSpacing: 0.800000011920929
BeatDivisor: 4
GridSize: 32

[Metadata]
Title:MM2 - Boss Select
Artist:Capcom
Creator:mrgoodwil
Version:Normal
Source:Megaman 2 MP3
Tags:

[Difficulty]
HPDrainRate:1
CircleSize:4
OverallDifficulty:1
SliderMultiplier:1.4
SliderTickRate:1

[Events]
//Background and Video events
0,0,"mega-man-2boss-468x.jpg"
//Break Periods
2,39090,42451
//Storyboard Layer 0 (Background)
//Storyboard Layer 1 (Fail)
//Storyboard Layer 2 (Pass)
//Storyboard Layer 3 (Foreground)
//Storyboard Sound Samples
//Background Colour Transformations
3,100,236,0,0

[TimingPoints]
1374,332.740000000003,4,0,0,100,1,0

[Colours]
Combo1 : 0,26,255
Combo2 : 134,241,253
Combo3 : 5,5,240
Combo4 : 103,226,252

[HitObjects]
192,128,1290,1,0
224,96,1457,1,0
256,128,1623,1,0
288,128,1706,1,0
352,160,1873,1,0
288,128,2039,1,0
320,192,2205,1,0
256,64,2621,1,0
384,224,3204,1,0
224,224,3703,1,0
256,224,3869,1,0
288,192,4035,1,0
320,192,4119,1,0
352,224,4285,1,0
320,256,4451,1,0
288,224,4618,1,0
288,224,4784,1,0
320,192,4950,1,0
352,320,5283,1,0
160,256,5865,1,0
288,192,6365,1,0
352,160,6531,1,0
416,192,6697,1,0
448,256,6864,1,0
448,320,7030,1,0
416,352,7196,1,0
352,352,7363,1,0
288,352,7529,1,0
224,352,7696,1,0
128,320,7945,1,0
96,128,8527,1,0
64,32,9027,1,0
160,32,9359,1,0
224,32,9526,1,0
256,32,9692,1,0
288,32,9858,1,0
320,32,10025,1,0
352,32,10191,1,0
416,160,10607,1,0
416,352,11189,1,0
256,352,11688,1,0
128,288,12104,1,0
96,192,12437,1,0
96,32,12936,1,0
224,32,13352,1,0
384,32,13851,1,0
416,192,14350,1,0
416,320,14766,1,0
416,352,14933,1,0
352,352,15099,1,0
320,352,15265,1,0
256,352,15432,1,0
192,352,15598,1,0
64,288,16014,1,0
160,128,16513,1,0
288,64,17012,1,0
384,96,17345,1,0
384,128,17511,1,0
384,160,17678,1,0
416,192,17844,1,0
416,256,18011,1,0
416,192,18177,1,0
320,320,18593,1,0
128,288,19175,1,0
128,128,19674,1,0
96,224,19924,1,0
96,160,20090,1,0
128,96,20256,1,0
192,64,20423,1,0
256,96,20672,1,0
320,96,20839,1,0
352,64,21005,1,0
416,160,21338,1,0
416,320,21837,1,0
256,288,22336,1,0
160,288,22586,1,0
96,256,22752,1,0
64,224,22918,1,0
64,160,23085,1,0
128,128,23251,1,0
224,128,23501,1,0
224,160,23667,1,0
256,192,23833,1,0
320,192,24000,1,0
448,288,24499,1,0
288,320,24998,1,0
192,288,25248,1,0
192,256,25414,1,0
224,192,25580,1,0
256,192,25747,1,0
320,224,25913,1,0
256,256,26079,1,0
256,256,26246,1,0
128,256,26579,1,0
288,160,27161,1,0
416,256,27660,1,0
384,320,27910,1,0
320,320,28159,1,0
288,320,28242,1,0
224,288,28409,1,0
160,256,28658,1,0
128,224,28741,1,0
96,160,28908,1,0
128,128,29074,1,0
224,128,29324,1,0
384,160,29823,1,0
224,160,30322,1,0
320,160,30571,1,0
256,160,30738,1,0
224,160,30904,1,0
256,160,31071,1,0
256,160,31237,1,0
256,160,31486,1,0
256,192,31570,1,0
352,288,31986,1,0
192,352,32485,1,0
32,288,32984,1,0
96,224,33317,1,0
128,192,33400,1,0
128,128,33649,1,0
128,96,33732,1,0
192,96,33899,1,0
224,96,34065,1,0
288,96,34232,1,0
416,128,34648,1,0
256,96,35147,1,0
416,128,35646,1,0
352,128,35812,1,0
352,128,35978,1,0
352,128,36145,1,0
352,128,36311,1,0
352,128,36478,1,0
352,128,36644,1,0
352,128,36810,1,0
256,256,37309,1,0
416,320,37809,1,0
256,320,38224,1,0
160,256,38557,1,0
128,192,38724,1,0
160,128,38890,1,0
64,192,44131,6,0,B|448:192,2,420
