osu file format v5

[General]
AudioFilename: Mega_Man_2_-_1-30_HEATMAN_STAGE.mp3
AudioLeadIn: 3000
PreviewTime: -1
Countdown: 1
SampleSet: Normal
StackLeniency: 1
Mode: 0
LetterboxInBreaks: 1

[Metadata]
Title:Heatman Stage
Artist:Capcom
Creator:Ekaru
Version:Normal
Source:Megaman 2
Tags:Videogames Megaman NES

[Difficulty]
HPDrainRate:5
CircleSize:4
OverallDifficulty:5
SliderMultiplier:1.4
SliderTickRate:2

[Events]
//Background and Video events
0,0,"mm2heatmancx5.jpg"
//Break Periods
2,25731,35812
//Storyboard Layer 0 (Background)
//Storyboard Layer 1 (Failing)
//Storyboard Layer 2 (Passing)
//Storyboard Layer 3 (Foreground)
//Storyboard Sound Samples
//Background Colour Transformations
3,100,163,162,255

[TimingPoints]
274,399.334442595674,4,1,0,90,1

[Colours]
Combo1 : 255,128,0
Combo2 : 255,0,0
Combo3 : 255,255,0

[HitObjects]
40,104,274,1,0
168,104,673,1,0
296,104,1072,1,0
296,232,1472,1,0
168,232,1871,1,0
40,232,2270,1,0
128,328,2670,1,0
256,328,3069,1,0
384,328,3468,1,0
416,200,3868,6,0,B|336:232,1,70
351,225,4267,2,0,B|272:208,1,70
282,210,4666,2,0,B|200:200,1,70
212,201,5066,2,0,B|232:120,1,70
228,133,5465,2,0,B|184:56,1,70
136,56,5864,6,0,B|88:72|64:88|40:160,4,140
264,48,7861,6,0,B|264:224,4,140
256,192,9858,12,0,11255
256,32,11455,5,4
256,160,11854,1,4
256,288,12254,2,4,B|288:320|360:288|352:248,1,105
368,208,12753,1,0
464,208,13052,6,0,B|464:280|416:328|336:344|232:328|232:320,1,280
120,288,14250,2,0,B|64:216|80:120|160:80|248:72|328:128,1,385
328,216,15648,1,0
328,216,15848,1,0
424,216,16147,1,0
256,192,16347,12,0,19042
408,64,19442,6,0,B|456:96|456:200|416:272|352:304,1,280
224,312,20640,2,0,B|288:216|304:128|200:64|56:216,1,385
136,264,22037,1,0
136,264,22237,1,0
136,168,22536,1,0
256,192,23036,12,4,24234
288,312,24633,5,4
192,312,24932,2,4,B|120:312|129:252|142:210|192:216,1,140
232,216,25531,1,0
392,104,37012,5,4
312,208,37412,1,4
184,176,37811,2,4,B|88:192|88:240,1,105
96,288,38310,1,0
184,320,38610,6,2,B|240:280|264:216|256:152|264:72|312:80,1,280
432,40,39808,2,2,B|488:136|472:272|408:312|344:328|288:296,1,385
216,240,41205,1,8
160,272,41405,1,8
80,216,41704,1,8
256,192,42204,12,0,44600
160,248,44999,6,0,B|208:296|336:320|408:224,1,245
456,192,45997,5,0
440,136,46197,2,0,B|400:56|304:64|216:152|200:240|304:296,1,385
200,304,47595,1,0
136,304,47794,1,0
168,216,48094,1,8
256,192,48393,12,0,49392
456,160,49791,5,4
456,288,50190,1,4
328,288,50590,2,4,B|240:304|240:232,1,105
240,184,51089,1,0
