osu file format v5

[General]
AudioFilename: Mega_Man_2_-_1-30_HEATMAN_STAGE.mp3
AudioLeadIn: 3000
PreviewTime: -1
Countdown: 1
SampleSet: Normal
StackLeniency: 1
Mode: 0
LetterboxInBreaks: 1

[Metadata]
Title:Heatman Stage
Artist:Capcom
Creator:Ekaru
Version:Hard
Source:Megaman 2
Tags:Videogames Megaman NES

[Difficulty]
HPDrainRate:4
CircleSize:4
OverallDifficulty:5
SliderMultiplier:1.6
SliderTickRate:2

[Events]
//Background and Video events
0,0,"mm2heatmancx5.jpg"
//Break Periods
2,25831,35812
//Storyboard Layer 0 (Background)
//Storyboard Layer 1 (Failing)
//Storyboard Layer 2 (Passing)
//Storyboard Layer 3 (Foreground)
//Storyboard Sound Samples
//Background Colour Transformations
3,100,163,162,255

[TimingPoints]
274,399.334442595674,4,1,0,90,1

[Colours]
Combo1 : 255,128,0
Combo2 : 255,0,0
Combo3 : 255,255,0

[HitObjects]
256,40,274,5,0
256,112,473,1,0
256,184,673,1,0
256,184,773,1,0
256,288,1072,5,0
184,288,1272,1,0
112,288,1472,1,0
112,288,1571,1,0
112,176,1871,5,0
112,104,2071,1,0
184,104,2270,1,0
184,104,2370,1,0
272,40,2670,1,0
320,88,2869,1,0
320,160,3069,1,0
320,160,3169,1,0
416,208,3468,5,0
384,272,3668,1,0
312,288,3868,1,0
312,288,3967,1,0
408,336,4267,1,0
464,296,4467,1,0
480,224,4666,1,0
480,224,4766,1,0
432,128,5066,5,0
360,128,5265,1,0
288,128,5465,1,0
288,128,5565,1,0
288,232,5864,1,0
216,232,6064,1,0
144,232,6264,1,0
144,232,6363,1,0
144,336,6663,5,0
216,336,6863,1,0
288,336,7062,1,0
360,336,7262,1,0
400,272,7462,1,0
384,200,7661,1,0
320,240,7861,1,0
248,256,8061,1,0
176,248,8260,5,0
144,184,8460,1,0
72,208,8660,1,0
72,280,8859,1,0
120,328,9059,1,0
192,328,9259,1,0
264,328,9458,1,0
264,256,9658,1,0
256,192,9858,12,0,11056
256,56,11455,5,8
256,56,11555,1,8
256,128,11754,1,8
256,128,11854,1,8
256,128,11954,1,8
256,200,12154,1,8
256,200,12254,1,8
256,200,12353,1,8
256,200,12453,1,8
256,200,12553,1,8
256,272,12753,1,0
256,272,12853,1,0
328,272,13052,6,0,B|424:264|464:192|440:104|400:40|304:96,1,320
256,88,14051,1,0
184,88,14250,1,0
184,88,14550,2,0,B|112:112|96:160|128:232|176:272|184:312|64:344,1,320
84,337,15448,1,0
48,272,15648,5,0
48,200,15848,1,0
48,200,15947,1,0
48,128,16147,1,0
104,80,16347,6,0,B|160:56,3,40
200,104,16846,1,0
200,176,17046,1,0
200,176,17145,1,0
272,176,17345,1,0
304,112,17545,2,0,B|344:56|384:56|408:88,1,120
392,152,18044,1,0
392,152,18244,1,0
392,264,18543,1,0
256,192,18743,12,0,20240
256,352,20939,6,0,B|256:16,1,320
256,32,21838,1,0
328,32,22037,5,0
376,88,22237,1,0
376,88,22337,1,0
376,160,22536,1,0
432,208,22736,2,0,B|496:216,3,40
432,272,23235,1,0
384,328,23435,1,0
384,328,23535,1,0
312,328,23734,1,0
128,328,24234,5,8
128,328,24333,1,8
128,256,24533,1,8
128,256,24633,1,8
128,256,24733,1,8
128,184,24932,1,8
128,184,25032,1,8
128,184,25132,1,8
128,184,25232,1,8
128,184,25332,1,8
128,112,25531,1,0
128,112,25631,1,0
328,128,37012,5,8
328,128,37112,1,8
272,176,37312,1,8
272,176,37412,1,8
272,176,37511,1,8
216,224,37711,1,8
216,224,37811,1,8
216,224,37911,1,8
216,224,38011,1,8
216,224,38110,1,8
160,272,38310,1,0
160,272,38410,1,0
152,200,38610,6,0,B|96:208|72:256|80:320|120:352|200:344|280:312,1,320
344,312,39608,1,0
416,312,39808,1,0
416,312,40107,2,0,B|464:232|448:152|344:112|256:96|256:72,1,320
266,85,41006,1,0
192,88,41205,1,0
192,160,41405,1,0
192,160,41505,1,0
192,232,41704,1,0
256,192,41904,12,0,44600
64,304,44999,6,0,B|152:248|104:168|56:64|176:32,1,320
208,96,45997,1,0
280,96,46197,1,0
280,96,46496,2,0,B|352:96|400:200|240:280|352:336|448:288,1,320
428,296,47395,1,0
432,224,47595,1,0
432,152,47794,1,0
432,152,47894,1,0
432,80,48094,1,0
360,56,48293,6,0,B|296:40|248:56|272:112,1,120
320,144,48793,1,0
336,216,48992,1,0
336,216,49092,1,0
280,264,49292,1,0
144,152,49791,5,8
144,152,49891,1,8
144,224,50090,1,8
144,224,50190,1,8
144,224,50290,1,8
144,296,50490,1,8
144,296,50590,1,8
144,296,50689,1,8
144,296,50789,1,8
144,296,50889,1,8
216,296,51089,1,0
216,296,51189,1,0
