osu file format v6

[General]
AudioFilename: 04_-_elec_man.mp3
AudioLeadIn: 0
PreviewTime: -1
Countdown: 1
SampleSet: Normal
StackLeniency: 0.7
Mode: 0
LetterboxInBreaks: 1

[Editor]
DistanceSpacing: 0.800000011920929
BeatDivisor: 2
GridSize: 32

[Metadata]
Title:Elec Man
Artist:Capcom
Creator:vunkster
Version:Normal
Source:Megaman
Tags:megaman elec man hard stage electricity

[Difficulty]
HPDrainRate:4
CircleSize:4
OverallDifficulty:5
SliderMultiplier:1.2
SliderTickRate:2

[Events]
//Background and Video events
0,0,"350.jpg"
//Break Periods
//Storyboard Layer 0 (Background)
//Storyboard Layer 1 (Fail)
//Storyboard Layer 2 (Pass)
//Storyboard Layer 3 (Foreground)
//Storyboard Sound Samples
//Background Colour Transformations
3,100,163,162,255

[TimingPoints]
-37.679794137391,182.926829268293,4,1,0,100,1,0

[Colours]
Combo1 : 244,251,4
Combo2 : 5,240,5
Combo3 : 3,252,171
Combo4 : 240,5,5

[HitObjects]
85,96,2797,1,0
164,97,2980,1,0
241,96,3163,1,0
320,96,3346,1,0
416,96,3620,2,8,B|384:192|384:256|160:320|44:308,3,420
74,192,6090,5,0
128,160,6273,1,0
64,128,6456,1,0
57,39,6822,2,8,B|278:164|311:192|329:234|455:289,3,420
467,214,9292,5,0
512,160,9474,1,0
416,160,9657,1,0
428,44,10023,2,8,B|314:132|218:134|144:181|55:268|38:252|9:274,3,420
479,311,12492,6,2,B|142:314,1,300
109,257,13315,5,0
106,185,13498,1,0
100,113,13681,1,0
99,47,13864,1,0
174,46,14047,1,0
241,54,14230,1,0
372,59,14505,2,0,B|449:150|431:254|308:334|189:345,1,420
92,323,15419,1,0
92,323,15602,1,0
90,250,15785,1,0
431,104,16425,6,8,B|455:209|455:265|121:280,3,420
50,192,18895,5,0
96,128,19078,1,0
32,128,19261,1,0
57,39,19627,2,8,B|292:188|338:171|329:234|464:282,3,420
467,214,22097,5,0
480,160,22279,1,0
480,96,22462,1,0
459,46,22828,2,8,B|339:142|249:136|217:211|99:265|105:284|75:303,3,420
479,311,25297,6,2,B|142:314,1,300
109,257,26120,5,0
106,185,26303,1,0
100,113,26486,1,0
99,47,26669,1,0
174,46,26852,1,0
241,54,27035,1,0
321,57,27401,2,0,B|394:144|390:265|363:272|364:274,1,180
439,52,28773,5,0
360,52,28956,1,0
283,56,29139,1,0
206,54,29322,1,0
134,50,29505,1,0
64,53,29687,1,0
64,128,29870,1,0
64,192,30053,1,0
64,256,30236,1,0
64,320,30419,1,0
128,320,30602,1,0
192,320,30785,1,0
256,320,30968,1,0
320,320,31151,1,0
384,320,31334,1,0
448,320,31517,1,0
448,256,31700,1,0
448,192,31883,1,0
448,128,32065,1,0
448,64,32248,1,0
384,64,32431,1,0
320,64,32614,1,0
256,64,32797,1,0
192,64,32980,1,0
128,64,33163,1,0
64,64,33346,1,0
0,64,33529,1,0
0,128,33712,1,0
0,192,33895,1,0
0,256,34078,1,0
0,320,34261,1,8
64,320,34444,1,8
128,320,34626,1,8
192,320,34809,1,8
256,320,34992,1,8
320,320,35815,5,0
384,320,35998,1,0
448,320,36181,1,0
448,256,36547,2,2,B|143:74,1,300
256,192,37370,12,0,38559
128,128,40023,5,0
128,128,40114,1,0
192,128,40206,1,0
192,128,40297,1,0
256,128,40480,1,0
256,128,40572,1,0
320,128,40755,1,0
320,128,40846,1,4
