osu file format v6

[General]
AudioFilename: 04_-_elec_man.mp3
AudioLeadIn: 0
PreviewTime: -1
Countdown: 1
SampleSet: Normal
StackLeniency: 0.7
Mode: 0
LetterboxInBreaks: 1

[Editor]
DistanceSpacing: 0.800000011920929
BeatDivisor: 4
GridSize: 32

[Metadata]
Title:Elec Man
Artist:Capcom
Creator:vunkster
Version:Easy
Source:Megaman
Tags:megaman elec man hard stage electricity

[Difficulty]
HPDrainRate:4
CircleSize:4
OverallDifficulty:5
SliderMultiplier:1.4
SliderTickRate:2

[Events]
//Background and Video events
0,0,"350.jpg"
//Break Periods
//Storyboard Layer 0 (Background)
//Storyboard Layer 1 (Fail)
//Storyboard Layer 2 (Pass)
//Storyboard Layer 3 (Foreground)
//Storyboard Sound Samples
//Background Colour Transformations
3,100,163,162,255

[TimingPoints]
251.769230769231,384.615384615385,4,1,0,100,1,0

[Colours]
Combo1 : 244,251,4
Combo2 : 5,240,5
Combo3 : 3,252,171
Combo4 : 240,5,5

[HitObjects]
32,64,2944,2,0,C|224:64,1,140
256,64,3713,2,8,C|352:64|416:160,3,210
288,160,6021,6,0,C|160:160,1,70
128,160,6405,1,0
128,64,6790,2,8,C|320:64,1,186.666666666667
384,64,7431,2,8,C|384:256,1,186.666666666667
288,256,8072,2,8,C|32:256,1,233.333333333333
64,160,9226,1,0
128,160,9354,2,0,C|192:160,2,46.6666666666667
320,32,9995,6,8,C|320:288,2,233.333333333333
256,32,11405,2,0,C|32:32,1,186.666666666667
64,96,12046,2,0,C|64:256,2,140
160,96,13200,5,0
224,96,13585,1,0
288,96,13969,1,0
416,96,14482,6,0,C|416:256,1,140
320,256,14995,2,0,C|160:256,1,140
96,256,15508,1,2
96,256,15636,1,0
96,256,15764,1,0
256,64,16405,6,8,C|352:64|416:160,3,210
288,160,18713,6,0,C|160:160,1,70
128,160,19097,1,0
128,64,19482,2,8,C|320:64,1,186.666666666667
384,64,20123,2,8,C|384:256,1,186.666666666667
288,256,20764,2,8,C|32:256,1,233.333333333333
64,160,21918,1,0
128,160,22046,2,0,C|192:160,2,46.6666666666667
320,32,22687,6,8,C|320:288,2,233.333333333333
256,32,24097,2,8,C|32:32,1,186.666666666667
64,96,24738,2,10,C|64:256,2,140
160,96,26021,5,0
224,96,26406,1,0
288,96,26790,1,0
416,96,27303,6,2,C|416:224,1,93.3333333333333
416,320,28841,6,0,C|320:320,1,93.3333333333333
256,320,29354,2,0,C|160:320,1,93.3333333333333
64,320,29867,2,0,C|64:224,1,93.3333333333333
64,160,30379,2,0,C|64:64,1,93.3333333333333
160,64,30892,2,0,C|256:64,1,93.3333333333333
352,64,31405,2,0,C|448:64,1,93.3333333333333
448,128,31918,2,0,C|448:256,1,93.3333333333333
448,288,32431,2,0,C|352:288,1,93.3333333333333
288,288,32944,2,0,C|160:288,1,93.3333333333333
128,288,33456,2,0,C|32:288,1,93.3333333333333
32,224,33969,2,0,C|32:96,1,93.3333333333333
32,64,34482,2,0,C|160:64,1,93.3333333333333
192,64,34995,2,0,C|288:64,1,93.3333333333333
256,192,35508,12,0,36918
64,64,37431,6,0,C|256:64,1,186.666666666667
384,32,38424,2,0,C|384:256,1,210
289,240,39578,1,10
256,192,39867,12,4,41117
