osu file format v5

[General]
AudioFilename: Bubble_Man.mp3
AudioLeadIn: 1996
PreviewTime: 21331
Countdown: 0
SampleSet: Soft
StackLeniency: 1
Mode: 0
LetterboxInBreaks: 1

[Metadata]
Title:Bubble Man
Artist:Capcom
Creator:Zerostarry
Version:Normal
Source:Megaman II
Tags:

[Difficulty]
HPDrainRate:3
CircleSize:5
OverallDifficulty:4
SliderMultiplier:1.4
SliderTickRate:2

[Events]
//Background and Video events
0,0,"bubbleman wallpaper.JPG"
//Break Periods
2,5227,8618
2,42992,52540
//Storyboard Layer 0 (Background)
//Storyboard Layer 1 (Failing)
//Storyboard Layer 2 (Passing)
//Storyboard Layer 3 (Foreground)
//Storyboard Sound Samples
//Background Colour Transformations
3,100,163,162,255

[TimingPoints]
202,665.483584738243,4,2,0,100,1,0

[Colours]
Combo1 : 0,255,255
Combo2 : 0,128,255
Combo3 : 0,128,192

[HitObjects]
48,64,202,2,0,C|120:64,1,70
184,64,867,1,0
256,64,1200,1,0
256,64,1366,2,0,B|464:40|416:240,1,280
424,248,2863,1,0
352,248,3196,1,0
280,248,3529,1,0
208,248,3862,1,0
136,248,4194,1,4
136,104,4860,1,4
184,64,9518,5,4
320,64,10184,1,4
368,192,10849,6,0,B|368:272|248:264,1,140
200,264,11847,1,8
128,264,12180,6,0,B|32:264|56:168,1,140
56,104,13178,1,8
56,32,13511,2,0,B|144:32|152:128,1,140
168,184,14509,1,8
208,240,14842,6,0,B|288:240|296:136,1,140
296,80,15840,1,8
368,80,16173,2,0,B|456:80|448:184,1,140
448,240,17171,1,8
448,312,17504,2,0,B|296:312,1,140
256,264,18502,1,8
200,312,18835,2,0,B|56:312,1,140
256,192,19833,12,0,21497
152,96,22162,6,0,B|192:96,1,35
256,96,22662,1,0
328,96,22994,1,0
400,96,23327,1,0
472,96,23660,2,0,B|472:144,1,35
472,200,24159,6,0,B|480:272|384:280,1,105,0|4
344,280,24991,1,4
272,280,25324,1,4
128,280,25989,6,2,B|40:280|32:152,1,175
152,88,27486,1,0
152,88,27653,1,0
152,88,27819,2,0,B|192:88,1,35
296,88,28318,1,2
368,88,28651,1,2
368,192,29150,5,0
368,192,29316,2,2,B|368:336|272:336,1,175
256,336,30315,1,2
224,336,30481,1,2
192,336,30647,1,2
256,192,30814,12,4,32145
72,80,32644,5,0
72,80,32810,1,0
176,80,33309,1,0
248,80,33642,1,0
248,80,33808,1,0
352,80,34308,5,0
384,80,34474,1,0
416,80,34640,1,0
448,80,34807,2,2,B|448:240,1,140
448,256,35639,1,0
448,288,35805,2,2,B|304:288,1,140
272,288,36637,1,2
200,288,36969,1,2
96,288,37469,6,0,B|96:216,1,70
24,216,38134,2,0,B|24:144,1,70
24,112,38633,1,0
24,40,38966,1,2
24,40,39132,1,2
256,192,39465,12,4,42792
360,288,54106,6,0,B|320:288,1,35
256,288,54606,1,0
184,288,54938,1,0
112,288,55271,1,0
40,288,55604,2,0,B|40:240,1,35
40,184,56103,6,0,B|32:112|128:104,1,105,0|4
168,104,56935,1,4
240,104,57268,1,4
384,104,57933,6,0,B|472:104|480:232,1,175
360,296,59430,1,0
360,296,59597,1,0
360,296,59763,2,0,B|320:296,1,35
216,296,60262,1,0
144,296,60595,1,0
144,192,61094,5,0
144,192,61260,2,0,B|144:48|240:48,1,175
256,48,62259,1,0
288,48,62425,1,0
320,48,62591,1,0
256,192,62758,12,0,64089
440,304,64588,5,0
440,304,64754,1,0
336,304,65253,1,0
264,304,65586,1,0
264,304,65752,1,0
160,304,66252,5,0
128,304,66418,1,0
96,304,66584,1,0
64,304,66751,2,2,B|64:144,1,140
64,128,67583,1,0
64,96,67749,2,2,B|208:96,1,140
240,96,68581,1,2
312,96,68913,1,2
416,96,69413,6,0,B|416:168,1,70
488,168,70078,2,0,B|488:240,1,70
488,272,70577,1,0
488,344,70910,1,2
488,344,71076,1,2
256,192,71409,12,4,74736
