osu file format v5

[General]
AudioFilename: Bubble_Man.mp3
AudioLeadIn: 1996
PreviewTime: 21331
Countdown: 0
SampleSet: Soft
StackLeniency: 1
Mode: 0
LetterboxInBreaks: 1

[Metadata]
Title:Bubble Man
Artist:Capcom
Creator:Zerostarry
Version:Intense
Source:Megaman II
Tags:

[Difficulty]
HPDrainRate:6
CircleSize:5
OverallDifficulty:7
SliderMultiplier:1.3
SliderTickRate:2

[Events]
//Background and Video events
0,0,"bubbleman wallpaper.JPG"
//Break Periods
//Storyboard Layer 0 (Background)
//Storyboard Layer 1 (Failing)
//Storyboard Layer 2 (Passing)
//Storyboard Layer 3 (Foreground)
//Storyboard Sound Samples
//Background Colour Transformations
3,100,163,162,255

[TimingPoints]
202,332.741792369122,4,2,0,100,1,0

[Colours]
Combo1 : 0,255,255
Combo2 : 0,128,255
Combo3 : 0,128,192

[HitObjects]
80,240,202,2,0,B|136:312|208:224,1,130
256,240,701,1,0
320,240,867,2,0,B|376:312|448:224,1,130
432,176,1366,2,0,B|256:24|64:192,1,390
24,144,2531,1,0
24,144,2697,1,0
79,112,2863,2,0,B|256:-16|456:120,1,390
80,328,4194,5,6
80,328,4361,1,6
432,328,4860,5,6
432,328,5027,1,6
80,144,5525,6,0,B|136:72|208:160,1,130
256,144,6024,1,0
320,144,6190,2,0,B|376:72|448:160,1,130
432,208,6689,2,0,B|256:360|64:192,1,390
24,240,7854,1,0
24,240,8020,1,0
79,272,8186,2,0,B|256:400|456:264,1,390
432,56,9518,5,6
432,56,9685,1,6
80,56,10184,5,6
80,56,10351,1,6
64,192,10849,6,0,B|144:152|8:120|112:64,1,130,0|0
152,80,11348,2,0,B|192:120|240:32|288:96,1,130,0|0
328,112,11847,1,0
280,160,12014,1,0
328,208,12180,2,0,B|384:200|432:264|384:336|304:312,1,195,0|0
192,312,13012,5,0
144,264,13178,1,0
96,312,13345,1,0
48,264,13511,2,0,B|48:120,1,130
48,134,14010,1,0
176,136,14343,5,0
224,88,14509,1,0
272,136,14676,1,0
336,136,14842,2,0,L|336:48,2,65
336,200,15341,1,0
448,40,15674,6,0,L|448:136,1,65,0|0
448,168,16007,1,0
448,232,16173,2,0,B|432:360|296:336,1,195,0|0
184,336,17005,1,0
120,336,17171,1,0
64,304,17338,1,0
64,240,17504,2,0,B|8:176|72:120,1,130
104,72,18003,1,0
312,96,18336,5,0
296,160,18502,1,0
312,224,18669,1,0
256,256,18835,1,0
200,224,19001,1,0
216,160,19168,1,0
200,96,19334,1,0
256,192,19667,12,2,21164
48,80,21497,6,0,B|200:80,1,130
176,208,22162,1,2
176,144,22329,1,2
256,40,22662,6,2,B|256:112,1,65,2|0
304,152,22994,6,2,B|304:224,1,65,2|0
352,256,23327,6,2,B|352:336,1,65,2|0
288,320,23660,5,2
288,320,23826,1,2
160,320,24159,5,2
224,320,24325,1,2
224,224,24658,5,4
224,96,24991,5,4
328,168,25324,1,4
472,312,25989,6,0,B|272:312,1,195
144,312,26821,2,0,B|144:168,1,130
208,192,27320,1,0
272,192,27486,5,2
312,136,27653,1,2
344,192,27819,1,2
376,136,27985,1,2
376,264,28318,6,0,B|216:264,2,130
440,264,29150,1,0
440,264,29316,2,2,B|440:120|360:80|296:88,1,260
168,88,30315,5,2
136,144,30481,1,2
104,88,30647,1,2
256,192,30814,12,0,31812
40,80,32145,6,0,B|104:144,1,65
136,88,32477,1,0
136,88,32644,1,0
136,88,32810,2,0,B|192:144,1,65
184,200,33143,1,0
184,264,33309,1,0
184,328,33476,1,0
184,328,33642,1,0
248,328,33808,2,0,B|384:328,1,130
432,296,34308,5,0
480,248,34474,1,0
480,184,34640,1,0
432,136,34807,2,0,B|384:88|296:104,1,130
256,72,35306,2,0,B|184:56|96:80,1,130
88,128,35805,1,0
56,184,35971,2,0,B|8:248|72:328,1,130
104,344,36470,1,0
168,344,36637,2,0,B|304:344,1,130
392,336,37469,6,0,B|392:256,1,65
392,208,37801,1,0
392,208,37968,1,0
392,144,38134,2,0,B|392:64|296:48,1,130,0|0
248,56,38633,2,0,B|248:136|152:152,1,130
112,168,39132,1,0
256,296,39631,5,0
256,232,39798,1,0
256,168,39964,1,0
320,168,40131,2,0,B|320:304,1,130,0|0
384,296,40630,2,0,B|384:160,1,130
384,96,41129,1,0
320,96,41295,2,0,B|240:96,1,65
184,96,41628,1,2
56,96,41961,1,2
56,224,42293,1,2
184,224,42626,1,2
184,288,42792,1,4
256,288,42959,5,0
320,288,43125,1,0
320,224,43292,1,0
256,112,43624,5,0
216,56,43791,1,0
296,56,43957,1,0
360,56,44123,2,0,B|424:112|344:184,1,130
359,168,44623,1,0
256,272,44955,5,0
216,328,45122,1,0
296,328,45288,1,0
360,328,45454,2,0,B|424:272|344:200,1,130
359,216,45954,1,0
232,192,46286,5,0
192,144,46453,1,0
152,192,46619,1,0
88,192,46785,1,0
88,128,46952,1,0
24,128,47118,1,0
24,64,47284,1,0
152,64,47617,6,0,B|232:64,1,65
256,112,47950,1,0
296,64,48116,2,0,B|376:64,1,65
361,64,48449,1,0
424,64,48615,2,0,B|424:216,1,130
424,256,49115,6,0,B|344:256,1,65
360,320,49447,1,0
304,288,49614,2,0,B|225:288,1,65
176,288,49946,1,0
256,192,50279,12,0,51776
128,192,52109,5,0
256,192,52276,1,0
384,192,52442,1,0
384,192,52608,1,0
256,40,52941,5,0
256,104,53107,1,0
56,64,53440,6,0,B|48:144|136:160,1,130
256,160,54106,2,0,B|176:160,1,65
304,224,54605,2,0,B|152:224,3,130
176,288,55769,1,0
304,288,56102,1,0
368,288,56268,2,0,B|424:232|360:152,3,130
440,160,57433,5,0
440,96,57599,1,0
440,32,57766,1,0
376,32,57932,1,0
312,32,58099,1,0
312,96,58265,1,0
312,160,58431,1,0
248,160,58598,1,0
184,160,58764,2,0,B|120:104|192:16,2,130
224,232,59596,5,0
256,288,59762,1,0
288,232,59929,2,0,B|440:232,3,130
472,192,61093,1,0
472,128,61260,2,0,B|424:48|328:48|240:32|104:128,1,390
72,160,62424,1,0
256,192,62591,12,0,63755
472,304,64088,6,0,B|408:240,1,65
376,296,64420,1,0
376,296,64587,1,0
376,296,64753,2,0,B|320:240,1,65
328,184,65086,1,0
328,120,65252,1,0
328,56,65419,1,0
328,56,65585,1,0
264,56,65751,2,0,B|128:56,1,130
80,88,66251,5,0
32,136,66417,1,0
32,200,66583,1,0
80,248,66750,2,0,B|128:296|216:280,1,130
256,312,67249,2,0,B|328:328|416:304,1,130
424,256,67748,1,0
456,200,67914,2,0,B|504:136|440:56,1,130
400,40,68413,1,0
336,40,68580,2,0,B|200:40,1,130
56,160,69412,6,0,B|56:248|136:296,1,130
152,320,69911,1,0
216,320,70077,2,0,B|264:256|224:184,1,130
200,144,70576,1,0
200,144,70743,1,0
200,144,70909,1,0
200,144,71076,2,0,B|272:96|360:168,1,130
440,192,71575,5,0
472,248,71741,1,0
456,312,71908,1,0
400,336,72074,2,0,B|328:352|264:328,1,130
240,272,72573,2,0,B|184:200|232:144,1,130
288,152,73072,1,0
288,152,73238,2,0,B|352:176|424:128,1,130
416,72,73737,1,0
416,72,73904,2,0,B|352:32|264:64,1,130
256,288,74569,5,0
256,224,74736,5,4
