osu file format v5

[General]
AudioFilename: Bubble_Man.mp3
AudioLeadIn: 1996
PreviewTime: 21331
Countdown: 0
SampleSet: Soft
StackLeniency: 1
Mode: 0
LetterboxInBreaks: 1

[Metadata]
Title:Bubble Man
Artist:Capcom
Creator:Zerostarry
Version:Hard
Source:Megaman II
Tags:

[Difficulty]
HPDrainRate:5
CircleSize:5
OverallDifficulty:5
SliderMultiplier:1.3
SliderTickRate:2

[Events]
//Background and Video events
0,0,"bubbleman wallpaper.JPG"
//Break Periods
2,5227,8618
2,42992,52540
//Storyboard Layer 0 (Background)
//Storyboard Layer 1 (Failing)
//Storyboard Layer 2 (Passing)
//Storyboard Layer 3 (Foreground)
//Storyboard Sound Samples
//Background Colour Transformations
3,100,163,162,255

[TimingPoints]
202,332.741792369122,4,2,0,100,1,0

[Colours]
Combo1 : 0,255,255
Combo2 : 0,128,255
Combo3 : 0,128,192

[HitObjects]
64,72,202,2,0,B|120:128|208:64,3,130
240,48,1366,2,0,B|312:96|240:168,3,130
216,208,2531,1,2
216,336,2863,2,0,B|352:336,3,130
344,208,4194,5,4
344,208,4361,1,4
168,208,4860,5,4
168,208,5026,1,4
168,208,9518,5,4
168,208,9685,1,4
344,208,10184,5,4
344,208,10350,1,4
472,56,10849,6,2,B|336:56,1,130
280,56,11348,1,2
144,56,11681,5,0
80,56,11847,1,0
16,56,12014,1,0
48,112,12180,2,2,B|48:264,1,130
48,304,12679,1,2
176,304,13012,5,0
240,304,13178,1,0
304,304,13345,1,0
368,304,13511,2,2,B|424:248|360:176,1,130
328,136,14010,1,2
216,64,14343,5,0
152,64,14509,1,0
88,64,14676,2,0,B|48:120|96:200,2,130,0|0|2
288,320,15674,5,0
352,320,15840,1,0
416,320,16007,1,0
416,320,16173,2,2,B|416:184,1,130
416,190,16672,1,2
256,80,17005,5,0
256,80,17171,1,0
256,80,17338,1,0
256,80,17504,2,2,B|120:80,1,130
126,80,18003,1,2
256,192,18336,5,0
256,192,18502,1,0
256,192,18669,1,0
448,192,19168,1,0
448,192,19334,1,0
352,280,19667,5,0
352,280,19833,1,0
352,280,20000,1,0
160,280,20499,1,0
160,280,20665,1,0
160,152,20998,5,0
160,152,21164,1,0
160,24,21497,6,0,B|16:24,2,130
160,24,22329,1,2
288,24,22662,1,2
288,152,22994,1,2
416,152,23327,1,2
416,280,23660,1,2
416,280,23826,1,2
288,280,24159,6,0,B|208:280,1,65,0|2
88,280,24658,1,4
88,152,24991,1,4
224,152,25324,1,4
424,320,25989,5,0
424,128,26488,1,0
424,128,26821,1,0
160,128,27486,5,2
160,128,27653,1,2
160,128,27819,1,2
160,128,27985,1,2
160,256,28318,1,0
288,256,28651,1,0
288,128,29150,1,2
288,128,29316,1,2
256,312,30315,5,2
256,312,30481,1,2
256,312,30648,1,2
256,192,30814,12,0,31812
72,80,32145,5,0
200,80,32477,1,0
200,80,32644,1,0
200,80,32810,1,0
296,80,33143,1,0
296,80,33309,1,0
424,80,33642,1,0
424,80,33808,1,0
400,272,34308,5,0
400,272,34474,1,0
400,272,34640,1,0
400,272,34807,2,2,B|232:352|64:256,1,325
87,199,35805,1,2
87,199,35971,2,2,B|232:116|400:196,1,325
398,195,36969,1,2
256,56,37469,5,0
64,56,37968,1,0
64,56,38134,1,0
64,248,38633,1,0
192,248,38966,1,0
192,248,39132,1,0
384,248,39631,5,0
384,248,39798,1,0
384,248,39964,1,0
384,248,40131,2,2,B|488:136|376:8,1,260
320,16,40962,1,2
256,16,41129,1,2
191,16,41295,2,2,B|86:137|190:249,1,260
192,312,42127,1,0
192,312,42293,1,0
320,312,42626,1,4
352,360,53440,6,0,B|496:360,2,130
352,360,54272,1,2
224,360,54605,1,2
224,232,54937,1,2
96,232,55270,1,2
96,104,55603,1,2
96,104,55769,1,2
224,104,56102,6,0,B|304:104,1,65,0|2
424,104,56601,1,4
424,232,56934,1,4
288,232,57267,1,4
88,64,57932,5,0
88,256,58431,1,0
88,256,58764,1,0
352,256,59429,5,2
352,256,59596,1,2
352,256,59762,1,2
352,256,59928,1,2
352,128,60261,1,0
224,128,60594,1,0
224,256,61093,1,2
224,256,61259,1,2
256,72,62258,5,2
256,72,62424,1,2
256,72,62591,1,2
256,192,62757,12,0,63755
440,304,64088,5,0
312,304,64420,1,0
312,304,64587,1,0
312,304,64753,1,0
216,304,65086,1,0
216,304,65252,1,0
88,304,65585,1,0
88,304,65751,1,0
112,112,66251,5,0
112,112,66417,1,0
112,112,66583,1,0
112,112,66750,2,2,B|280:32|448:128,1,325
425,185,67748,1,2
425,185,67914,2,2,B|280:268|112:188,1,325
114,189,68912,1,2
256,328,69412,5,0
448,328,69911,1,0
448,328,70077,1,0
448,136,70576,1,0
320,136,70909,1,0
320,136,71075,1,0
128,136,71574,5,0
128,136,71741,1,0
128,136,71907,1,0
128,136,72074,2,2,B|24:248|136:376,1,260
192,368,72905,1,2
256,368,73072,1,2
321,368,73238,2,2,B|426:247|322:135,1,260
320,72,74070,1,0
320,72,74236,1,0
192,72,74569,1,4
