osu file format v5

[General]
AudioFilename: 05 - Ace Attorney Court Suite.mp3
AudioLeadIn: 0
AudioHash: 46b81714cac7663bf70ca9326caf6798
PreviewTime: -1
Countdown: 1
SampleSet: Soft

[Metadata]
Title:Ace Attorney - Court
Artist:Capcom
Creator:Chimney
Version:Easy

[Difficulty]
HPDrainRate:0
CircleSize:4
OverallDifficulty:5
SliderMultiplier: 1.4
SliderTickRate: 3

[Events]
//Background and Video events
0,-100000,"phoenix-wright-1.jpg"
//Break Periods
2,91680,101244
2,200866,210217
//Storyboard Layer 0 (Background)
//Storyboard Layer 1 (Failing)
//Storyboard Layer 2 (Passing)
//Storyboard Layer 3 (Foreground)
//Storyboard Sound Samples
//Background Colour Transformations
3,100,163,162,255

[TimingPoints]
6034,367.692119132247,4,2,0,100
10851,733,4,2,0,100
96336,733,4,2,0,100
212608,733,4,2,0,100

[HitObjects]
160,192,10568,1,0
256,128,10851,1,0
352,160,11584,1,0
256,256,11828,1,0
160,160,15737,1,0
288,160,16470,1,0
160,256,20624,1,0
288,160,21601,1,0
160,128,25755,1,0
288,224,26732,1,0
128,128,30886,1,0
320,160,31619,1,0
64,256,32841,2,0,C|64:256|352:96,1,326.666666666667
192,128,36017,1,0
320,128,36750,1,0
32,256,38216,2,0,C|32:256|384:96,1,373.333333333333
128,288,40904,1,0
224,160,41881,1,0
32,128,43347,6,0,C|32:128|384:320,1,373.333333333333
96,256,46035,1,0
192,192,46768,1,0
256,192,48234,12,0,51166
128,128,51899,1,0
288,128,56297,1,0
128,288,57030,1,0
256,128,60939,1,0
256,256,62161,1,0
128,128,66559,1,0
320,256,67047,1,0
192,160,71201,1,0
320,128,72178,1,0
64,64,73400,2,0,C|64:64|448:320,1,420
160,224,76332,1,0
128,96,77309,1,0
192,160,78287,1,0
192,128,81219,5,0
128,192,82196,1,0
96,96,83418,2,0,C|96:96|448:352,1,420
128,192,86350,1,0
256,128,87327,1,0
32,320,88549,2,0,C|32:320|288:160,2,280
160,160,102444,5,0
288,192,103666,1,0
224,224,104154,1,0
160,128,106598,1,0
224,96,107331,1,0
320,160,108064,1,0
224,224,108797,1,0
160,160,110263,1,0
224,96,110996,1,0
288,160,111729,1,0
224,224,112462,1,0
160,160,114172,1,0
224,128,114905,1,0
288,160,115638,1,0
224,224,116371,1,0
128,160,118081,5,0
224,128,118814,1,0
288,160,119547,1,0
160,192,121746,1,0
256,128,122479,1,0
320,160,123212,1,0
256,224,123945,1,0
160,192,125656,5,0
256,128,126389,1,0
320,160,127122,1,0
256,224,127855,1,0
192,160,129565,1,0
256,96,130054,1,0
256,160,130787,1,0
192,192,131520,1,0
64,192,133230,2,0,C|64:192|224:128,2,140
96,224,137139,2,0,C|96:224|256:160,2,140
160,256,140804,6,0,C|160:256|320:160,2,140
160,224,144714,2,0,C|160:224|320:128,2,140
96,96,148623,6,0,C|96:96|256:192,2,140
96,128,152288,6,0,C|96:128|224:192,2,140
128,160,155953,2,0,C|128:160|288:224,2,140
128,160,159862,2,0,C|128:160|288:160,2,140
128,96,163772,1,0
256,224,167681,1,0
128,160,170369,1,0
288,160,171346,1,0
224,160,175255,1,0
160,128,178920,5,0
224,224,182830,1,0
160,160,185762,1,0
288,192,186495,1,0
128,128,190404,1,0
256,160,194313,1,0
224,192,195291,1,0
160,224,196024,1,0
160,160,196757,1,0
224,160,197978,1,0
288,128,198711,1,0
192,128,199933,1,0
192,192,200666,1,0
192,128,211417,5,0
288,128,213096,1,0
128,192,214562,1,0
128,128,216273,1,0
160,256,217006,2,0,C|160:256|352:96,2,233.333333333333
64,96,220915,1,0
288,96,221892,1,0
128,256,222625,1,0
320,256,223358,1,0
160,128,224091,5,0
256,128,225557,1,0
224,192,225802,1,0
128,128,227268,1,0
256,96,228245,1,0
160,192,228978,1,0
256,256,229711,5,0
256,160,230444,1,0
128,224,231177,1,0
32,160,232399,6,0,C|32:160|320:96,2,280
128,128,237041,1,0
320,96,237774,1,0
224,224,238507,1,0
128,128,240217,1,0
288,160,241683,5,0
224,224,242661,1,0
192,160,243394,1,0
288,128,245104,1,0
256,192,245837,1,0
160,128,246570,1,0
224,96,247547,5,0
96,160,249746,1,0
256,128,251457,1,0
160,224,252923,1,0
96,256,254633,2,0,C|96:256|288:128,3,186.666666666667
128,160,259520,1,0
224,128,260253,1,0
192,224,260986,1,0
256,192,262207,5,0
128,160,264162,1,0
288,160,265872,1,0
224,256,267338,1,0
160,160,269049,1,0
256,224,270759,5,0
160,256,272225,1,0
192,128,273935,1,0
192,128,275401,1,0
192,224,277112,1,0
288,96,281510,1,2
320,96,281754,1,2
64,256,284930,2,0,C|64:256|384:128,2,326.666666666667
128,160,289817,1,0
288,128,290550,1,0
192,224,291283,1,0
160,160,292505,5,0
192,128,293238,1,0
288,128,294704,1,0
192,224,295437,1,0
192,160,296170,1,0
320,256,297880,5,0
128,256,298613,1,0
96,96,299590,6,0,C|96:96|352:256,2,280
96,128,304233,1,0
256,224,304966,1,0
128,160,305943,2,0,C|128:160|384:96,2,233.333333333333
64,128,309119,1,0
192,160,309852,1,0
160,224,310585,1,0
160,256,311807,1,0
288,224,312296,1,0
224,160,313029,1,0
160,128,313762,1,0
160,128,314739,1,0
160,128,315472,1,0
192,160,316205,1,0
96,96,316938,6,0,C|96:96|352:288,3,280
352,128,322069,2,0,C|352:128|192:224,2,140
96,96,324268,1,0
224,96,325001,1,0
192,160,325734,1,0
256,192,326223,12,0,328910
64,96,331354,2,0,C|64:96|288:224,1,233.333333333333
384,128,333064,2,0,C|384:128|192:256,1,186.666666666667
96,128,334530,2,0,C|96:128|256:256,1,186.666666666667
224,160,336240,1,4
