osu file format v7

[General]
AudioFilename: Struck by the Rain.mp3
AudioLeadIn: 1500
PreviewTime: 70782
Countdown: 0
SampleSet: Normal
StackLeniency: 0.7
Mode: 0
LetterboxInBreaks: 1

[Editor]
DistanceSpacing: 1.20000004768372
BeatDivisor: 4
GridSize: 8

[Metadata]
Title:Rainy (Struck by the Rain)
Artist:Canary Club
Creator:vytalibus
Version:Heat
Source:Rhythm Tengoku Gold
Tags:Karate Man

[Difficulty]
HPDrainRate:8
CircleSize:6
OverallDifficulty:8
SliderMultiplier:1.4
SliderTickRate:1

[Events]
//Background and Video events
Video,-1217,"bg video.avi"
0,0,"bg.PNG"
//Break Periods
//Storyboard Layer 0 (Background)
//Storyboard Layer 1 (Fail)
//Storyboard Layer 2 (Pass)
//Storyboard Layer 3 (Foreground)
//Storyboard Sound Samples
//Background Colour Transformations
3,100,163,162,255

[TimingPoints]
1524.64516129032,468.75,4,2,0,100,1,0
6680,-100,4,1,0,100,0,0
23204,-100,4,2,0,100,0,0
23907,-100,4,1,0,100,0,0
35509,-100,4,2,0,100,0,0
38204,-100,4,1,0,100,0,0
72540,-100,4,1,0,100,0,1
105587,-100,4,1,0,100,0,0

[Colours]
Combo1 : 181,60,156
Combo2 : 108,208,247

[HitObjects]
248,304,1524,1,2
91,254,3399,5,2
395,281,5157,5,2
160,80,7032,5,8
112,152,7266,1,8
112,152,7384,1,8
136,232,7618,1,8
208,280,7852,1,8
288,296,8087,1,8
416,192,8555,2,2,B|336:120,1,105,2|4
256,88,9141,5,0
256,88,9259,1,0
176,88,9493,1,8
120,152,9727,1,0
64,216,9962,1,8
224,272,10430,2,2,B|256:168,1,105,2|4
256,88,11016,5,0
256,88,11134,1,0
336,88,11368,1,8
392,152,11602,1,0
448,216,11837,1,8
288,272,12305,2,2,B|256:168,1,105,2|4
192,120,12891,5,0
192,120,13008,1,0
104,120,13243,1,8
104,120,13477,1,8
152,192,13712,1,0
168,232,13829,1,0
184,272,13946,1,0
200,312,14063,1,8
328,200,14532,5,4
408,200,14766,1,8
408,200,14884,1,0
488,200,15118,1,4
488,120,15352,1,8
488,32,15587,1,12
320,32,16055,2,2,L|448:32,1,105,2|4
464,112,16641,5,0
464,112,16759,1,0
464,192,16993,1,8
384,176,17227,1,0
304,160,17462,1,8
192,32,17930,2,2,L|64:32,1,105,2|4
48,112,18516,5,0
48,112,18634,1,0
48,192,18868,1,8
128,176,19102,1,0
208,160,19337,1,8
256,320,19805,2,2,B|256:200,1,105,2|4
320,104,20509,5,0
360,120,20627,1,0
392,144,20744,1,8
416,176,20861,1,8
432,216,20977,1,0
432,256,21094,1,0
424,296,21212,2,2,B|376:336|288:336,1,140,2|0
168,328,22032,5,8
168,240,22266,1,8
168,240,22384,1,8
200,160,22618,1,8
264,104,22852,1,8
344,80,23087,1,8
424,72,23321,6,0,B|472:152,2,70,0|2|0
416,152,24024,1,4
368,224,24259,1,0
304,176,24493,1,8
248,120,24727,2,0,B|192:80|128:96|112:120,1,140
56,168,25430,1,8
80,248,25665,6,0,B|112:304|176:232|224:288,1,140
256,208,26368,1,8
320,264,26602,1,0
384,208,26837,1,0
400,168,26954,1,0
416,128,27071,1,8
408,48,27305,1,8
328,32,27540,1,0
256,72,27774,5,4
384,312,28243,1,4
128,312,28712,1,4
216,312,28946,1,0
256,312,29063,1,0
296,312,29180,1,8
256,240,29415,1,0
200,176,29649,6,0,B|256:120,1,70
320,176,30118,2,0,B|376:120,1,70,8|0
424,64,30587,1,0
384,64,30704,1,0
344,64,30821,1,8
264,64,31055,1,8
176,64,31290,1,0
112,120,31524,5,0
112,288,31993,1,0
256,376,32462,1,0
256,208,32930,1,8
400,120,33399,5,0
400,288,33868,1,0
256,376,34337,1,0
256,292,34571,1,8
256,208,34805,1,8
256,40,35274,5,4
256,208,35743,12,4,38087
304,192,38321,5,8
256,264,38555,1,8
208,192,38790,1,0
256,120,39024,1,4
208,48,39259,1,0
160,120,39493,1,8
128,200,39727,2,0,B|120:248|128:280|160:280|208:272,1,140
256,200,40430,1,8
305,272,40665,6,0,B|352:280|384:280|392:248|384:200,1,140
352,120,41368,1,8
304,48,41602,1,0
256,120,41837,1,0
256,160,41954,1,0
256,200,42071,1,8
256,280,42305,1,8
176,264,42540,1,0
96,248,42774,5,4
256,32,43243,1,4
416,248,43712,1,4
336,248,43946,1,0
296,248,44063,1,0
256,248,44180,1,8
176,248,44415,1,8
224,184,44649,6,0,B|296:184,3,70,0|0|8|0
296,96,45587,1,0
256,96,45704,1,0
216,96,45821,2,8,B|144:128,1,70
72,160,46290,1,0
72,240,46524,5,0
192,360,46993,1,0
160,192,47462,1,0
280,312,47931,1,8
440,240,48399,5,0
320,360,48868,1,0
352,192,49337,1,0
292,251,49571,1,8
232,312,49806,1,8
256,144,50274,5,4
256,208,50743,12,0,53087
256,192,53321,5,2
256,192,53555,1,4
172,40,54024,5,0
340,40,54493,1,8
256,40,54727,1,0
296,112,54962,2,0,B|296:192,1,70
216,184,55430,2,0,B|216:272,1,70,8|0
344,360,56134,1,2
176,360,56603,1,2
256,216,57071,1,8
256,216,57305,1,8
360,344,57774,5,0
392,264,58009,1,0
384,184,58243,1,8
344,112,58477,1,0
280,56,58712,1,0
200,32,58946,1,0
120,24,59180,1,8
40,32,59415,5,4
80,192,59884,1,4
128,352,60352,1,4
200,312,60587,2,0,B|280:272,1,70,0|8
344,280,61055,1,8
384,296,61173,1,0
424,312,61290,1,0
472,248,61524,5,0
416,88,61993,1,8
336,120,62227,1,0
256,152,62462,1,0
176,184,62696,1,0
96,216,62930,1,8
208,336,63399,5,4
400,240,63868,1,4
304,48,64337,1,4
112,144,64805,1,4
256,208,65274,12,4,68907
256,168,70196,5,2
256,168,70430,1,2
352,80,70782,5,8
400,152,71016,1,8
400,152,71134,1,8
376,232,71368,1,8
304,280,71602,1,8
224,296,71837,1,8
120,64,72540,6,2,B|168:136,1,70,2|4
208,192,73009,1,0
264,128,73243,1,8
320,64,73477,2,2,B|368:136,1,70,2|0
408,192,73946,1,0
464,128,74180,1,8
408,192,74415,1,0
352,256,74649,1,0
432,272,74884,1,0
408,192,75118,1,8
384,112,75352,2,0,B|296:88,1,70
232,72,75821,1,8
232,72,76055,1,8
144,72,76290,6,2,B|144:176,1,70,2|4
216,184,76759,1,0
144,232,76993,1,8
216,280,77227,2,2,B|296:280,1,70,2|0
352,232,77696,1,0
280,184,77930,1,8
352,144,78165,1,0
352,64,78399,2,2,B|416:104,3,70,2|2|10|2
480,152,79337,1,0
480,192,79454,1,0
480,232,79571,1,8
480,312,79805,1,8
392,312,80040,6,2,B|312:312,1,70,2|4
240,312,80509,1,0
160,312,80743,1,8
80,312,80977,2,2,B|80:224,1,70,2|4
80,160,81446,1,0
160,160,81680,1,8
240,160,81915,1,0
320,160,82149,2,0,B|320:256,1,70
400,232,82618,2,0,B|400:162,1,70,8|0
400,80,83087,1,0
360,80,83204,1,0
320,80,83321,1,8
240,80,83555,1,8
152,80,83790,6,2,B|152:176,1,70,2|4
152,232,84259,1,0
232,232,84493,1,8
232,312,84727,1,0
312,312,84962,1,0
312,232,85196,1,0
392,232,85430,1,8
392,312,85665,1,0
472,312,85899,5,4
472,232,86134,1,4
472,152,86368,1,4
472,72,86602,1,4
392,72,86837,1,0
352,72,86954,1,0
312,72,87071,1,8
272,72,87188,1,0
232,72,87305,1,8
192,72,87423,1,0
152,72,87540,6,2,B|112:88|104:136,1,70,2|4
80,200,88009,1,0
80,280,88243,1,8
160,280,88477,2,2,B|200:272|208:232,1,70,2|0
208,152,88946,1,0
208,72,89180,1,8
296,72,89415,2,0,B|296:152,1,70
296,224,89884,1,0
296,304,90118,2,0,B|368:304,1,70,8|0
448,304,90587,1,0
488,304,90704,1,0
488,264,90821,1,8
488,184,91055,1,8
400,184,91290,6,2,B|400:144|376:168|368:120,1,70,2|4
352,40,91759,1,0
272,16,91993,1,8
192,40,92227,2,2,B|192:80|168:56|160:104,1,70,2|0
120,176,92696,1,0
40,200,92930,1,8
104,256,93165,1,0
120,176,93399,1,0
136,96,93634,1,0
200,144,93868,1,8
120,176,94102,1,0
192,224,94337,1,0
232,248,94454,1,0
272,272,94571,1,8
352,304,94805,1,8
352,216,95040,6,2,B|312:136,1,70,2|4
288,72,95509,1,0
256,152,95743,1,8
224,72,95977,2,2,B|192:134,1,70,2|4
160,216,96446,1,0
160,296,96680,1,8
232,256,96915,1,0
304,216,97149,1,0
304,296,97383,1,0
376,256,97618,1,8
448,296,97852,1,0
448,216,98086,1,0
448,176,98204,1,0
448,136,98321,1,8
376,176,98555,1,8
304,216,98790,6,0,B|280:256|200:296|160:288,1,140
104,296,99493,1,8
24,280,99727,1,0
104,296,99962,1,0
184,272,100196,1,0
256,232,100430,1,8
296,160,100665,1,2
336,40,101016,5,2
336,40,101134,1,0
400,88,101368,1,0
440,160,101602,1,2
440,248,101837,1,4
208,216,102540,6,0,B|232:256|312:296|352:288,1,140
408,296,103243,1,8
488,280,103477,1,0
408,296,103712,1,0
328,272,103946,1,0
256,232,104180,1,8
216,160,104415,1,2
176,40,104766,5,2
176,40,104884,1,0
112,88,105118,1,0
72,160,105352,1,2
72,248,105587,1,4
416,192,106055,6,2,B|336:120,1,105,2|4
256,88,106641,5,0
256,88,106759,1,0
176,88,106993,1,8
120,152,107227,1,0
64,216,107462,1,8
224,272,107930,2,2,B|256:168,1,105,2|4
256,88,108516,5,0
256,88,108634,1,0
336,88,108868,1,8
392,152,109102,1,0
448,216,109337,1,8
288,272,109805,2,2,B|256:168,1,105,2|4
192,120,110391,5,0
192,120,110508,1,0
104,120,110743,1,8
104,120,110977,1,8
152,192,111212,1,0
168,232,111329,1,0
184,272,111446,1,0
200,312,111563,1,8
328,200,112032,5,4
408,200,112266,1,8
408,200,112384,1,0
488,200,112618,1,4
488,120,112852,1,8
488,32,113087,1,12
320,32,113555,2,2,L|448:32,1,105,2|4
464,112,114141,5,0
464,112,114259,1,0
464,192,114493,1,8
384,176,114727,1,0
304,160,114962,1,8
192,32,115430,2,2,L|64:32,1,105,2|4
48,112,116016,5,0
48,112,116134,1,0
48,192,116368,1,8
128,176,116602,1,0
208,160,116837,1,8
256,320,117305,2,2,B|256:200,1,105,2|4
320,104,118009,5,0
360,120,118127,1,0
392,144,118244,1,8
416,176,118361,1,8
432,216,118477,1,0
432,256,118594,1,0
424,296,118712,2,2,B|376:336|288:336,1,140,2|0
168,328,119532,5,8
168,240,119766,1,8
168,240,119884,1,8
200,160,120118,1,8
264,104,120352,1,8
344,80,120587,1,8
192,248,121055,5,4
364,278,121407,1,4
256,208,121524,12,2,124337
256,288,124571,5,4
256,288,124923,1,4
256,288,125274,1,4
