osu file format v7

[General]
AudioFilename: Struck by the Rain.mp3
AudioLeadIn: 1500
PreviewTime: 70782
Countdown: 0
SampleSet: Soft
StackLeniency: 0.7
Mode: 0
LetterboxInBreaks: 1

[Editor]
DistanceSpacing: 0.800000011920929
BeatDivisor: 4
GridSize: 8

[Metadata]
Title:Rainy (Struck by the Rain)
Artist:Canary Club
Creator:vytalibus
Version:Cool
Source:Rhythm Tengoku Gold
Tags:Karate Man

[Difficulty]
HPDrainRate:4
CircleSize:4
OverallDifficulty:5
SliderMultiplier:1.4
SliderTickRate:1

[Events]
//Background and Video events
Video,-1217,"bg video.avi"
0,0,"bg.PNG"
//Break Periods
2,35474,37121
2,53755,69582
2,121607,123371
//Storyboard Layer 0 (Background)
//Storyboard Layer 1 (Fail)
//Storyboard Layer 2 (Pass)
//Storyboard Layer 3 (Foreground)
//Storyboard Sound Samples
//Background Colour Transformations
3,100,163,162,255

[TimingPoints]
1524.64516129032,468.75,4,2,0,100,1,0
8321,-100,4,1,0,100,0,0
72540,-100,4,1,0,100,0,1
105587,-100,4,1,0,100,0,0

[Colours]
Combo1 : 181,60,156
Combo2 : 108,208,247

[HitObjects]
256,208,7032,12,4,8087
440,168,8555,6,2,B|320:168,1,105,2|4
256,280,9493,6,0,B|104:280,2,140,0|8|0
256,192,10782,1,4
112,192,11368,6,0,B|112:40,2,140,0|8|0
200,192,12657,1,4
344,192,13243,1,8
456,192,13712,1,0
344,192,14180,1,8
344,304,14649,5,4
256,240,15118,1,4
168,304,15587,1,4
56,304,16055,2,2,L|56:176,1,105,2|4
56,56,16993,6,0,C|208:56,2,140,0|8|0
56,144,18282,1,4
192,144,18868,6,0,C|344:144,2,140,0|8|0
192,232,20157,1,4
336,232,20743,1,8
448,232,21212,1,0
336,232,21680,1,8
256,208,22032,12,0,23087
304,144,24024,5,4
376,64,24493,1,8
304,144,24962,1,0
232,64,25430,1,8
160,144,25899,1,0
232,224,26368,1,8
304,312,26837,1,0
340,270,27071,1,8
376,224,27305,1,8
408,120,27774,6,2,B|344:56|280:56,1,140
192,120,28712,2,2,B|128:56|64:56,1,140,2|2
56,168,29649,1,0
128,256,30118,1,8
240,256,30587,1,0
296,256,30821,1,8
352,256,31055,1,8
352,144,31524,6,2,B|464:32,2,140
256,88,32930,1,8
160,144,33399,2,2,B|48:32,2,140
208,168,34571,1,8
256,192,34805,1,8
256,304,35274,1,4
96,192,38321,5,8
96,192,38555,1,8
176,112,39024,6,0,B|320:40,1,140,4|8
392,112,39962,1,0
472,192,40430,1,8
392,272,40899,6,0,B|248:344,1,140,0|8
176,272,41837,1,0
136,232,42071,1,8
96,192,42305,1,8
200,144,42774,5,2
312,144,43243,1,2
312,32,43712,1,2
200,32,44180,1,2
256,32,44415,1,0
256,88,44649,2,0,B|256:240,2,140,0|8|0
256,32,45821,1,8
256,32,46055,1,8
200,128,46524,5,4
104,192,46993,1,8
160,288,47462,1,0
256,224,47931,1,8
312,128,48399,1,0
408,192,48868,1,8
352,288,49337,1,0
304,256,49571,1,8
256,224,49806,1,8
256,336,50274,1,4
256,208,50743,12,4,53555
256,208,70782,12,2,71837
328,48,72540,6,0,B|192:128,1,140,4|0
160,144,73243,1,8
120,104,73477,2,0,B|40:240,1,140,0|0
24,272,74180,1,8
72,296,74415,1,0
120,320,74649,2,0,B|200:320,3,70,0|0|8|0
304,320,75821,1,8
304,320,76055,1,8
352,288,76290,6,0,B|272:152,1,140,0|0
256,120,76993,1,8
208,96,77227,2,0,B|120:136,2,70
256,64,77930,1,8
304,40,78165,1,0
352,64,78399,2,0,B|416:104,3,70,0|0|8|0
480,192,79571,1,8
480,192,79805,1,8
424,192,80040,6,2,B|280:192,1,140
256,240,80743,1,8
224,192,80977,2,2,B|80:192,1,140
56,144,81680,1,8
40,88,81915,2,0,B|56:48|96:48,2,70
96,104,82618,2,0,B|168:128,1,70,8|0
256,184,83321,1,8
256,184,83555,1,8
288,232,83790,6,0,B|432:144,1,140
440,112,84493,2,0,B|384:56,1,70,8|0
352,104,84962,2,0,B|272:72,1,70
256,120,85430,2,0,B|176:136,1,70,8|0
216,184,85899,2,0,B|152:232,3,70,0|0|8|0
200,264,86837,2,0,B|184:304,2,35,0|0|8
240,224,87305,1,8
256,280,87540,6,0,B|336:272|400:200,1,140,4|0
408,176,88243,1,8
352,168,88477,2,0,B|272:160|208:88,1,140,0|0
200,64,89180,1,8
152,32,89415,2,0,B|96:96,1,70
88,136,89884,2,0,B|64:208,1,70,0|8
72,256,90352,1,0
152,336,90821,1,8
152,336,91055,1,8
200,304,91290,6,0,B|176:264|272:232|248:176,1,140
232,128,91993,1,8
280,96,92227,2,0,B|368:80,1,70
400,112,92696,1,0
440,144,92930,2,0,B|432:240,1,70,8|0
408,264,93399,1,0
368,304,93634,2,0,B|304:344,1,70,0|8
256,328,94102,1,0
184,248,94571,1,8
184,248,94805,1,8
128,248,95040,6,2,B|48:192|128:136,1,140
184,136,95743,1,8
240,136,95977,2,2,B|296:56|352:136,1,140
352,192,96680,1,8
408,192,96915,2,0,B|480:192,1,70
480,136,97384,2,0,B|480:64,2,70,0|8|0
408,56,98321,1,8
408,56,98555,1,8
352,56,98790,6,0,B|208:56,1,140
232,104,99493,2,2,B|144:104,1,70
192,152,99962,2,0,B|104:152,1,70
144,200,100430,2,2,B|56:200,1,70
144,288,101134,1,0
144,288,101368,1,0
144,288,101602,1,0
144,288,101837,1,4
160,56,102540,6,0,B|304:56,1,140
280,104,103243,2,2,B|368:104,1,70
320,152,103712,2,0,B|408:152,1,70
368,200,104180,2,2,B|456:200,1,70
368,288,104884,1,0
368,288,105118,1,0
368,288,105352,1,0
368,288,105587,1,4
440,168,106055,6,2,B|320:168,1,105,2|4
256,280,106993,6,0,B|104:280,2,140,0|8|0
256,192,108282,1,4
112,192,108868,6,0,B|112:40,2,140,0|8|0
200,192,110157,1,4
344,192,110743,1,8
456,192,111212,1,0
344,192,111680,1,8
344,304,112149,5,4
256,240,112618,1,4
168,304,113087,1,4
56,304,113555,2,2,L|56:176,1,105,2|4
56,56,114493,6,0,C|208:56,2,140,0|8|0
56,144,115782,1,4
192,144,116368,6,0,C|344:144,2,140,0|8|0
192,232,117657,1,4
336,232,118243,1,8
448,232,118712,1,0
336,232,119180,1,8
256,208,119532,12,4,121407
256,288,124571,5,4
256,288,124923,1,4
256,288,125274,1,4
