osu file format v13

[General]
AudioFilename: Saint-Saens - Danse Macabre.mp3
AudioLeadIn: 0
PreviewTime: 106993
Countdown: 1
SampleSet: Soft
StackLeniency: 0.7
Mode: 0
LetterboxInBreaks: 1
WidescreenStoryboard: 0

[Editor]
DistanceSpacing: 1.1
BeatDivisor: 4
GridSize: 4
TimelineZoom: 1

[Metadata]
Title:Danse Macabre
TitleUnicode:Danse Macabre
Artist:Camille Saint-Saens
ArtistUnicode:Camille Saint-Saens
Creator:TrigonometrY
Version:Normal
Source:Alone in the Dark
Tags:classic classical
BeatmapID:453587
BeatmapSetID:190498

[Difficulty]
HPDrainRate:3
CircleSize:3
OverallDifficulty:3
ApproachRate:4
SliderMultiplier:1.6
SliderTickRate:1

[Events]
//Background and Video events
0,0,"bg1.jpg",0,0
//Break Periods
2,13531,17273
2,68254,71295
2,122978,126019
2,144027,150575
//Storyboard Layer 0 (Background)
//Storyboard Layer 1 (Fail)
//Storyboard Layer 2 (Pass)
//Storyboard Layer 3 (Foreground)
//Storyboard Sound Samples
//Background Colour Transformations
3,100,0,128,128

[TimingPoints]
1755,701.590271281572,3,2,1,25,1,0
171189,-100,3,2,1,25,0,1
203812,-100,3,2,1,25,0,0

[Colours]
Combo1 : 79,115,115
Combo2 : 116,55,54

[HitObjects]
256,192,1755,5,0,0:0:0:0:
256,192,2807,1,0,0:0:0:0:
256,192,3859,1,0,0:0:0:0:
256,192,4912,1,0,0:0:0:0:
252,368,5964,6,2,P|366:358|417:255,1,240,2|0,0:0|0:0,0:0:0:0:
428,104,8069,2,0,B|392:20|272:20|256:124|256:124|240:20|120:20|84:104,1,480
256,304,11226,5,0,0:0:0:0:
256,304,12278,1,0,0:0:0:0:
256,304,13331,1,2,0:0:0:0:
124,192,18593,5,2,0:0:0:0:
388,192,19645,1,0,0:0:0:0:
131,237,20697,1,2,0:0:0:0:
380,146,21750,1,0,0:0:0:0:
154,276,22802,5,2,0:0:0:0:
357,107,23855,1,0,0:0:0:0:
190,306,24907,1,2,0:0:0:0:
322,77,25959,1,0,0:0:0:0:
68,148,27012,5,2,0:0:0:0:
268,320,28064,2,0,P|348:340|416:292,1,160
460,228,29117,1,2,0:0:0:0:
312,136,29818,2,0,L|232:136,1,80,2|2,0:0|0:0,0:0:0:0:
104,260,30870,2,0,L|196:260,1,80,2|2,0:0|0:0,0:0:0:0:
340,340,31923,6,0,P|384:336|432:320,1,80,2|0,0:0|0:0,0:0:0:0:
380,248,32624,2,0,P|419:229|459:197,1,80,2|0,0:0|0:0,0:0:0:0:
388,144,33326,2,0,P|419:112|445:69,1,80,0|2,0:0|0:0,0:0:0:0:
356,48,34028,1,2,0:0:0:0:
355,48,34378,6,0,P|256:104|156:48,1,200,6|0,0:0|0:0,0:0:0:0:
68,32,35782,2,0,P|68:108|79:191,1,160,0|2,0:0|0:0,0:0:0:0:
116,272,36834,2,0,P|200:256|284:272,1,160
236,348,37886,2,0,P|314:359|392:343,1,160,0|2,0:0|0:0,0:0:0:0:
464,292,38939,5,2,0:0:0:0:
504,212,39290,1,2,0:0:0:0:
328,224,39991,1,2,0:0:0:0:
388,160,40342,1,2,0:0:0:0:
212,136,41044,1,2,0:0:0:0:
288,92,41394,1,2,0:0:0:0:
456,44,42096,2,0,P|416:68|352:72,1,80,2|2,0:0|0:0,0:0:0:0:
300,44,42798,5,6,0:0:0:0:
212,60,43148,2,0,P|158:116|112:68,1,160
27,44,44201,2,0,P|40:128|96:188,1,160,0|2,0:0|0:0,0:0:0:0:
172,204,45253,2,0,P|252:172|292:108,1,160
344,40,46305,2,0,P|376:108|380:200,1,160,0|2,0:0|0:0,0:0:0:0:
420,272,47358,6,0,P|456:249|485:226,2,80,0|0|0,0:0|0:0|0:0,0:0:0:0:
332,272,48410,2,0,P|295:294|266:317,2,80,0|0|2,0:0|0:0|0:0,0:0:0:0:
368,192,49463,2,0,L|332:108,1,80
284,48,50164,1,0,0:0:0:0:
240,124,50515,2,0,L|271:197,2,80,0|0|2,0:0|0:0|0:0,0:0:0:0:
120,252,51918,5,0,0:0:0:0:
120,253,52269,2,0,P|196:344|340:352,2,240,2|2|0,0:0|0:0|0:0,0:0:0:0:
200,96,55075,2,0,B|239:114|258:149|258:149|288:128|344:120,1,160,0|0,0:0|0:0,0:0:0:0:
420,124,56128,5,0,0:0:0:0:
419,126,56479,2,0,B|408:203|408:203|312:200|260:264,2,240,0|2|0,0:0|0:0|0:0,0:0:0:0:
260,52,59285,1,0,0:0:0:0:
192,108,59636,2,0,P|149:95|92:92,1,80,2|0,0:0|0:0,0:0:0:0:
40,140,60337,1,0,0:0:0:0:
16,224,60688,6,0,P|84:324|200:284,1,240,2|2,0:0|0:0,0:0:0:0:
256,244,62091,2,0,L|312:344,1,80
372,272,62793,2,0,L|427:330,1,80
504,288,63494,1,0,0:0:0:0:
496,200,63845,1,2,0:0:0:0:
488,112,64196,1,0,0:0:0:0:
480,24,64547,6,0,P|440:30|384:64,1,80
340,104,65248,2,0,P|264:122|198:81,1,160,0|2,0:0|0:0,0:0:0:0:
128,28,66301,2,0,P|112:100|196:176,1,160,2|2,0:0|0:0,0:0:0:0:
312,252,67704,2,0,L|400:244,1,80,2|2,0:0|0:0,0:0:0:0:
392,160,72615,5,2,0:0:0:0:
392,160,72966,1,2,0:0:0:0:
284,296,73668,2,0,B|248:308|248:308|208:296|208:296|168:308|168:308|132:296,1,160,2|2,0:0|0:0,0:0:0:0:
92,216,74720,2,0,B|128:204|128:204|168:216|168:216|208:204|208:204|244:216,1,160,2|0,0:0|0:0,0:0:0:0:
284,296,75772,2,0,P|328:236|308:156,1,160,2|2,0:0|0:0,0:0:0:0:
252,92,76825,5,0,0:0:0:0:
172,56,77175,1,0,0:0:0:0:
92,92,77526,1,0,0:0:0:0:
12,56,77877,2,0,P|16:140|76:180,1,160,0|2,0:0|0:0,0:0:0:0:
160,184,78929,2,0,B|196:200|196:200|208:240|208:240|244:256|244:256|256:296,1,160
320,352,79982,2,0,B|331:314|331:314|367:298|367:298|379:258|379:258|415:242,1,160,0|2,0:0|0:0,0:0:0:0:
500,220,81034,5,0,0:0:0:0:
440,156,81385,1,0,0:0:0:0:
284,72,82087,2,0,P|319:46|364:32,2,80,0|0|2,0:0|0:0|0:0,0:0:0:0:
228,140,83139,2,0,P|192:165|148:180,2,80,0|0|0,0:0|0:0|0:0,0:0:0:0:
284,72,84191,2,0,P|316:144|280:212,1,160,0|2,0:0|0:0,0:0:0:0:
204,252,85244,6,0,P|164:259|120:288,2,80,0|0|0,0:0|0:0|0:0,0:0:0:0:
288,276,86296,1,0,0:0:0:0:
224,336,86647,1,0,0:0:0:0:
204,251,86998,2,0,P|222:216|260:192,1,80,2|0,0:0|0:0,0:0:0:0:
340,168,87699,2,0,L|432:180,1,80,2|0,0:0|0:0,0:0:0:0:
460,100,88401,2,0,L|380:89,1,80,2|4,0:0|0:0,0:0:0:0:
292,76,89102,5,6,0:0:0:0:
124,280,90155,1,2,0:0:0:0:
388,280,91207,1,2,0:0:0:0:
124,256,92260,1,2,0:0:0:0:
388,256,93312,5,2,0:0:0:0:
124,232,94364,1,2,0:0:0:0:
388,232,95417,1,2,0:0:0:0:
124,208,96469,1,2,0:0:0:0:
80,132,96820,2,0,P|40:132|-7:111,2,80,0|0|2,0:0|0:0|0:0,0:0:0:0:
168,116,97872,6,0,P|243:97|304:145,1,160
228,184,98925,2,0,P|222:254|252:352,1,160,0|2,0:0|0:0,0:0:0:0:
328,372,99977,2,0,P|394:347|470:279,1,160
424,208,101030,2,0,P|346:220|311:158,1,160,0|2,0:0|0:0,0:0:0:0:
304,72,102082,6,0,P|332:44|368:28,2,80,0|0|0,0:0|0:0|0:0,0:0:0:0:
224,104,103134,2,0,L|128:104,1,80
8,216,104187,2,0,L|88:216,1,80,0|0,0:0|0:0,0:0:0:0:
248,292,105239,1,0,0:0:0:0:
336,276,105590,1,0,0:0:0:0:
404,216,105941,2,0,P|436:240|464:280,2,80,2|0|0,0:0|0:0|0:0,0:0:0:0:
328,176,106993,6,0,B|280:209|227:201|188:153|192:105|240:57|240:57|152:68|80:112|45:181,1,480,2|2,0:0|0:0,0:0:0:0:
24,348,110150,1,2,0:0:0:0:
288,336,111203,6,0,P|392:320|348:220,2,240,2|2|2,0:0|0:0|0:0,0:0:0:0:
84,172,114360,1,2,0:0:0:0:
120,92,114711,1,0,0:0:0:0:
168,164,115061,1,0,0:0:0:0:
256,148,115412,6,0,B|368:84|368:212|484:148,2,240,2|2|2,0:0|0:0|0:0,0:0:0:0:
256,360,118569,1,2,0:0:0:0:
432,196,119622,6,0,L|476:124,1,80,2|0,0:0|0:0,0:0:0:0:
388,108,120323,2,0,L|380:28,2,80,0|2|0,0:0|0:0|0:0,0:0:0:0:
344,184,121376,2,0,L|302:252,1,80,0|2,0:0|0:0,0:0:0:0:
168,136,122428,2,0,L|212:64,1,80,4|6,0:0|0:0,0:0:0:0:
40,164,127339,6,0,P|56:240|132:248,1,160
184,316,128392,2,0,P|256:347|327:315,1,160,0|2,0:0|0:0,0:0:0:0:
384,250,129444,2,0,P|458:237|471:163,1,160
452,80,130496,1,2,0:0:0:0:
364,88,130847,1,2,0:0:0:0:
276,96,131198,1,2,0:0:0:0:
188,104,131549,6,0,B|164:160|92:160|92:160|52:180,1,160
80,272,132601,2,0,B|116:256|116:256|152:272|152:272|188:256|188:256|228:308|284:308|324:256|324:256|360:272|360:272|396:256|396:256|436:272,1,400
484,196,134706,1,2,0:0:0:0:
436,124,135057,1,2,0:0:0:0:
476,44,135407,1,2,0:0:0:0:
388,48,135758,6,0,P|348:116|376:188,1,160
323,259,136811,2,0,P|256:220|192:260,1,160,0|2,0:0|0:0,0:0:0:0:
137,186,137863,2,0,P|163:114|124:48,1,120
36,44,138915,1,2,0:0:0:0:
76,124,139266,1,2,0:0:0:0:
28,196,139617,1,2,0:0:0:0:
72,272,139968,6,0,L|228:304,1,160,0|2,0:0|0:0,0:0:0:0:
220,216,141020,2,0,L|376:248,1,160,0|2,0:0|0:0,0:0:0:0:
460,224,142073,2,0,L|504:128,1,80,2|0,0:0|0:0,0:0:0:0:
404,140,142774,2,0,L|400:60,1,80,2|0,0:0|0:0,0:0:0:0:
312,52,143476,1,4,0:0:0:0:
224,44,143827,1,6,0:0:0:0:
432,148,151895,5,0,0:0:0:0:
432,148,152246,2,0,B|424:192|424:192|440:224|440:224|428:312,1,160,2|0,0:0|0:0,0:0:0:0:
344,284,153298,2,0,B|352:240|352:240|336:208|336:208|348:120,1,160
272,80,154350,2,0,B|240:56|240:56|208:80|208:80|124:80,1,160,2|0,0:0|0:0,0:0:0:0:
96,164,155403,2,0,B|128:188|128:188|160:164|160:164|240:164,1,160
328,148,156455,5,2,0:0:0:0:
416,132,156806,1,2,0:0:0:0:
504,116,157157,1,2,0:0:0:0:
448,48,157508,2,0,P|412:36|360:36,2,80,0|0|0,0:0|0:0|0:0,0:0:0:0:
504,116,158560,2,0,P|484:160|480:204,1,80,2|0,0:0|0:0,0:0:0:0:
476,280,159262,1,0,0:0:0:0:
476,280,159612,6,0,P|404:244|396:172,1,160
383,84,160665,2,0,P|321:130|304:208,1,160,2|0,0:0|0:0,0:0:0:0:
336,288,161717,2,0,P|261:282|220:200,1,160
203,128,162769,2,0,P|141:173|128:256,1,160,2|0,0:0|0:0,0:0:0:0:
72,320,163822,5,2,0:0:0:0:
44,236,164173,1,2,0:0:0:0:
16,152,164523,1,2,0:0:0:0:
87,103,164874,2,0,P|59:76|22:63,2,40,2|0|0,0:0|0:0|0:0,0:0:0:0:
116,188,165927,2,0,B|192:160|192:160|219:86,1,160,2|0,0:0|0:0,0:0:0:0:
304,112,166979,6,0,L|249:262,1,160,2|0,0:0|0:0,0:0:0:0:
332,296,168031,2,0,B|359:222|359:222|435:194,1,160,2|0,0:0|0:0,0:0:0:0:
436,104,169084,2,0,L|345:138,1,80,2|0,0:0|0:0,0:0:0:0:
276,112,169785,2,0,P|278:76|296:32,2,80,2|2|0,0:0|0:0|0:0,0:0:0:0:
200,156,170838,2,0,P|160:142|100:144,1,80,4|6,0:0|0:0,0:0:0:0:
8,276,171890,6,0,L|92:292,1,80,0|2,0:0|0:0,0:0:0:0:
260,264,172943,2,0,L|181:249,1,80,0|2,0:0|0:0,0:0:0:0:
356,284,173995,2,0,L|340:368,1,80,0|2,0:0|0:0,0:0:0:0:
440,216,175047,2,0,L|454:137,1,80,0|2,0:0|0:0,0:0:0:0:
300,52,176100,1,0,0:0:0:0:
212,52,176450,1,2,0:0:0:0:
40,72,177152,6,0,P|28:120|32:164,1,80,2|2,0:0|0:0,0:0:0:0:
116,160,177854,2,0,P|129:207|155:243,1,80,2|2,0:0|0:0,0:0:0:0:
232,236,178555,1,2,0:0:0:0:
404,272,179257,2,0,P|448:253|484:224,1,80,4|6,0:0|0:0,0:0:0:0:
384,84,180309,5,0,0:0:0:0:
300,104,180660,1,2,0:0:0:0:
128,140,181362,1,0,0:0:0:0:
212,160,181712,1,2,0:0:0:0:
304,312,182414,2,0,L|381:291,1,80,0|2,0:0|0:0,0:0:0:0:
208,312,183466,2,0,L|130:291,1,80,0|2,0:0|0:0,0:0:0:0:
240,152,184519,1,0,0:0:0:0:
272,232,184870,1,2,0:0:0:0:
116,148,185571,5,2,0:0:0:0:
172,80,185922,1,2,0:0:0:0:
256,56,186273,1,2,0:0:0:0:
340,80,186624,1,2,0:0:0:0:
396,148,186974,1,2,0:0:0:0:
480,304,187676,2,0,P|436:304|400:328,1,80,4|6,0:0|0:0,0:0:0:0:
232,336,188728,6,0,P|117:330|100:224,1,240,2|2,0:0|0:0,0:0:0:0:
180,264,190131,1,0,0:0:0:0:
332,176,190833,2,0,P|372:164|412:136,1,80,0|2,0:0|0:0,0:0:0:0:
228,128,191885,2,0,P|188:120|155:94,1,80,0|2,0:0|0:0,0:0:0:0:
44,228,192938,6,0,B|96:288|96:288|176:248|176:316|252:288,1,240,2|2,0:0|0:0,0:0:0:0:
336,264,194341,1,2,0:0:0:0:
424,280,194692,2,0,P|429:319|464:360,2,80,2|2|2,0:0|0:0|0:0,0:0:0:0:
420,104,196095,1,4,0:0:0:0:
480,40,196446,1,6,0:0:0:0:
304,56,197147,6,0,L|220:48,1,80,0|2,0:0|0:0,0:0:0:0:
60,108,198200,2,0,L|139:115,1,80,0|2,0:0|0:0,0:0:0:0:
292,208,199252,2,0,L|208:200,1,80,0|2,0:0|0:0,0:0:0:0:
52,272,200305,2,0,L|131:279,1,80,0|2,0:0|0:0,0:0:0:0:
300,332,201357,1,0,0:0:0:0:
384,308,201708,1,2,0:0:0:0:
512,188,202409,6,0,P|472:188|432:168,1,80,2|2,0:0|0:0,0:0:0:0:
364,120,203111,1,2,0:0:0:0:
308,52,203462,1,2,0:0:0:0:
228,92,203812,2,0,P|231:159|192:248,1,160,2|6,0:0|0:0,0:0:0:0:
116,280,204865,2,0,P|247:235|369:249,1,240,6|4,0:0|0:0,0:0:0:0:
484,132,206619,5,4,0:0:0:0:
452,212,206970,1,6,0:0:0:0:
296,296,207671,2,0,P|328:328|376:340,2,80,0|2|0,0:0|0:0|0:0,0:0:0:0:
212,320,208724,2,0,P|182:354|136:370,2,80,0|2|0,0:0|0:0|0:0,0:0:0:0:
132,280,209776,6,0,L|144:164,1,80,0|4,0:0|0:0,0:0:0:0:
220,236,210478,2,0,L|228:156,1,80,0|4,0:0|0:0,0:0:0:0:
308,192,211179,2,0,L|316:112,1,80,0|4,0:0|0:0,0:0:0:0:
240,68,211881,1,4,0:0:0:0:
164,28,212232,1,4,0:0:0:0:
