osu file format v14

[General]
AudioFilename: Nanahira Compilations.mp3
AudioLeadIn: 0
PreviewTime: 184095
Countdown: 0
SampleSet: Normal
StackLeniency: 0.7
Mode: 3
LetterboxInBreaks: 0
SpecialStyle: 0
WidescreenStoryboard: 1

[Editor]
DistanceSpacing: 1
BeatDivisor: 4
GridSize: 8
TimelineZoom: 2.2

[Metadata]
Title:Songs Compilation
TitleUnicode:Songs Compilation
Artist:Camellia feat. Nanahira
ArtistUnicode:かめりあ feat. ななひら
Creator:Rinzler
Version:Nyarathon
Source:
Tags:masaya oya phquase takahiro fukase marathon ませまてぃっく.ま+ま=まじっく! ばーさす! びっくりさせたらおこるよ! Jump Over!生物種 -Hang Over!PHQ remix- 気づいたら春夏秋冬
BeatmapID:674460
BeatmapSetID:300721

[Difficulty]
HPDrainRate:8
CircleSize:4
OverallDifficulty:8
ApproachRate:5
SliderMultiplier:1.4
SliderTickRate:1

[Events]
//Background and Video events
0,0,"BGN.jpg",0,0
//Break Periods
//Storyboard Layer 0 (Background)
//Storyboard Layer 1 (Fail)
//Storyboard Layer 2 (Pass)
//Storyboard Layer 3 (Foreground)
//Storyboard Sound Samples

[TimingPoints]
5,312.5,4,1,1,25,1,0
10942,-100,4,1,1,35,0,0
65317,-100,4,1,1,35,0,1
87505,-100,4,1,1,35,0,0
108795,300,4,1,1,35,1,0
108795,-104.166666666667,4,1,1,35,0,0
184245,-104.166666666667,4,1,1,35,0,1
209895,-104.166666666667,4,1,1,25,0,1
210795,-104.166666666667,4,1,1,25,0,0
215551,279.06976744186,4,1,1,35,1,0
215551,-112.359550561798,4,1,1,35,0,0
272481,-112.359550561798,4,1,1,35,0,1
299271,-112.359550561798,4,1,1,25,0,0
302962,266.666666666667,4,1,1,35,1,0
302962,-117.647058823529,4,1,1,35,0,0
303895,-117.647058823529,4,1,1,35,0,1
321095,-117.647058823529,4,1,1,35,0,0
356669,234.375,4,1,1,35,1,0
356669,-133.333333333333,4,1,1,25,0,0
368270,-133.333333333333,4,1,1,35,0,0
376356,-133.333333333333,4,1,1,35,0,1
394872,-133.333333333333,4,1,1,35,0,0
395106,-133.333333333333,4,1,1,35,0,1
413856,-133.333333333333,4,1,1,25,0,0

[HitObjects]
192,192,1411,5,8,0:0:0:0:
448,192,1489,1,8,0:0:0:0:
64,192,1567,1,8,0:0:0:0:
320,192,1723,1,8,0:0:0:0:
192,192,1880,1,8,0:0:0:0:
448,192,2036,1,8,0:0:0:0:
320,192,2192,1,8,0:0:0:0:
64,192,2270,1,8,0:0:0:0:
192,192,2348,1,8,0:0:0:0:
320,192,2426,1,8,0:0:0:0:
64,192,2505,1,4,0:0:0:0:
448,192,2505,128,0,3755:0:0:0:0:
64,192,3755,128,0,4380:0:0:0:0:
192,192,4380,128,0,5005:0:0:0:0:
320,192,5005,128,0,6255:0:0:0:0:
64,192,6255,128,0,6880:0:0:0:0:
192,192,6880,128,0,7505:0:0:0:0:
448,192,7505,128,0,8755:0:0:0:0:
320,192,7505,1,0,0:0:0:0:
64,192,7661,1,0,0:0:0:0:
320,192,7817,1,0,0:0:0:0:
64,192,7973,1,0,0:0:0:0:
320,192,8130,1,0,0:0:0:0:
64,192,8286,1,0,0:0:0:0:
320,192,8442,1,0,0:0:0:0:
192,192,8520,1,0,0:0:0:0:
64,192,8598,1,0,0:0:0:0:
320,192,8755,128,0,9380:0:0:0:0:
192,192,8755,1,0,0:0:0:0:
448,192,8911,1,0,0:0:0:0:
64,192,9067,1,0,0:0:0:0:
448,192,9223,1,0,0:0:0:0:
192,192,9380,128,0,10005:0:0:0:0:
64,192,9380,1,0,0:0:0:0:
448,192,9536,1,0,0:0:0:0:
64,192,9692,1,0,0:0:0:0:
320,192,9770,1,0,0:0:0:0:
448,192,9848,1,0,0:0:0:0:
64,192,10005,1,0,0:0:0:0:
192,192,10083,1,0,0:0:0:0:
320,192,10161,1,0,0:0:0:0:
448,192,10239,1,0,0:0:0:0:
320,192,10317,1,0,0:0:0:0:
192,192,10395,1,0,0:0:0:0:
64,192,10473,1,0,0:0:0:0:
448,192,10551,1,0,0:0:0:0:
320,192,10630,1,0,0:0:0:0:
192,192,10708,1,0,0:0:0:0:
64,192,10786,1,0,0:0:0:0:
192,192,10864,1,0,0:0:0:0:
320,192,10942,1,4,0:0:0:0:
448,192,10942,1,0,0:0:0:0:
192,192,11098,1,4,0:0:0:0:
64,192,11098,1,0,0:0:0:0:
192,192,11411,1,0,0:0:0:0:
320,192,11411,1,4,0:0:0:0:
448,192,11567,1,0,0:0:0:0:
64,192,11567,1,4,0:0:0:0:
320,192,11880,1,0,0:0:0:0:
64,192,12036,1,0,0:0:0:0:
192,192,12036,1,4,0:0:0:0:
320,192,12192,1,0,0:0:0:0:
192,192,12192,1,4,0:0:0:0:
320,192,12348,1,4,0:0:0:0:
448,192,12348,128,0,12661:0:0:0:0:
64,192,12661,1,4,0:0:0:0:
192,192,12713,1,4,0:0:0:0:
320,192,12765,1,4,0:0:0:0:
448,192,12817,1,8,0:0:0:0:
64,192,12817,1,0,0:0:0:0:
192,192,12817,1,0,0:0:0:0:
320,192,12973,1,2,0:0:0:0:
448,192,13130,1,4,0:0:0:0:
64,192,13130,1,0,0:0:0:0:
192,192,13286,1,2,0:0:0:0:
448,192,13442,1,0,0:0:0:0:
320,192,13442,1,8,0:0:0:0:
192,192,13598,1,2,0:0:0:0:
64,192,13755,1,4,0:0:0:0:
448,192,13755,1,0,0:0:0:0:
320,192,13911,1,2,0:0:0:0:
64,192,14067,1,0,0:0:0:0:
192,192,14067,1,8,0:0:0:0:
448,192,14223,1,2,0:0:0:0:
64,192,14380,128,0,14536:0:0:0:0:
320,192,14380,1,4,0:0:0:0:
192,192,14536,128,0,14692:0:0:0:0:
448,192,14536,1,2,0:0:0:0:
320,192,14692,128,0,14848:0:0:0:0:
64,192,14692,1,8,0:0:0:0:
448,192,14848,128,0,15005:0:0:0:0:
192,192,14848,1,2,0:0:0:0:
64,192,15005,1,0,0:0:0:0:
320,192,15005,1,4,0:0:0:0:
448,192,15161,1,0,0:0:0:0:
192,192,15161,1,4,0:0:0:0:
320,192,15239,1,4,0:0:0:0:
64,192,15317,1,8,0:0:0:0:
448,192,15317,1,0,0:0:0:0:
192,192,15317,1,0,0:0:0:0:
320,192,15473,1,2,0:0:0:0:
64,192,15630,1,4,0:0:0:0:
448,192,15630,1,0,0:0:0:0:
320,192,15786,1,2,0:0:0:0:
448,192,15942,1,8,0:0:0:0:
192,192,15942,1,0,0:0:0:0:
320,192,16098,1,2,0:0:0:0:
192,192,16255,1,4,0:0:0:0:
64,192,16255,1,0,0:0:0:0:
448,192,16411,1,4,0:0:0:0:
320,192,16450,1,4,0:0:0:0:
192,192,16489,1,4,0:0:0:0:
64,192,16528,1,4,0:0:0:0:
448,192,16567,1,0,0:0:0:0:
320,192,16567,1,4,0:0:0:0:
64,192,16723,1,4,0:0:0:0:
192,192,16762,1,4,0:0:0:0:
320,192,16801,1,4,0:0:0:0:
448,192,16840,1,4,0:0:0:0:
192,192,16880,1,0,0:0:0:0:
64,192,16880,1,4,0:0:0:0:
448,192,17036,1,0,0:0:0:0:
320,192,17036,1,4,0:0:0:0:
448,192,17348,1,4,0:0:0:0:
64,192,17348,1,0,0:0:0:0:
320,192,17661,1,4,0:0:0:0:
192,192,17661,1,0,0:0:0:0:
448,192,17817,1,8,0:0:0:0:
64,192,17817,1,0,0:0:0:0:
192,192,17973,1,2,0:0:0:0:
448,192,18130,1,0,0:0:0:0:
320,192,18130,1,4,0:0:0:0:
64,192,18286,1,2,0:0:0:0:
192,192,18442,1,8,0:0:0:0:
448,192,18442,1,0,0:0:0:0:
320,192,18598,1,2,0:0:0:0:
64,192,18755,1,4,0:0:0:0:
448,192,18755,1,0,0:0:0:0:
192,192,18911,1,2,0:0:0:0:
448,192,19067,1,8,0:0:0:0:
64,192,19067,1,0,0:0:0:0:
320,192,19223,1,2,0:0:0:0:
64,192,19380,1,0,0:0:0:0:
192,192,19380,1,4,0:0:0:0:
320,192,19536,1,2,0:0:0:0:
448,192,19692,1,8,0:0:0:0:
64,192,19692,1,0,0:0:0:0:
192,192,19848,1,2,0:0:0:0:
64,192,20005,1,4,0:0:0:0:
448,192,20005,1,0,0:0:0:0:
192,192,20161,128,0,20395:0:0:0:0:
320,192,20161,1,2,0:0:0:0:
64,192,20317,1,0,0:0:0:0:
448,192,20317,1,8,0:0:0:0:
320,192,20395,128,0,20630:0:0:0:0:
64,192,20473,1,2,0:0:0:0:
448,192,20630,128,0,20942:0:0:0:0:
192,192,20630,1,4,0:0:0:0:
64,192,20786,1,2,0:0:0:0:
320,192,20942,1,8,0:0:0:0:
192,192,20942,1,0,0:0:0:0:
64,192,21098,1,2,0:0:0:0:
448,192,21255,1,0,0:0:0:0:
192,192,21255,1,4,0:0:0:0:
320,192,21411,1,4,0:0:0:0:
64,192,21411,1,0,0:0:0:0:
448,192,21567,1,0,0:0:0:0:
192,192,21567,1,8,0:0:0:0:
64,192,21723,1,0,0:0:0:0:
320,192,21723,1,4,0:0:0:0:
448,192,21880,1,0,0:0:0:0:
192,192,21880,1,4,0:0:0:0:
320,192,21958,1,4,0:0:0:0:
448,192,22036,1,4,0:0:0:0:
64,192,22036,1,0,0:0:0:0:
192,192,22114,1,4,0:0:0:0:
320,192,22192,1,8,0:0:0:0:
448,192,22192,1,0,0:0:0:0:
192,192,22270,1,4,0:0:0:0:
64,192,22348,1,4,0:0:0:0:
448,192,22348,1,0,0:0:0:0:
320,192,22426,1,4,0:0:0:0:
64,192,22505,1,0,0:0:0:0:
448,192,22505,128,0,22817:0:0:0:0:
192,192,22505,1,4,0:0:0:0:
64,192,22817,128,0,23130:0:0:0:0:
320,192,22817,1,8,0:0:0:0:
448,192,23130,128,0,23442:0:0:0:0:
192,192,23130,1,4,0:0:0:0:
64,192,23286,1,0,0:0:0:0:
320,192,23286,1,4,0:0:0:0:
64,192,23442,128,0,23755:0:0:0:0:
192,192,23442,1,8,0:0:0:0:
320,192,23598,1,4,0:0:0:0:
448,192,23598,1,0,0:0:0:0:
192,192,23676,1,4,0:0:0:0:
448,192,23755,128,0,24380:0:0:0:0:
320,192,23755,1,4,0:0:0:0:
64,192,24223,1,0,0:0:0:0:
320,192,24223,1,4,0:0:0:0:
192,192,24380,128,0,24692:0:0:0:0:
320,192,24380,1,8,0:0:0:0:
64,192,24692,1,4,0:0:0:0:
64,192,24848,1,4,0:0:0:0:
448,192,25005,1,0,0:0:0:0:
320,192,25005,1,4,0:0:0:0:
192,192,25161,1,0,0:0:0:0:
448,192,25317,1,8,0:0:0:0:
64,192,25317,128,0,25630:0:0:0:0:
448,192,25630,128,0,25942:0:0:0:0:
192,192,25630,1,4,0:0:0:0:
320,192,25786,1,4,0:0:0:0:
64,192,25786,1,0,0:0:0:0:
64,192,25942,128,0,26255:0:0:0:0:
192,192,25942,1,8,0:0:0:0:
320,192,26098,1,4,0:0:0:0:
448,192,26098,1,0,0:0:0:0:
192,192,26176,1,4,0:0:0:0:
448,192,26255,1,0,0:0:0:0:
320,192,26255,1,4,0:0:0:0:
64,192,26411,1,0,0:0:0:0:
448,192,26411,1,4,0:0:0:0:
320,192,26723,1,4,0:0:0:0:
192,192,26723,1,0,0:0:0:0:
448,192,27036,128,0,27348:0:0:0:0:
64,192,27036,1,4,0:0:0:0:
64,192,27348,1,0,0:0:0:0:
320,192,27348,1,4,0:0:0:0:
192,192,27426,1,4,0:0:0:0:
448,192,27505,1,4,0:0:0:0:
64,192,27505,128,0,27817:0:0:0:0:
448,192,27817,128,0,28130:0:0:0:0:
192,192,27817,1,8,0:0:0:0:
64,192,28130,128,0,28442:0:0:0:0:
192,192,28130,1,4,0:0:0:0:
320,192,28286,1,4,0:0:0:0:
448,192,28286,1,0,0:0:0:0:
448,192,28442,128,0,28755:0:0:0:0:
192,192,28442,1,8,0:0:0:0:
320,192,28598,1,4,0:0:0:0:
64,192,28598,1,0,0:0:0:0:
192,192,28676,1,4,0:0:0:0:
64,192,28755,128,0,29067:0:0:0:0:
320,192,28755,1,4,0:0:0:0:
192,192,29067,128,2,29380:0:0:0:0:
320,192,29223,1,4,0:0:0:0:
64,192,29380,1,8,0:0:0:0:
448,192,29380,128,2,29536:0:0:0:0:
320,192,29536,128,2,29692:0:0:0:0:
192,192,29692,128,2,29848:0:0:0:0:
64,192,29848,128,2,30005:0:0:0:0:
448,192,30005,1,0,0:0:0:0:
320,192,30005,1,4,0:0:0:0:
192,192,30083,1,0,0:0:0:0:
64,192,30161,1,0,0:0:0:0:
192,192,30239,1,0,0:0:0:0:
320,192,30317,1,0,0:0:0:0:
448,192,30395,1,0,0:0:0:0:
64,192,30473,1,0,0:0:0:0:
192,192,30551,1,0,0:0:0:0:
320,192,30630,1,4,0:0:0:0:
448,192,30630,1,0,0:0:0:0:
192,192,30708,1,0,0:0:0:0:
64,192,30786,1,0,0:0:0:0:
448,192,30864,1,0,0:0:0:0:
320,192,30942,1,0,0:0:0:0:
192,192,31020,1,0,0:0:0:0:
64,192,31098,1,0,0:0:0:0:
448,192,31176,1,0,0:0:0:0:
320,192,31255,1,0,0:0:0:0:
192,192,31333,1,0,0:0:0:0:
64,192,31411,1,0,0:0:0:0:
448,192,31411,1,4,0:0:0:0:
320,192,31567,1,4,0:0:0:0:
192,192,31567,1,0,0:0:0:0:
64,192,31723,1,0,0:0:0:0:
192,192,31723,1,4,0:0:0:0:
320,192,31880,1,4,0:0:0:0:
448,192,31880,128,0,32192:0:0:0:0:
64,192,32505,1,0,0:0:0:0:
192,192,32505,1,4,0:0:0:0:
320,192,32583,1,0,0:0:0:0:
448,192,32661,1,2,0:0:0:0:
320,192,32739,1,0,0:0:0:0:
64,192,32817,1,8,0:0:0:0:
192,192,32817,1,0,0:0:0:0:
448,192,32973,1,2,0:0:0:0:
64,192,33130,1,0,0:0:0:0:
320,192,33130,1,4,0:0:0:0:
448,192,33286,128,0,33442:0:0:0:0:
192,192,33286,1,2,0:0:0:0:
320,192,33442,128,0,33598:0:0:0:0:
64,192,33442,1,8,0:0:0:0:
192,192,33598,128,0,33755:0:0:0:0:
448,192,33598,1,2,0:0:0:0:
64,192,33755,1,0,0:0:0:0:
448,192,33755,1,4,0:0:0:0:
320,192,33911,1,2,0:0:0:0:
448,192,33989,1,0,0:0:0:0:
64,192,34067,1,0,0:0:0:0:
320,192,34067,1,8,0:0:0:0:
192,192,34145,1,0,0:0:0:0:
320,192,34223,1,2,0:0:0:0:
448,192,34301,1,0,0:0:0:0:
64,192,34380,1,4,0:0:0:0:
320,192,34380,128,0,34536:0:0:0:0:
448,192,34536,128,0,34692:0:0:0:0:
192,192,34536,1,2,0:0:0:0:
192,192,34692,128,0,34848:0:0:0:0:
320,192,34692,1,8,0:0:0:0:
64,192,34848,128,0,35005:0:0:0:0:
448,192,34848,1,2,0:0:0:0:
448,192,35005,1,4,0:0:0:0:
192,192,35005,1,0,0:0:0:0:
320,192,35083,1,0,0:0:0:0:
192,192,35161,1,2,0:0:0:0:
64,192,35239,1,0,0:0:0:0:
448,192,35317,1,0,0:0:0:0:
320,192,35317,1,8,0:0:0:0:
192,192,35473,1,2,0:0:0:0:
448,192,35630,1,4,0:0:0:0:
64,192,35630,1,0,0:0:0:0:
320,192,35786,128,0,35942:0:0:0:0:
192,192,35786,1,2,0:0:0:0:
64,192,35942,128,0,36098:0:0:0:0:
448,192,35942,1,8,0:0:0:0:
192,192,36098,128,0,36255:0:0:0:0:
320,192,36098,1,2,0:0:0:0:
448,192,36255,1,0,0:0:0:0:
64,192,36255,1,4,0:0:0:0:
320,192,36411,1,2,0:0:0:0:
448,192,36489,1,0,0:0:0:0:
64,192,36567,1,0,0:0:0:0:
320,192,36567,1,8,0:0:0:0:
192,192,36645,1,0,0:0:0:0:
64,192,36723,1,2,0:0:0:0:
448,192,36801,1,0,0:0:0:0:
320,192,36880,1,4,0:0:0:0:
192,192,36880,128,0,37036:0:0:0:0:
64,192,37036,128,0,37192:0:0:0:0:
448,192,37036,1,2,0:0:0:0:
320,192,37192,128,0,37348:0:0:0:0:
192,192,37192,1,8,0:0:0:0:
448,192,37348,128,0,37505:0:0:0:0:
64,192,37348,1,2,0:0:0:0:
320,192,37505,1,0,0:0:0:0:
192,192,37505,1,4,0:0:0:0:
64,192,37583,1,0,0:0:0:0:
448,192,37583,1,4,0:0:0:0:
320,192,37661,1,0,0:0:0:0:
192,192,37661,1,4,0:0:0:0:
64,192,37739,1,0,0:0:0:0:
448,192,37739,1,4,0:0:0:0:
320,192,37817,1,0,0:0:0:0:
192,192,37817,1,8,0:0:0:0:
64,192,37973,1,2,0:0:0:0:
448,192,38130,1,4,0:0:0:0:
64,192,38130,1,0,0:0:0:0:
192,192,38286,128,0,38442:0:0:0:0:
320,192,38286,1,2,0:0:0:0:
64,192,38442,128,0,38598:0:0:0:0:
448,192,38442,1,8,0:0:0:0:
320,192,38598,128,0,38755:0:0:0:0:
192,192,38598,1,2,0:0:0:0:
448,192,38755,1,0,0:0:0:0:
64,192,38755,1,4,0:0:0:0:
192,192,38911,1,2,0:0:0:0:
320,192,38989,1,0,0:0:0:0:
448,192,39067,1,8,0:0:0:0:
64,192,39067,1,0,0:0:0:0:
192,192,39145,1,0,0:0:0:0:
320,192,39223,1,2,0:0:0:0:
192,192,39301,1,0,0:0:0:0:
64,192,39380,128,0,39536:0:0:0:0:
448,192,39380,1,4,0:0:0:0:
192,192,39536,128,0,39692:0:0:0:0:
320,192,39536,1,2,0:0:0:0:
448,192,39692,128,0,39848:0:0:0:0:
64,192,39692,1,8,0:0:0:0:
320,192,39848,128,0,40005:0:0:0:0:
192,192,39848,1,2,0:0:0:0:
64,192,40005,1,0,0:0:0:0:
448,192,40005,1,4,0:0:0:0:
192,192,40083,1,0,0:0:0:0:
320,192,40161,1,2,0:0:0:0:
448,192,40239,1,0,0:0:0:0:
320,192,40317,1,8,0:0:0:0:
64,192,40317,1,0,0:0:0:0:
192,192,40473,1,4,0:0:0:0:
448,192,40473,1,0,0:0:0:0:
320,192,40630,1,0,0:0:0:0:
448,192,40786,128,0,40942:0:0:0:0:
192,192,40786,1,4,0:0:0:0:
320,192,40942,128,0,41098:0:0:0:0:
64,192,40942,1,8,0:0:0:0:
192,192,41098,128,0,41255:0:0:0:0:
448,192,41098,1,2,0:0:0:0:
320,192,41411,1,2,0:0:0:0:
192,192,41489,1,0,0:0:0:0:
64,192,41567,1,0,0:0:0:0:
448,192,41645,1,0,0:0:0:0:
320,192,41723,1,2,0:0:0:0:
192,192,41801,1,0,0:0:0:0:
64,192,41880,128,2,42505:0:0:0:0:
192,192,42036,128,2,42505:0:0:0:0:
320,192,42192,128,2,42505:0:0:0:0:
448,192,42505,1,4,0:0:0:0:
320,192,42661,1,2,0:0:0:0:
192,192,42817,1,8,0:0:0:0:
64,192,42817,1,0,0:0:0:0:
320,192,42973,1,2,0:0:0:0:
448,192,43130,1,0,0:0:0:0:
64,192,43130,1,4,0:0:0:0:
192,192,43286,1,2,0:0:0:0:
320,192,43442,1,0,0:0:0:0:
448,192,43442,1,8,0:0:0:0:
192,192,43598,1,2,0:0:0:0:
64,192,43755,1,4,0:0:0:0:
320,192,43755,1,0,0:0:0:0:
448,192,43911,1,2,0:0:0:0:
64,192,44067,1,0,0:0:0:0:
192,192,44067,1,8,0:0:0:0:
320,192,44223,1,2,0:0:0:0:
448,192,44380,1,4,0:0:0:0:
64,192,44380,1,0,0:0:0:0:
192,192,44536,1,2,0:0:0:0:
320,192,44692,1,8,0:0:0:0:
192,192,44848,1,2,0:0:0:0:
448,192,45005,1,0,0:0:0:0:
64,192,45005,1,0,0:0:0:0:
320,192,45005,1,4,0:0:0:0:
448,192,45161,1,2,0:0:0:0:
320,192,45317,1,0,0:0:0:0:
192,192,45317,1,8,0:0:0:0:
64,192,45473,1,2,0:0:0:0:
448,192,45630,1,4,0:0:0:0:
192,192,45630,1,0,0:0:0:0:
320,192,45786,1,2,0:0:0:0:
64,192,45942,1,8,0:0:0:0:
448,192,45942,1,0,0:0:0:0:
192,192,46098,1,2,0:0:0:0:
320,192,46255,1,4,0:0:0:0:
64,192,46255,1,0,0:0:0:0:
448,192,46411,1,2,0:0:0:0:
192,192,46567,1,0,0:0:0:0:
64,192,46567,1,8,0:0:0:0:
448,192,46723,1,2,0:0:0:0:
320,192,46880,1,0,0:0:0:0:
192,192,46880,1,4,0:0:0:0:
64,192,47036,1,2,0:0:0:0:
448,192,47192,1,8,0:0:0:0:
320,192,47192,1,0,0:0:0:0:
192,192,47348,1,2,0:0:0:0:
448,192,47505,1,4,0:0:0:0:
64,192,47505,1,0,0:0:0:0:
320,192,47661,1,2,0:0:0:0:
192,192,47817,1,0,0:0:0:0:
448,192,47817,1,0,0:0:0:0:
64,192,47817,1,8,0:0:0:0:
192,192,47973,1,2,0:0:0:0:
320,192,48130,1,4,0:0:0:0:
448,192,48130,1,0,0:0:0:0:
192,192,48286,1,2,0:0:0:0:
64,192,48442,1,0,0:0:0:0:
448,192,48442,1,8,0:0:0:0:
320,192,48598,1,2,0:0:0:0:
448,192,48755,1,0,0:0:0:0:
192,192,48755,1,4,0:0:0:0:
64,192,48911,1,2,0:0:0:0:
320,192,49067,1,0,0:0:0:0:
192,192,49067,1,8,0:0:0:0:
448,192,49223,1,2,0:0:0:0:
64,192,49380,1,0,0:0:0:0:
192,192,49380,1,4,0:0:0:0:
320,192,49536,1,2,0:0:0:0:
448,192,49692,1,8,0:0:0:0:
64,192,49692,1,0,0:0:0:0:
192,192,49848,1,2,0:0:0:0:
320,192,50005,1,4,0:0:0:0:
448,192,50005,1,0,0:0:0:0:
192,192,50161,1,2,0:0:0:0:
64,192,50317,1,8,0:0:0:0:
320,192,50317,1,0,0:0:0:0:
448,192,50473,1,2,0:0:0:0:
320,192,50630,1,0,0:0:0:0:
192,192,50630,1,4,0:0:0:0:
64,192,50786,1,2,0:0:0:0:
192,192,50942,1,0,0:0:0:0:
448,192,50942,1,8,0:0:0:0:
320,192,51098,1,2,0:0:0:0:
448,192,51255,1,0,0:0:0:0:
64,192,51255,1,4,0:0:0:0:
192,192,51411,1,2,0:0:0:0:
64,192,51567,1,0,0:0:0:0:
320,192,51567,1,8,0:0:0:0:
448,192,51723,1,2,0:0:0:0:
320,192,51880,1,4,0:0:0:0:
192,192,51880,1,0,0:0:0:0:
64,192,52036,1,2,0:0:0:0:
448,192,52192,1,0,0:0:0:0:
192,192,52192,1,8,0:0:0:0:
320,192,52348,1,2,0:0:0:0:
64,192,52505,1,4,0:0:0:0:
448,192,52505,1,0,0:0:0:0:
320,192,52973,1,4,0:0:0:0:
192,192,52973,1,0,0:0:0:0:
192,192,53130,1,4,0:0:0:0:
320,192,53130,1,0,0:0:0:0:
448,192,53442,1,8,0:0:0:0:
64,192,53442,1,0,0:0:0:0:
320,192,53755,1,0,0:0:0:0:
192,192,53755,1,4,0:0:0:0:
448,192,53911,128,2,54067:0:0:0:0:
320,192,54067,128,2,54223:0:0:0:0:
64,192,54223,128,2,54536:0:0:0:0:
192,192,54223,1,4,0:0:0:0:
448,192,54380,1,4,0:0:0:0:
320,192,54380,1,0,0:0:0:0:
192,192,54536,128,2,54692:0:0:0:0:
448,192,54692,1,8,0:0:0:0:
64,192,54692,1,0,0:0:0:0:
64,192,55005,1,0,0:0:0:0:
320,192,55005,1,4,0:0:0:0:
448,192,55473,1,0,0:0:0:0:
192,192,55473,1,4,0:0:0:0:
64,192,55630,1,0,0:0:0:0:
320,192,55630,1,4,0:0:0:0:
448,192,55942,1,0,0:0:0:0:
64,192,55942,1,8,0:0:0:0:
64,192,56255,1,0,0:0:0:0:
320,192,56255,1,4,0:0:0:0:
192,192,56411,128,2,56567:0:0:0:0:
64,192,56567,128,2,56723:0:0:0:0:
448,192,56723,128,2,57036:0:0:0:0:
320,192,56723,1,4,0:0:0:0:
192,192,56880,1,4,0:0:0:0:
64,192,56880,1,0,0:0:0:0:
320,192,57036,128,2,57192:0:0:0:0:
64,192,57192,1,0,0:0:0:0:
448,192,57192,1,8,0:0:0:0:
320,192,57505,1,4,0:0:0:0:
448,192,57505,1,0,0:0:0:0:
192,192,57661,1,4,0:0:0:0:
64,192,57661,1,0,0:0:0:0:
320,192,57817,1,4,0:0:0:0:
448,192,57817,1,0,0:0:0:0:
192,192,57973,1,4,0:0:0:0:
64,192,57973,1,0,0:0:0:0:
448,192,58130,1,0,0:0:0:0:
320,192,58130,1,4,0:0:0:0:
64,192,58286,1,8,0:0:0:0:
192,192,58364,1,8,0:0:0:0:
320,192,58442,1,8,0:0:0:0:
448,192,58598,1,8,0:0:0:0:
320,192,58755,1,4,0:0:0:0:
64,192,58755,1,0,0:0:0:0:
192,192,58911,1,4,0:0:0:0:
448,192,58911,1,0,0:0:0:0:
64,192,59067,1,0,0:0:0:0:
320,192,59067,1,4,0:0:0:0:
448,192,59223,1,0,0:0:0:0:
192,192,59223,1,4,0:0:0:0:
320,192,59536,128,2,59692:0:0:0:0:
192,192,59692,128,2,60005:0:0:0:0:
448,192,60005,1,0,0:0:0:0:
320,192,60005,1,4,0:0:0:0:
192,192,60161,1,4,0:0:0:0:
320,192,60161,1,0,0:0:0:0:
192,192,60317,1,0,0:0:0:0:
64,192,60317,1,4,0:0:0:0:
448,192,60473,1,0,0:0:0:0:
320,192,60473,1,4,0:0:0:0:
192,192,60630,1,4,0:0:0:0:
64,192,60630,1,0,0:0:0:0:
192,192,60786,1,0,0:0:0:0:
320,192,60786,1,4,0:0:0:0:
448,192,60942,1,4,0:0:0:0:
320,192,60942,1,0,0:0:0:0:
64,192,61098,1,0,0:0:0:0:
192,192,61098,1,4,0:0:0:0:
320,192,61255,1,4,0:0:0:0:
448,192,61255,1,0,0:0:0:0:
192,192,61333,1,4,0:0:0:0:
64,192,61411,1,4,0:0:0:0:
448,192,61411,1,0,0:0:0:0:
320,192,61489,1,4,0:0:0:0:
192,192,61567,1,4,0:0:0:0:
448,192,61567,1,0,0:0:0:0:
64,192,61645,1,4,0:0:0:0:
192,192,61723,1,4,0:0:0:0:
320,192,61723,1,0,0:0:0:0:
448,192,61801,1,4,0:0:0:0:
64,192,61880,1,0,0:0:0:0:
192,192,61880,1,4,0:0:0:0:
320,192,61958,1,4,0:0:0:0:
448,192,62036,1,0,0:0:0:0:
64,192,62036,1,4,0:0:0:0:
192,192,62114,1,4,0:0:0:0:
320,192,62192,1,4,0:0:0:0:
448,192,62192,1,0,0:0:0:0:
192,192,62270,1,4,0:0:0:0:
64,192,62348,1,0,0:0:0:0:
448,192,62348,1,4,0:0:0:0:
320,192,62426,1,4,0:0:0:0:
192,192,62505,1,4,0:0:0:0:
64,192,62505,128,2,62661:0:0:0:0:
448,192,62661,128,2,62817:0:0:0:0:
320,192,62817,128,2,62973:0:0:0:0:
64,192,62973,128,2,63286:0:0:0:0:
320,192,63286,128,2,63442:0:0:0:0:
192,192,63442,128,2,63598:0:0:0:0:
448,192,63598,128,2,63755:0:0:0:0:
64,192,63755,1,0,0:0:0:0:
320,192,63755,1,8,0:0:0:0:
320,192,64067,1,8,0:0:0:0:
192,192,64067,1,0,0:0:0:0:
448,192,64380,1,8,0:0:0:0:
64,192,64380,1,0,0:0:0:0:
320,192,64536,128,2,64692:0:0:0:0:
448,192,64692,1,8,0:0:0:0:
192,192,64692,128,0,65005:0:0:0:0:
64,192,65005,1,0,0:0:0:0:
448,192,65005,1,4,0:0:0:0:
320,192,65161,1,2,0:0:0:0:
192,192,65317,1,0,0:0:0:0:
64,192,65317,1,8,0:0:0:0:
448,192,65317,1,0,0:0:0:0:
320,192,65473,1,2,0:0:0:0:
448,192,65630,1,0,0:0:0:0:
64,192,65630,1,4,0:0:0:0:
192,192,65786,1,2,0:0:0:0:
448,192,65942,1,0,0:0:0:0:
320,192,65942,1,8,0:0:0:0:
192,192,66098,1,2,0:0:0:0:
64,192,66255,1,0,0:0:0:0:
320,192,66255,1,4,0:0:0:0:
448,192,66411,1,2,0:0:0:0:
64,192,66567,1,0,0:0:0:0:
192,192,66567,1,8,0:0:0:0:
448,192,66723,1,2,0:0:0:0:
64,192,66880,128,0,67036:0:0:0:0:
320,192,66880,1,4,0:0:0:0:
192,192,67036,128,0,67192:0:0:0:0:
448,192,67036,1,2,0:0:0:0:
64,192,67192,1,8,0:0:0:0:
320,192,67192,128,0,67348:0:0:0:0:
448,192,67348,128,0,67505:0:0:0:0:
192,192,67348,1,2,0:0:0:0:
64,192,67505,1,0,0:0:0:0:
320,192,67505,1,4,0:0:0:0:
192,192,67661,1,2,0:0:0:0:
64,192,67817,1,0,0:0:0:0:
320,192,67817,1,0,0:0:0:0:
448,192,67817,1,8,0:0:0:0:
192,192,67973,1,2,0:0:0:0:
64,192,68130,1,4,0:0:0:0:
448,192,68130,1,0,0:0:0:0:
320,192,68286,1,2,0:0:0:0:
448,192,68442,1,0,0:0:0:0:
192,192,68442,1,8,0:0:0:0:
64,192,68598,1,2,0:0:0:0:
192,192,68755,1,0,0:0:0:0:
320,192,68755,1,4,0:0:0:0:
64,192,68911,1,4,0:0:0:0:
192,192,68950,1,4,0:0:0:0:
320,192,68989,1,4,0:0:0:0:
448,192,69028,1,4,0:0:0:0:
192,192,69067,1,4,0:0:0:0:
64,192,69067,1,0,0:0:0:0:
448,192,69223,1,4,0:0:0:0:
320,192,69262,1,4,0:0:0:0:
192,192,69301,1,4,0:0:0:0:
64,192,69340,1,4,0:0:0:0:
448,192,69380,1,0,0:0:0:0:
320,192,69380,1,4,0:0:0:0:
192,192,69536,1,0,0:0:0:0:
64,192,69536,1,4,0:0:0:0:
448,192,69848,1,4,0:0:0:0:
64,192,69848,1,0,0:0:0:0:
192,192,70161,1,0,0:0:0:0:
320,192,70161,1,4,0:0:0:0:
448,192,70317,1,0,0:0:0:0:
64,192,70317,1,8,0:0:0:0:
320,192,70473,1,2,0:0:0:0:
192,192,70630,1,4,0:0:0:0:
64,192,70630,1,0,0:0:0:0:
320,192,70786,1,2,0:0:0:0:
448,192,70942,1,8,0:0:0:0:
64,192,70942,1,0,0:0:0:0:
192,192,71098,1,2,0:0:0:0:
320,192,71255,1,4,0:0:0:0:
448,192,71255,1,0,0:0:0:0:
64,192,71411,1,2,0:0:0:0:
192,192,71567,1,8,0:0:0:0:
320,192,71567,1,0,0:0:0:0:
448,192,71723,1,2,0:0:0:0:
320,192,71880,1,0,0:0:0:0:
64,192,71880,1,4,0:0:0:0:
192,192,72036,1,2,0:0:0:0:
64,192,72192,1,0,0:0:0:0:
448,192,72192,1,8,0:0:0:0:
320,192,72348,1,2,0:0:0:0:
448,192,72505,1,0,0:0:0:0:
192,192,72505,1,4,0:0:0:0:
64,192,72661,1,2,0:0:0:0:
320,192,72817,1,8,0:0:0:0:
192,192,72817,1,0,0:0:0:0:
448,192,72973,1,2,0:0:0:0:
192,192,73130,1,4,0:0:0:0:
64,192,73130,1,0,0:0:0:0:
448,192,73286,1,4,0:0:0:0:
320,192,73338,1,4,0:0:0:0:
192,192,73390,1,4,0:0:0:0:
64,192,73442,1,8,0:0:0:0:
448,192,73442,1,0,0:0:0:0:
320,192,73598,1,0,0:0:0:0:
192,192,73598,1,4,0:0:0:0:
64,192,73911,1,0,0:0:0:0:
192,192,73911,1,4,0:0:0:0:
320,192,74067,1,4,0:0:0:0:
448,192,74067,1,0,0:0:0:0:
192,192,74380,1,0,0:0:0:0:
448,192,74536,1,0,0:0:0:0:
320,192,74536,1,4,0:0:0:0:
320,192,74692,1,4,0:0:0:0:
192,192,74692,1,0,0:0:0:0:
64,192,74848,1,4,0:0:0:0:
448,192,74848,128,0,75161:0:0:0:0:
64,192,75161,1,4,0:0:0:0:
192,192,75213,1,4,0:0:0:0:
320,192,75265,1,4,0:0:0:0:
448,192,75317,1,0,0:0:0:0:
64,192,75317,1,8,0:0:0:0:
192,192,75317,1,0,0:0:0:0:
320,192,75473,1,2,0:0:0:0:
192,192,75630,1,4,0:0:0:0:
64,192,75630,1,0,0:0:0:0:
320,192,75786,1,2,0:0:0:0:
448,192,75942,1,8,0:0:0:0:
64,192,75942,1,0,0:0:0:0:
192,192,76098,1,2,0:0:0:0:
320,192,76255,1,4,0:0:0:0:
448,192,76255,1,0,0:0:0:0:
192,192,76411,1,2,0:0:0:0:
64,192,76567,1,0,0:0:0:0:
448,192,76567,1,8,0:0:0:0:
192,192,76723,1,2,0:0:0:0:
64,192,76880,128,0,77036:0:0:0:0:
320,192,76880,1,4,0:0:0:0:
192,192,77036,128,0,77192:0:0:0:0:
448,192,77036,1,2,0:0:0:0:
320,192,77192,128,0,77348:0:0:0:0:
64,192,77192,1,8,0:0:0:0:
448,192,77348,128,0,77505:0:0:0:0:
192,192,77348,1,2,0:0:0:0:
64,192,77505,1,0,0:0:0:0:
320,192,77505,1,4,0:0:0:0:
192,192,77661,1,4,0:0:0:0:
448,192,77661,1,0,0:0:0:0:
320,192,77739,1,4,0:0:0:0:
192,192,77817,1,0,0:0:0:0:
64,192,77817,1,8,0:0:0:0:
448,192,77817,1,0,0:0:0:0:
320,192,77973,1,2,0:0:0:0:
448,192,78130,1,0,0:0:0:0:
192,192,78130,1,4,0:0:0:0:
64,192,78286,1,2,0:0:0:0:
320,192,78442,1,0,0:0:0:0:
192,192,78442,1,8,0:0:0:0:
448,192,78598,1,2,0:0:0:0:
320,192,78755,1,4,0:0:0:0:
64,192,78755,1,0,0:0:0:0:
448,192,78911,1,4,0:0:0:0:
320,192,78950,1,4,0:0:0:0:
192,192,78989,1,4,0:0:0:0:
64,192,79028,1,4,0:0:0:0:
448,192,79067,1,0,0:0:0:0:
320,192,79067,1,4,0:0:0:0:
64,192,79223,1,4,0:0:0:0:
192,192,79262,1,4,0:0:0:0:
320,192,79301,1,4,0:0:0:0:
448,192,79340,1,4,0:0:0:0:
192,192,79380,1,4,0:0:0:0:
64,192,79380,1,0,0:0:0:0:
320,192,79536,1,4,0:0:0:0:
448,192,79536,1,0,0:0:0:0:
448,192,79848,1,0,0:0:0:0:
64,192,79848,1,4,0:0:0:0:
64,192,80161,1,0,0:0:0:0:
320,192,80161,1,4,0:0:0:0:
192,192,80317,1,8,0:0:0:0:
448,192,80317,1,0,0:0:0:0:
320,192,80473,1,2,0:0:0:0:
192,192,80630,1,4,0:0:0:0:
64,192,80630,1,0,0:0:0:0:
320,192,80786,1,2,0:0:0:0:
448,192,80942,1,8,0:0:0:0:
64,192,80942,1,0,0:0:0:0:
192,192,81098,1,2,0:0:0:0:
64,192,81255,1,4,0:0:0:0:
320,192,81255,1,0,0:0:0:0:
448,192,81411,1,2,0:0:0:0:
192,192,81567,1,8,0:0:0:0:
64,192,81567,1,0,0:0:0:0:
320,192,81723,1,2,0:0:0:0:
448,192,81880,1,0,0:0:0:0:
64,192,81880,1,4,0:0:0:0:
320,192,82036,1,2,0:0:0:0:
64,192,82192,1,0,0:0:0:0:
192,192,82192,1,8,0:0:0:0:
448,192,82348,1,2,0:0:0:0:
64,192,82505,1,0,0:0:0:0:
320,192,82505,1,4,0:0:0:0:
192,192,82661,1,2,0:0:0:0:
64,192,82817,1,8,0:0:0:0:
448,192,82817,1,0,0:0:0:0:
320,192,82973,1,2,0:0:0:0:
64,192,83130,1,0,0:0:0:0:
192,192,83130,1,4,0:0:0:0:
320,192,83286,1,2,0:0:0:0:
448,192,83442,1,8,0:0:0:0:
64,192,83442,1,0,0:0:0:0:
192,192,83598,1,2,0:0:0:0:
320,192,83755,1,4,0:0:0:0:
448,192,83755,1,0,0:0:0:0:
320,192,83911,1,4,0:0:0:0:
448,192,83911,1,0,0:0:0:0:
192,192,84067,1,8,0:0:0:0:
64,192,84067,1,0,0:0:0:0:
192,192,84223,1,4,0:0:0:0:
64,192,84223,1,0,0:0:0:0:
448,192,84380,1,0,0:0:0:0:
320,192,84380,1,4,0:0:0:0:
192,192,84458,1,4,0:0:0:0:
64,192,84536,1,4,0:0:0:0:
448,192,84536,1,0,0:0:0:0:
320,192,84614,1,4,0:0:0:0:
64,192,84692,1,0,0:0:0:0:
192,192,84692,1,8,0:0:0:0:
320,192,84770,1,4,0:0:0:0:
192,192,84848,1,0,0:0:0:0:
448,192,84848,1,4,0:0:0:0:
64,192,84926,1,4,0:0:0:0:
320,192,85005,1,4,0:0:0:0:
448,192,85005,128,0,85630:0:0:0:0:
64,192,85630,128,2,85942:0:0:0:0:
448,192,85942,128,2,86255:0:0:0:0:
64,192,86255,1,0,0:0:0:0:
320,192,86255,1,4,0:0:0:0:
320,192,86411,1,4,0:0:0:0:
64,192,86411,1,0,0:0:0:0:
448,192,86567,1,0,0:0:0:0:
192,192,86567,1,4,0:0:0:0:
320,192,86723,1,4,0:0:0:0:
448,192,86723,128,2,87036:0:0:0:0:
320,192,87036,1,0,0:0:0:0:
192,192,87192,1,0,0:0:0:0:
320,192,87505,128,0,87817:0:0:0:0:
64,192,87505,1,4,0:0:0:0:
448,192,87817,128,0,88130:0:0:0:0:
192,192,87817,1,8,0:0:0:0:
64,192,88130,128,0,88442:0:0:0:0:
320,192,88130,1,4,0:0:0:0:
192,192,88286,1,4,0:0:0:0:
448,192,88286,1,0,0:0:0:0:
192,192,88442,128,0,88755:0:0:0:0:
320,192,88442,1,8,0:0:0:0:
64,192,88598,1,0,0:0:0:0:
448,192,88598,1,4,0:0:0:0:
320,192,88676,1,4,0:0:0:0:
448,192,88755,128,0,89380:0:0:0:0:
64,192,88755,1,4,0:0:0:0:
64,192,89067,1,0,0:0:0:0:
320,192,89223,1,0,0:0:0:0:
192,192,89223,1,4,0:0:0:0:
64,192,89380,128,0,89692:0:0:0:0:
320,192,89380,1,8,0:0:0:0:
192,192,89692,1,4,0:0:0:0:
192,192,89848,1,4,0:0:0:0:
64,192,90005,1,4,0:0:0:0:
448,192,90005,1,0,0:0:0:0:
448,192,90317,1,8,0:0:0:0:
192,192,90317,128,0,90630:0:0:0:0:
448,192,90630,128,0,90942:0:0:0:0:
64,192,90630,1,4,0:0:0:0:
64,192,90786,1,0,0:0:0:0:
320,192,90786,1,4,0:0:0:0:
320,192,90942,128,0,91255:0:0:0:0:
192,192,90942,1,8,0:0:0:0:
64,192,91098,1,0,0:0:0:0:
192,192,91098,1,4,0:0:0:0:
448,192,91176,1,4,0:0:0:0:
192,192,91255,1,4,0:0:0:0:
64,192,91255,1,0,0:0:0:0:
448,192,91411,1,0,0:0:0:0:
320,192,91411,1,4,0:0:0:0:
192,192,91723,1,0,0:0:0:0:
320,192,91723,1,4,0:0:0:0:
64,192,92036,128,0,92348:0:0:0:0:
448,192,92036,1,4,0:0:0:0:
448,192,92348,1,0,0:0:0:0:
192,192,92348,1,4,0:0:0:0:
320,192,92426,1,4,0:0:0:0:
448,192,92505,1,4,0:0:0:0:
64,192,92505,128,0,92817:0:0:0:0:
320,192,92817,128,0,93130:0:0:0:0:
192,192,92817,1,8,0:0:0:0:
448,192,93130,128,0,93442:0:0:0:0:
64,192,93130,1,4,0:0:0:0:
192,192,93286,1,4,0:0:0:0:
320,192,93286,1,0,0:0:0:0:
64,192,93442,128,0,93755:0:0:0:0:
320,192,93442,1,8,0:0:0:0:
192,192,93598,1,4,0:0:0:0:
448,192,93598,1,0,0:0:0:0:
320,192,93676,1,4,0:0:0:0:
448,192,93755,128,0,94067:0:0:0:0:
192,192,93755,1,4,0:0:0:0:
64,192,94067,128,2,94380:0:0:0:0:
320,192,94223,1,4,0:0:0:0:
448,192,94380,128,2,94536:0:0:0:0:
192,192,94380,1,8,0:0:0:0:
320,192,94536,128,2,94692:0:0:0:0:
192,192,94692,128,2,94848:0:0:0:0:
64,192,94848,128,2,95005:0:0:0:0:
448,192,95005,1,0,0:0:0:0:
320,192,95005,1,4,0:0:0:0:
192,192,95083,1,0,0:0:0:0:
64,192,95161,1,0,0:0:0:0:
448,192,95239,1,0,0:0:0:0:
320,192,95317,1,0,0:0:0:0:
192,192,95395,1,0,0:0:0:0:
320,192,95473,1,0,0:0:0:0:
448,192,95551,1,0,0:0:0:0:
64,192,95630,1,4,0:0:0:0:
192,192,95630,1,0,0:0:0:0:
320,192,95708,1,0,0:0:0:0:
448,192,95786,1,0,0:0:0:0:
64,192,95864,1,0,0:0:0:0:
192,192,95942,1,0,0:0:0:0:
320,192,96020,1,0,0:0:0:0:
192,192,96098,1,0,0:0:0:0:
64,192,96176,1,0,0:0:0:0:
448,192,96255,1,0,0:0:0:0:
192,192,96411,1,4,0:0:0:0:
64,192,96411,1,0,0:0:0:0:
448,192,96567,1,0,0:0:0:0:
320,192,96567,1,4,0:0:0:0:
192,192,96723,128,4,96880:0:0:0:0:
448,192,96880,1,4,0:0:0:0:
64,192,96880,128,2,97192:0:0:0:0:
320,192,97192,1,0,0:0:0:0:
192,192,97505,128,0,97817:0:0:0:0:
448,192,97505,1,4,0:0:0:0:
64,192,97817,128,0,98130:0:0:0:0:
320,192,97817,1,8,0:0:0:0:
320,192,98130,128,0,98442:0:0:0:0:
448,192,98130,1,4,0:0:0:0:
192,192,98286,1,4,0:0:0:0:
64,192,98286,1,0,0:0:0:0:
448,192,98442,128,0,98755:0:0:0:0:
64,192,98442,1,8,0:0:0:0:
192,192,98598,1,4,0:0:0:0:
320,192,98598,1,0,0:0:0:0:
64,192,98676,1,4,0:0:0:0:
320,192,98755,1,0,0:0:0:0:
192,192,98755,1,4,0:0:0:0:
448,192,98989,1,4,0:0:0:0:
64,192,98989,1,0,0:0:0:0:
320,192,99223,1,4,0:0:0:0:
192,192,99223,1,0,0:0:0:0:
448,192,99380,1,8,0:0:0:0:
64,192,99380,1,0,0:0:0:0:
320,192,99484,1,4,0:0:0:0:
192,192,99588,1,4,0:0:0:0:
64,192,99692,128,4,100005:0:0:0:0:
448,192,100005,1,0,0:0:0:0:
320,192,100005,1,4,0:0:0:0:
192,192,100161,1,0,0:0:0:0:
448,192,100317,1,8,0:0:0:0:
64,192,100317,128,0,100630:0:0:0:0:
192,192,100630,128,0,100942:0:0:0:0:
448,192,100630,1,4,0:0:0:0:
320,192,100786,1,0,0:0:0:0:
64,192,100786,1,4,0:0:0:0:
448,192,100942,1,8,0:0:0:0:
320,192,100942,128,0,101255:0:0:0:0:
64,192,101098,1,0,0:0:0:0:
192,192,101098,1,4,0:0:0:0:
448,192,101176,1,4,0:0:0:0:
192,192,101255,1,4,0:0:0:0:
64,192,101255,1,0,0:0:0:0:
448,192,101411,1,0,0:0:0:0:
192,192,101411,1,4,0:0:0:0:
320,192,101489,1,4,0:0:0:0:
448,192,101567,1,0,0:0:0:0:
64,192,101567,1,4,0:0:0:0:
320,192,101723,1,0,0:0:0:0:
192,192,101723,1,4,0:0:0:0:
64,192,101880,1,4,0:0:0:0:
192,192,101880,1,0,0:0:0:0:
448,192,102036,1,0,0:0:0:0:
320,192,102036,1,4,0:0:0:0:
192,192,102192,128,0,102505:0:0:0:0:
320,192,102192,1,4,0:0:0:0:
448,192,102348,1,4,0:0:0:0:
64,192,102348,1,0,0:0:0:0:
320,192,102426,1,4,0:0:0:0:
64,192,102505,128,0,102817:0:0:0:0:
448,192,102505,1,4,0:0:0:0:
448,192,102817,128,0,103130:0:0:0:0:
320,192,102817,1,8,0:0:0:0:
64,192,103130,128,0,103442:0:0:0:0:
320,192,103130,1,4,0:0:0:0:
448,192,103286,1,0,0:0:0:0:
192,192,103286,1,4,0:0:0:0:
448,192,103442,128,0,103755:0:0:0:0:
320,192,103442,1,8,0:0:0:0:
192,192,103598,1,4,0:0:0:0:
64,192,103598,1,0,0:0:0:0:
320,192,103676,1,4,0:0:0:0:
192,192,103755,1,4,0:0:0:0:
64,192,103755,1,0,0:0:0:0:
320,192,103911,1,0,0:0:0:0:
448,192,103989,1,0,0:0:0:0:
64,192,104067,1,0,0:0:0:0:
192,192,104145,1,0,0:0:0:0:
320,192,104223,1,4,0:0:0:0:
448,192,104223,1,0,0:0:0:0:
448,192,104380,1,0,0:0:0:0:
64,192,104380,1,8,0:0:0:0:
320,192,104458,1,0,0:0:0:0:
192,192,104536,1,0,0:0:0:0:
64,192,104614,1,0,0:0:0:0:
448,192,104692,1,0,0:0:0:0:
320,192,104848,1,0,0:0:0:0:
192,192,105005,1,4,0:0:0:0:
64,192,105005,1,0,0:0:0:0:
320,192,105083,1,0,0:0:0:0:
448,192,105161,1,0,0:0:0:0:
64,192,105239,1,0,0:0:0:0:
192,192,105317,1,0,0:0:0:0:
320,192,105395,1,0,0:0:0:0:
192,192,105473,1,0,0:0:0:0:
64,192,105551,1,0,0:0:0:0:
448,192,105630,1,0,0:0:0:0:
320,192,105630,1,4,0:0:0:0:
192,192,105708,1,0,0:0:0:0:
64,192,105786,1,0,0:0:0:0:
448,192,105864,1,0,0:0:0:0:
320,192,105942,1,0,0:0:0:0:
192,192,106020,1,0,0:0:0:0:
320,192,106098,1,0,0:0:0:0:
448,192,106176,1,0,0:0:0:0:
64,192,106255,1,0,0:0:0:0:
320,192,106411,1,4,0:0:0:0:
448,192,106411,1,0,0:0:0:0:
192,192,106567,1,4,0:0:0:0:
64,192,106567,1,0,0:0:0:0:
320,192,106723,128,4,106880:0:0:0:0:
64,192,106880,1,4,0:0:0:0:
448,192,106880,128,0,107192:0:0:0:0:
64,192,109245,1,4,0:0:0:0:
192,192,109295,1,4,0:0:0:0:
320,192,109345,1,4,0:0:0:0:
64,192,109395,1,0,0:0:0:0:
448,192,109395,1,8,0:0:0:0:
320,192,109470,1,0,0:0:0:0:
192,192,109545,1,0,0:0:0:0:
64,192,109620,1,0,0:0:0:0:
448,192,109695,1,0,0:0:0:0:
320,192,109770,1,0,0:0:0:0:
192,192,109845,1,0,0:0:0:0:
64,192,109920,1,0,0:0:0:0:
320,192,109995,1,8,0:0:0:0:
448,192,109995,1,0,0:0:0:0:
192,192,110145,1,8,0:0:0:0:
64,192,110145,1,0,0:0:0:0:
448,192,110295,1,0,0:0:0:0:
64,192,110445,1,0,0:0:0:0:
192,192,110520,1,0,0:0:0:0:
320,192,110595,1,0,0:0:0:0:
448,192,110745,1,0,0:0:0:0:
320,192,110820,1,0,0:0:0:0:
192,192,110895,1,0,0:0:0:0:
320,192,111045,1,0,0:0:0:0:
448,192,111120,1,0,0:0:0:0:
64,192,111195,1,0,0:0:0:0:
192,192,111345,1,0,0:0:0:0:
64,192,111420,1,0,0:0:0:0:
448,192,111495,1,0,0:0:0:0:
192,192,111645,1,0,0:0:0:0:
320,192,111720,1,0,0:0:0:0:
448,192,111795,1,0,0:0:0:0:
320,192,111945,1,4,0:0:0:0:
192,192,112020,1,4,0:0:0:0:
64,192,112095,1,8,0:0:0:0:
448,192,112095,1,0,0:0:0:0:
320,192,112170,1,0,0:0:0:0:
192,192,112245,1,0,0:0:0:0:
64,192,112320,1,0,0:0:0:0:
320,192,112395,1,8,0:0:0:0:
448,192,112395,1,0,0:0:0:0:
192,192,112545,1,8,0:0:0:0:
64,192,112545,1,0,0:0:0:0:
448,192,112695,1,0,0:0:0:0:
320,192,112845,1,0,0:0:0:0:
192,192,112920,1,0,0:0:0:0:
64,192,112995,1,0,0:0:0:0:
192,192,113145,1,0,0:0:0:0:
320,192,113220,1,0,0:0:0:0:
448,192,113295,1,0,0:0:0:0:
320,192,113445,1,4,0:0:0:0:
192,192,113520,1,4,0:0:0:0:
64,192,113595,1,8,0:0:0:0:
448,192,113595,1,0,0:0:0:0:
320,192,113670,1,4,0:0:0:0:
192,192,113670,1,0,0:0:0:0:
448,192,113745,1,4,0:0:0:0:
320,192,113820,1,4,0:0:0:0:
192,192,113895,1,0,0:0:0:0:
448,192,113895,1,8,0:0:0:0:
320,192,113970,1,4,0:0:0:0:
64,192,113970,1,0,0:0:0:0:
192,192,114045,1,4,0:0:0:0:
64,192,114120,1,4,0:0:0:0:
448,192,114195,1,0,0:0:0:0:
320,192,114195,1,8,0:0:0:0:
192,192,114270,1,4,0:0:0:0:
64,192,114345,1,4,0:0:0:0:
192,192,114420,1,4,0:0:0:0:
320,192,114495,1,8,0:0:0:0:
448,192,114495,1,0,0:0:0:0:
64,192,114570,1,4,0:0:0:0:
192,192,114645,1,4,0:0:0:0:
320,192,114720,1,4,0:0:0:0:
448,192,114795,1,8,0:0:0:0:
64,192,114795,1,0,0:0:0:0:
192,192,114945,1,0,0:0:0:0:
320,192,114945,1,8,0:0:0:0:
64,192,115095,1,0,0:0:0:0:
192,192,115245,1,0,0:0:0:0:
320,192,115320,1,0,0:0:0:0:
448,192,115395,1,0,0:0:0:0:
320,192,115545,1,0,0:0:0:0:
192,192,115620,1,0,0:0:0:0:
64,192,115695,1,0,0:0:0:0:
448,192,115845,1,0,0:0:0:0:
64,192,115920,1,0,0:0:0:0:
192,192,115995,1,4,0:0:0:0:
320,192,115995,1,0,0:0:0:0:
64,192,116145,1,0,0:0:0:0:
192,192,116145,1,4,0:0:0:0:
448,192,116220,1,0,0:0:0:0:
320,192,116295,1,8,0:0:0:0:
192,192,116295,1,0,0:0:0:0:
64,192,116445,1,4,0:0:0:0:
192,192,116520,1,4,0:0:0:0:
320,192,116595,1,4,0:0:0:0:
448,192,116595,1,0,0:0:0:0:
192,192,116670,1,0,0:0:0:0:
64,192,116670,1,8,0:0:0:0:
320,192,116770,1,4,0:0:0:0:
448,192,116895,1,0,0:0:0:0:
192,192,116895,1,8,0:0:0:0:
64,192,116995,1,4,0:0:0:0:
192,192,117095,1,0,0:0:0:0:
320,192,117095,1,4,0:0:0:0:
448,192,117195,1,8,0:0:0:0:
64,192,117195,1,0,0:0:0:0:
320,192,117345,1,8,0:0:0:0:
192,192,117345,1,0,0:0:0:0:
448,192,117645,1,8,0:0:0:0:
64,192,117645,1,0,0:0:0:0:
64,192,117795,1,0,0:0:0:0:
448,192,117795,1,8,0:0:0:0:
320,192,118095,1,8,0:0:0:0:
192,192,118095,1,0,0:0:0:0:
192,192,118245,1,0,0:0:0:0:
320,192,118245,1,8,0:0:0:0:
448,192,118695,128,2,118795:0:0:0:0:
320,192,118795,128,2,118895:0:0:0:0:
192,192,118895,128,2,118995:0:0:0:0:
64,192,118995,128,2,119095:0:0:0:0:
448,192,119095,128,2,119195:0:0:0:0:
320,192,119195,128,2,119295:0:0:0:0:
192,192,119295,128,2,119595:0:0:0:0:
64,192,119595,1,0,0:0:0:0:
448,192,119595,1,4,0:0:0:0:
320,192,119745,1,2,0:0:0:0:
192,192,119895,1,8,0:0:0:0:
64,192,119895,1,0,0:0:0:0:
448,192,120045,1,2,0:0:0:0:
64,192,120195,1,2,0:0:0:0:
192,192,120345,1,0,0:0:0:0:
320,192,120345,1,4,0:0:0:0:
64,192,120495,1,0,0:0:0:0:
448,192,120495,1,8,0:0:0:0:
320,192,120645,1,2,0:0:0:0:
192,192,120795,1,4,0:0:0:0:
64,192,120795,1,0,0:0:0:0:
320,192,120945,1,2,0:0:0:0:
448,192,121095,1,0,0:0:0:0:
64,192,121095,1,8,0:0:0:0:
192,192,121245,1,2,0:0:0:0:
320,192,121395,1,2,0:0:0:0:
64,192,121545,1,0,0:0:0:0:
448,192,121545,1,4,0:0:0:0:
320,192,121695,1,0,0:0:0:0:
192,192,121695,1,8,0:0:0:0:
64,192,121845,1,2,0:0:0:0:
448,192,121995,1,0,0:0:0:0:
320,192,121995,1,4,0:0:0:0:
192,192,122145,1,2,0:0:0:0:
64,192,122295,1,8,0:0:0:0:
448,192,122295,1,0,0:0:0:0:
320,192,122445,1,2,0:0:0:0:
448,192,122595,1,2,0:0:0:0:
64,192,122745,1,0,0:0:0:0:
192,192,122745,1,4,0:0:0:0:
448,192,122895,1,0,0:0:0:0:
320,192,122895,1,8,0:0:0:0:
192,192,123045,1,2,0:0:0:0:
64,192,123195,1,0,0:0:0:0:
448,192,123195,1,4,0:0:0:0:
192,192,123345,1,2,0:0:0:0:
448,192,123495,1,8,0:0:0:0:
64,192,123495,128,0,123795:0:0:0:0:
320,192,123645,1,2,0:0:0:0:
192,192,123795,1,2,0:0:0:0:
448,192,123795,128,0,124245:0:0:0:0:
320,192,123945,1,4,0:0:0:0:
64,192,123945,1,0,0:0:0:0:
192,192,124095,1,0,0:0:0:0:
64,192,124095,1,8,0:0:0:0:
320,192,124245,1,2,0:0:0:0:
448,192,124395,1,0,0:0:0:0:
64,192,124395,1,4,0:0:0:0:
192,192,124545,1,2,0:0:0:0:
64,192,124695,1,0,0:0:0:0:
320,192,124695,1,8,0:0:0:0:
448,192,124845,1,2,0:0:0:0:
64,192,124995,1,2,0:0:0:0:
192,192,125145,1,0,0:0:0:0:
320,192,125145,1,4,0:0:0:0:
448,192,125295,1,8,0:0:0:0:
64,192,125295,1,0,0:0:0:0:
320,192,125445,1,2,0:0:0:0:
192,192,125595,1,4,0:0:0:0:
64,192,125595,1,0,0:0:0:0:
320,192,125745,1,2,0:0:0:0:
448,192,125895,1,8,0:0:0:0:
64,192,125895,1,0,0:0:0:0:
192,192,126045,1,2,0:0:0:0:
320,192,126195,1,2,0:0:0:0:
448,192,126345,1,0,0:0:0:0:
64,192,126345,1,4,0:0:0:0:
192,192,126495,1,0,0:0:0:0:
320,192,126495,1,8,0:0:0:0:
64,192,126645,1,2,0:0:0:0:
448,192,126795,1,0,0:0:0:0:
320,192,126795,1,4,0:0:0:0:
192,192,126945,1,2,0:0:0:0:
64,192,127095,1,8,0:0:0:0:
448,192,127095,1,0,0:0:0:0:
320,192,127245,1,2,0:0:0:0:
192,192,127395,1,2,0:0:0:0:
64,192,127545,1,0,0:0:0:0:
320,192,127545,1,4,0:0:0:0:
448,192,127695,1,0,0:0:0:0:
192,192,127695,1,8,0:0:0:0:
320,192,127845,1,2,0:0:0:0:
448,192,127995,1,4,0:0:0:0:
64,192,127995,1,0,0:0:0:0:
320,192,128145,1,2,0:0:0:0:
448,192,128295,1,0,0:0:0:0:
192,192,128295,1,4,0:0:0:0:
64,192,128445,1,2,0:0:0:0:
320,192,128595,1,4,0:0:0:0:
192,192,128595,1,0,0:0:0:0:
448,192,128745,1,0,0:0:0:0:
320,192,128745,1,8,0:0:0:0:
192,192,128820,1,8,0:0:0:0:
64,192,128820,1,0,0:0:0:0:
448,192,128895,1,0,0:0:0:0:
320,192,128895,1,8,0:0:0:0:
192,192,128970,1,8,0:0:0:0:
64,192,128970,1,0,0:0:0:0:
320,192,129045,1,8,0:0:0:0:
448,192,129045,1,0,0:0:0:0:
64,192,129195,1,0,0:0:0:0:
192,192,129195,1,4,0:0:0:0:
320,192,129345,1,2,0:0:0:0:
448,192,129495,1,0,0:0:0:0:
64,192,129495,1,8,0:0:0:0:
320,192,129645,1,2,0:0:0:0:
192,192,129795,1,4,0:0:0:0:
64,192,129795,1,0,0:0:0:0:
320,192,129945,1,2,0:0:0:0:
448,192,130095,1,0,0:0:0:0:
192,192,130095,1,8,0:0:0:0:
64,192,130245,1,2,0:0:0:0:
320,192,130395,1,4,0:0:0:0:
192,192,130395,1,0,0:0:0:0:
448,192,130545,1,2,0:0:0:0:
64,192,130695,1,0,0:0:0:0:
192,192,130695,1,8,0:0:0:0:
320,192,130845,1,2,0:0:0:0:
448,192,130995,1,4,0:0:0:0:
64,192,130995,1,0,0:0:0:0:
192,192,131145,1,2,0:0:0:0:
320,192,131295,1,8,0:0:0:0:
448,192,131295,1,0,0:0:0:0:
192,192,131445,1,2,0:0:0:0:
64,192,131595,1,0,0:0:0:0:
448,192,131595,1,4,0:0:0:0:
192,192,131745,1,2,0:0:0:0:
64,192,131895,1,8,0:0:0:0:
320,192,131895,1,0,0:0:0:0:
448,192,132045,1,2,0:0:0:0:
320,192,132195,1,0,0:0:0:0:
192,192,132195,1,4,0:0:0:0:
64,192,132345,1,2,0:0:0:0:
448,192,132495,1,0,0:0:0:0:
192,192,132495,1,8,0:0:0:0:
320,192,132645,1,2,0:0:0:0:
448,192,132795,1,0,0:0:0:0:
64,192,132795,1,4,0:0:0:0:
320,192,132945,1,2,0:0:0:0:
192,192,133095,128,0,133395:0:0:0:0:
64,192,133095,1,8,0:0:0:0:
448,192,133245,1,2,0:0:0:0:
320,192,133395,128,0,133845:0:0:0:0:
64,192,133395,1,4,0:0:0:0:
192,192,133545,1,2,0:0:0:0:
448,192,133695,1,8,0:0:0:0:
64,192,133695,1,0,0:0:0:0:
192,192,133845,1,2,0:0:0:0:
448,192,133995,1,4,0:0:0:0:
320,192,134032,1,4,0:0:0:0:
192,192,134070,1,4,0:0:0:0:
64,192,134145,1,4,0:0:0:0:
448,192,134220,1,4,0:0:0:0:
192,192,134295,1,8,0:0:0:0:
64,192,134295,1,0,0:0:0:0:
320,192,134445,1,2,0:0:0:0:
448,192,134595,1,4,0:0:0:0:
64,192,134595,1,0,0:0:0:0:
192,192,134745,1,2,0:0:0:0:
320,192,134895,1,8,0:0:0:0:
448,192,134895,1,0,0:0:0:0:
192,192,135045,1,2,0:0:0:0:
64,192,135195,1,4,0:0:0:0:
320,192,135195,1,0,0:0:0:0:
448,192,135345,1,2,0:0:0:0:
192,192,135495,1,8,0:0:0:0:
64,192,135495,1,0,0:0:0:0:
320,192,135645,1,2,0:0:0:0:
192,192,135795,1,4,0:0:0:0:
64,192,135795,1,0,0:0:0:0:
448,192,135870,1,4,0:0:0:0:
192,192,135945,1,0,0:0:0:0:
320,192,135945,1,8,0:0:0:0:
448,192,136020,1,8,0:0:0:0:
64,192,136020,1,0,0:0:0:0:
192,192,136095,1,0,0:0:0:0:
320,192,136095,1,8,0:0:0:0:
448,192,136170,1,8,0:0:0:0:
64,192,136170,1,0,0:0:0:0:
192,192,136245,1,0,0:0:0:0:
320,192,136245,1,8,0:0:0:0:
448,192,136320,1,4,0:0:0:0:
192,192,136395,1,4,0:0:0:0:
64,192,136395,1,0,0:0:0:0:
448,192,136470,1,0,0:0:0:0:
320,192,136470,1,4,0:0:0:0:
192,192,136545,1,4,0:0:0:0:
64,192,136545,1,0,0:0:0:0:
448,192,136620,1,0,0:0:0:0:
320,192,136620,1,4,0:0:0:0:
64,192,136695,1,4,0:0:0:0:
192,192,136695,1,0,0:0:0:0:
448,192,136845,1,0,0:0:0:0:
320,192,136845,1,4,0:0:0:0:
192,192,136920,1,4,0:0:0:0:
64,192,136920,1,0,0:0:0:0:
320,192,136995,1,4,0:0:0:0:
448,192,136995,1,0,0:0:0:0:
64,192,137070,1,0,0:0:0:0:
192,192,137070,1,4,0:0:0:0:
320,192,137145,1,4,0:0:0:0:
448,192,137145,1,0,0:0:0:0:
320,192,137295,1,4,0:0:0:0:
64,192,137295,1,0,0:0:0:0:
192,192,137370,1,4,0:0:0:0:
448,192,137370,1,0,0:0:0:0:
320,192,137445,1,4,0:0:0:0:
64,192,137445,1,0,0:0:0:0:
192,192,137520,1,4,0:0:0:0:
448,192,137520,1,0,0:0:0:0:
64,192,137595,1,0,0:0:0:0:
320,192,137595,1,4,0:0:0:0:
64,192,137745,1,0,0:0:0:0:
192,192,137745,1,4,0:0:0:0:
320,192,137820,1,4,0:0:0:0:
448,192,137820,1,0,0:0:0:0:
192,192,137895,1,4,0:0:0:0:
64,192,137895,1,0,0:0:0:0:
320,192,137970,1,4,0:0:0:0:
448,192,137970,1,0,0:0:0:0:
192,192,138045,1,4,0:0:0:0:
64,192,138045,1,0,0:0:0:0:
192,192,138195,1,0,0:0:0:0:
448,192,138195,1,4,0:0:0:0:
64,192,138270,1,4,0:0:0:0:
320,192,138270,1,0,0:0:0:0:
448,192,138345,1,4,0:0:0:0:
192,192,138345,1,0,0:0:0:0:
64,192,138420,1,4,0:0:0:0:
320,192,138420,1,0,0:0:0:0:
448,192,138495,1,4,0:0:0:0:
192,192,138495,1,0,0:0:0:0:
320,192,138645,1,4,0:0:0:0:
448,192,138645,128,0,139995:0:0:0:0:
64,192,139095,1,0,0:0:0:0:
192,192,139245,1,0,0:0:0:0:
320,192,139395,1,0,0:0:0:0:
192,192,139470,1,0,0:0:0:0:
64,192,139545,1,0,0:0:0:0:
192,192,139620,1,0,0:0:0:0:
320,192,139695,128,0,139995:0:0:0:0:
64,192,139995,1,0,0:0:0:0:
192,192,139995,1,8,0:0:0:0:
448,192,140145,128,2,140295:0:0:0:0:
64,192,140295,128,2,140445:0:0:0:0:
320,192,140295,1,8,0:0:0:0:
192,192,140445,128,2,140595:0:0:0:0:
320,192,140595,128,2,140745:0:0:0:0:
448,192,140595,1,8,0:0:0:0:
192,192,140745,128,2,140895:0:0:0:0:
320,192,140895,128,2,141045:0:0:0:0:
64,192,140895,1,4,0:0:0:0:
448,192,141045,128,2,141195:0:0:0:0:
192,192,141045,1,4,0:0:0:0:
64,192,141195,1,0,0:0:0:0:
320,192,141195,1,4,0:0:0:0:
192,192,141345,1,2,0:0:0:0:
320,192,141495,1,8,0:0:0:0:
448,192,141495,1,0,0:0:0:0:
192,192,141645,1,2,0:0:0:0:
64,192,141795,1,4,0:0:0:0:
448,192,141795,1,0,0:0:0:0:
320,192,141945,1,2,0:0:0:0:
192,192,142095,1,8,0:0:0:0:
448,192,142095,1,0,0:0:0:0:
64,192,142245,1,2,0:0:0:0:
192,192,142395,1,4,0:0:0:0:
320,192,142395,1,0,0:0:0:0:
448,192,142545,1,2,0:0:0:0:
64,192,142695,1,0,0:0:0:0:
320,192,142695,1,8,0:0:0:0:
192,192,142845,1,2,0:0:0:0:
448,192,142995,1,4,0:0:0:0:
64,192,142995,1,0,0:0:0:0:
320,192,143145,1,2,0:0:0:0:
192,192,143295,1,8,0:0:0:0:
64,192,143295,1,0,0:0:0:0:
64,192,143445,1,2,0:0:0:0:
192,192,143520,1,0,0:0:0:0:
320,192,143595,1,0,0:0:0:0:
448,192,143595,1,4,0:0:0:0:
64,192,143745,1,2,0:0:0:0:
320,192,143895,1,0,0:0:0:0:
192,192,143895,1,8,0:0:0:0:
448,192,144045,1,2,0:0:0:0:
64,192,144195,1,4,0:0:0:0:
192,192,144195,1,0,0:0:0:0:
320,192,144345,1,2,0:0:0:0:
448,192,144495,1,8,0:0:0:0:
64,192,144495,1,0,0:0:0:0:
192,192,144645,1,2,0:0:0:0:
448,192,144795,1,4,0:0:0:0:
64,192,144795,1,0,0:0:0:0:
320,192,144945,1,2,0:0:0:0:
64,192,145095,1,0,0:0:0:0:
192,192,145095,1,8,0:0:0:0:
320,192,145245,1,2,0:0:0:0:
64,192,145395,1,0,0:0:0:0:
448,192,145395,1,4,0:0:0:0:
192,192,145545,1,2,0:0:0:0:
320,192,145695,1,8,0:0:0:0:
448,192,145695,1,0,0:0:0:0:
192,192,145845,1,2,0:0:0:0:
64,192,145995,1,4,0:0:0:0:
320,192,145995,1,0,0:0:0:0:
448,192,146145,1,2,0:0:0:0:
320,192,146295,1,8,0:0:0:0:
192,192,146295,1,0,0:0:0:0:
64,192,146445,1,2,0:0:0:0:
448,192,146595,1,0,0:0:0:0:
192,192,146595,1,4,0:0:0:0:
320,192,146745,1,2,0:0:0:0:
448,192,146895,1,0,0:0:0:0:
64,192,146895,1,8,0:0:0:0:
192,192,147045,1,2,0:0:0:0:
64,192,147195,1,0,0:0:0:0:
320,192,147195,1,4,0:0:0:0:
448,192,147345,1,2,0:0:0:0:
320,192,147495,1,0,0:0:0:0:
192,192,147495,1,8,0:0:0:0:
64,192,147645,1,2,0:0:0:0:
448,192,147795,1,0,0:0:0:0:
192,192,147795,1,4,0:0:0:0:
320,192,147945,1,2,0:0:0:0:
448,192,148095,1,0,0:0:0:0:
64,192,148095,1,8,0:0:0:0:
448,192,148245,1,2,0:0:0:0:
320,192,148320,1,0,0:0:0:0:
64,192,148395,1,0,0:0:0:0:
192,192,148395,1,4,0:0:0:0:
64,192,148545,1,2,0:0:0:0:
448,192,148695,1,0,0:0:0:0:
320,192,148695,1,8,0:0:0:0:
192,192,148845,1,2,0:0:0:0:
64,192,148995,1,0,0:0:0:0:
448,192,148995,1,4,0:0:0:0:
320,192,149070,1,4,0:0:0:0:
192,192,149070,1,0,0:0:0:0:
64,192,149145,1,0,0:0:0:0:
448,192,149145,1,8,0:0:0:0:
448,192,149295,1,8,0:0:0:0:
64,192,149295,1,0,0:0:0:0:
192,192,149445,1,0,0:0:0:0:
320,192,149445,1,4,0:0:0:0:
64,192,149595,1,4,0:0:0:0:
448,192,149745,128,2,150045:0:0:0:0:
320,192,149745,1,0,0:0:0:0:
192,192,150195,128,2,150345:0:0:0:0:
64,192,150195,1,0,0:0:0:0:
320,192,150495,128,2,150645:0:0:0:0:
448,192,150495,1,0,0:0:0:0:
64,192,150795,1,0,0:0:0:0:
448,192,150795,1,4,0:0:0:0:
192,192,150795,1,0,0:0:0:0:
320,192,150945,1,2,0:0:0:0:
192,192,151095,1,8,0:0:0:0:
64,192,151095,1,0,0:0:0:0:
320,192,151245,1,2,0:0:0:0:
448,192,151395,1,0,0:0:0:0:
192,192,151395,1,4,0:0:0:0:
64,192,151545,1,2,0:0:0:0:
192,192,151695,1,0,0:0:0:0:
320,192,151695,1,8,0:0:0:0:
448,192,151845,1,2,0:0:0:0:
320,192,151995,1,4,0:0:0:0:
64,192,151995,1,0,0:0:0:0:
192,192,152145,1,2,0:0:0:0:
64,192,152295,1,8,0:0:0:0:
448,192,152295,1,0,0:0:0:0:
192,192,152445,1,2,0:0:0:0:
320,192,152595,1,4,0:0:0:0:
448,192,152595,1,0,0:0:0:0:
192,192,152745,1,2,0:0:0:0:
64,192,152895,1,8,0:0:0:0:
320,192,152895,1,0,0:0:0:0:
448,192,153045,1,2,0:0:0:0:
320,192,153120,1,0,0:0:0:0:
192,192,153195,1,4,0:0:0:0:
64,192,153195,1,0,0:0:0:0:
320,192,153345,1,2,0:0:0:0:
448,192,153495,1,8,0:0:0:0:
64,192,153495,1,0,0:0:0:0:
320,192,153645,1,2,0:0:0:0:
192,192,153795,1,4,0:0:0:0:
64,192,153795,1,0,0:0:0:0:
320,192,153945,1,2,0:0:0:0:
64,192,154095,1,8,0:0:0:0:
448,192,154095,1,0,0:0:0:0:
192,192,154245,1,2,0:0:0:0:
320,192,154395,1,4,0:0:0:0:
448,192,154395,1,0,0:0:0:0:
192,192,154545,1,2,0:0:0:0:
64,192,154695,1,8,0:0:0:0:
448,192,154695,1,0,0:0:0:0:
320,192,154845,1,2,0:0:0:0:
192,192,154995,1,4,0:0:0:0:
64,192,154995,1,0,0:0:0:0:
320,192,155145,1,2,0:0:0:0:
448,192,155295,1,8,0:0:0:0:
64,192,155295,1,0,0:0:0:0:
192,192,155445,1,2,0:0:0:0:
320,192,155595,1,4,0:0:0:0:
448,192,155595,1,0,0:0:0:0:
192,192,155745,1,2,0:0:0:0:
448,192,155895,1,8,0:0:0:0:
64,192,155895,128,0,156495:0:0:0:0:
320,192,156045,1,2,0:0:0:0:
192,192,156195,1,4,0:0:0:0:
448,192,156195,1,0,0:0:0:0:
320,192,156345,1,2,0:0:0:0:
192,192,156495,1,0,0:0:0:0:
448,192,156495,1,8,0:0:0:0:
320,192,156645,1,2,0:0:0:0:
448,192,156795,1,4,0:0:0:0:
64,192,156795,1,0,0:0:0:0:
320,192,156870,1,0,0:0:0:0:
192,192,156945,1,2,0:0:0:0:
320,192,157020,1,0,0:0:0:0:
448,192,157095,1,8,0:0:0:0:
64,192,157095,1,0,0:0:0:0:
320,192,157170,1,0,0:0:0:0:
192,192,157245,1,4,0:0:0:0:
64,192,157245,1,0,0:0:0:0:
320,192,157320,1,0,0:0:0:0:
448,192,157320,1,4,0:0:0:0:
64,192,157395,1,8,0:0:0:0:
192,192,157395,1,0,0:0:0:0:
448,192,157470,1,0,0:0:0:0:
64,192,157545,1,0,0:0:0:0:
320,192,157545,1,4,0:0:0:0:
192,192,157620,1,0,0:0:0:0:
64,192,157695,1,0,0:0:0:0:
448,192,157695,1,8,0:0:0:0:
192,192,157770,1,0,0:0:0:0:
320,192,157845,1,2,0:0:0:0:
448,192,157920,1,0,0:0:0:0:
192,192,157995,1,4,0:0:0:0:
64,192,157995,128,0,158295:0:0:0:0:
448,192,158295,1,8,0:0:0:0:
192,192,158295,1,0,0:0:0:0:
448,192,158595,128,0,158895:0:0:0:0:
320,192,158595,1,4,0:0:0:0:
64,192,158895,1,8,0:0:0:0:
320,192,158895,1,0,0:0:0:0:
192,192,159195,128,0,159495:0:0:0:0:
320,192,159195,1,4,0:0:0:0:
448,192,159495,1,0,0:0:0:0:
64,192,159495,1,8,0:0:0:0:
64,192,159795,1,0,0:0:0:0:
192,192,159945,1,0,0:0:0:0:
320,192,159945,1,4,0:0:0:0:
448,192,160245,1,4,0:0:0:0:
64,192,160245,1,0,0:0:0:0:
64,192,160545,1,0,0:0:0:0:
320,192,160545,1,4,0:0:0:0:
192,192,160695,1,8,0:0:0:0:
448,192,160695,1,0,0:0:0:0:
64,192,160845,1,2,0:0:0:0:
448,192,160995,1,0,0:0:0:0:
192,192,160995,1,4,0:0:0:0:
320,192,161145,1,2,0:0:0:0:
192,192,161295,1,4,0:0:0:0:
64,192,161295,1,0,0:0:0:0:
448,192,161445,1,2,0:0:0:0:
320,192,161895,1,8,0:0:0:0:
64,192,161895,1,0,0:0:0:0:
448,192,161895,128,0,162345:0:0:0:0:
64,192,162345,1,0,0:0:0:0:
192,192,162345,1,8,0:0:0:0:
192,192,162495,1,0,0:0:0:0:
320,192,162495,1,8,0:0:0:0:
448,192,162645,1,0,0:0:0:0:
320,192,162645,1,8,0:0:0:0:
64,192,162795,1,4,0:0:0:0:
448,192,162795,1,0,0:0:0:0:
192,192,162945,1,2,0:0:0:0:
320,192,163095,1,8,0:0:0:0:
448,192,163095,1,0,0:0:0:0:
192,192,163245,1,2,0:0:0:0:
64,192,163395,1,2,0:0:0:0:
448,192,163545,1,0,0:0:0:0:
192,192,163545,1,4,0:0:0:0:
320,192,163695,1,8,0:0:0:0:
64,192,163695,1,0,0:0:0:0:
192,192,163845,1,2,0:0:0:0:
320,192,163995,1,4,0:0:0:0:
448,192,163995,1,0,0:0:0:0:
64,192,164145,1,2,0:0:0:0:
192,192,164295,1,8,0:0:0:0:
448,192,164295,1,0,0:0:0:0:
320,192,164445,1,2,0:0:0:0:
64,192,164595,1,2,0:0:0:0:
192,192,164745,128,0,164895:0:0:0:0:
448,192,164745,1,4,0:0:0:0:
320,192,164895,128,0,165045:0:0:0:0:
64,192,164895,1,8,0:0:0:0:
448,192,165045,128,0,165195:0:0:0:0:
192,192,165045,1,2,0:0:0:0:
64,192,165195,1,0,0:0:0:0:
320,192,165195,1,4,0:0:0:0:
192,192,165345,1,2,0:0:0:0:
64,192,165495,1,0,0:0:0:0:
448,192,165495,1,8,0:0:0:0:
320,192,165645,1,2,0:0:0:0:
64,192,165795,1,2,0:0:0:0:
320,192,165945,1,0,0:0:0:0:
192,192,165945,1,4,0:0:0:0:
64,192,166095,1,8,0:0:0:0:
448,192,166095,1,0,0:0:0:0:
192,192,166245,1,2,0:0:0:0:
64,192,166395,1,0,0:0:0:0:
320,192,166395,1,4,0:0:0:0:
448,192,166545,1,2,0:0:0:0:
320,192,166695,1,0,0:0:0:0:
192,192,166695,1,8,0:0:0:0:
64,192,166845,1,2,0:0:0:0:
192,192,166995,1,2,0:0:0:0:
64,192,167145,128,0,167295:0:0:0:0:
320,192,167145,1,4,0:0:0:0:
192,192,167295,128,0,167445:0:0:0:0:
448,192,167295,1,8,0:0:0:0:
320,192,167445,1,2,0:0:0:0:
64,192,167595,1,0,0:0:0:0:
448,192,167595,1,4,0:0:0:0:
448,192,167745,1,4,0:0:0:0:
64,192,167745,1,0,0:0:0:0:
448,192,168045,1,4,0:0:0:0:
64,192,168045,128,0,168495:0:0:0:0:
448,192,168495,1,8,0:0:0:0:
320,192,168570,1,8,0:0:0:0:
192,192,168645,1,8,0:0:0:0:
64,192,168795,1,0,0:0:0:0:
320,192,168795,1,4,0:0:0:0:
64,192,168945,1,0,0:0:0:0:
320,192,168945,1,4,0:0:0:0:
448,192,169245,1,4,0:0:0:0:
64,192,169245,128,0,169695:0:0:0:0:
448,192,169545,1,8,0:0:0:0:
192,192,169620,1,8,0:0:0:0:
320,192,169695,1,8,0:0:0:0:
448,192,169770,1,8,0:0:0:0:
64,192,169995,1,0,0:0:0:0:
192,192,169995,1,4,0:0:0:0:
320,192,170145,1,2,0:0:0:0:
448,192,170295,1,0,0:0:0:0:
192,192,170295,1,8,0:0:0:0:
64,192,170445,1,2,0:0:0:0:
320,192,170595,1,4,0:0:0:0:
192,192,170595,1,0,0:0:0:0:
448,192,170745,1,2,0:0:0:0:
320,192,170895,1,0,0:0:0:0:
192,192,170895,1,8,0:0:0:0:
64,192,171045,1,2,0:0:0:0:
448,192,171195,1,0,0:0:0:0:
320,192,171195,1,4,0:0:0:0:
192,192,171345,1,2,0:0:0:0:
64,192,171495,1,0,0:0:0:0:
448,192,171495,1,8,0:0:0:0:
320,192,171645,1,2,0:0:0:0:
192,192,171795,1,4,0:0:0:0:
64,192,171795,1,0,0:0:0:0:
320,192,171945,1,2,0:0:0:0:
448,192,172095,1,8,0:0:0:0:
64,192,172095,1,0,0:0:0:0:
192,192,172245,1,2,0:0:0:0:
320,192,172395,1,4,0:0:0:0:
448,192,172395,1,0,0:0:0:0:
192,192,172545,1,2,0:0:0:0:
64,192,172695,1,0,0:0:0:0:
320,192,172695,1,8,0:0:0:0:
448,192,172845,1,2,0:0:0:0:
320,192,172995,1,0,0:0:0:0:
192,192,172995,1,4,0:0:0:0:
64,192,173145,1,2,0:0:0:0:
448,192,173295,1,0,0:0:0:0:
192,192,173295,1,8,0:0:0:0:
320,192,173445,1,2,0:0:0:0:
448,192,173595,1,0,0:0:0:0:
64,192,173595,1,4,0:0:0:0:
192,192,173745,1,2,0:0:0:0:
320,192,173895,1,8,0:0:0:0:
448,192,173895,1,0,0:0:0:0:
192,192,174045,1,2,0:0:0:0:
64,192,174195,1,0,0:0:0:0:
320,192,174195,1,4,0:0:0:0:
448,192,174345,1,2,0:0:0:0:
320,192,174495,1,8,0:0:0:0:
192,192,174495,1,0,0:0:0:0:
64,192,174645,1,2,0:0:0:0:
320,192,174795,128,2,175095:0:0:0:0:
448,192,174795,1,4,0:0:0:0:
64,192,175245,1,4,0:0:0:0:
192,192,175320,1,4,0:0:0:0:
320,192,175395,128,2,175695:0:0:0:0:
448,192,175395,1,8,0:0:0:0:
192,192,175545,1,4,0:0:0:0:
64,192,175845,1,0,0:0:0:0:
448,192,175845,1,4,0:0:0:0:
320,192,175995,128,2,176295:0:0:0:0:
192,192,176145,1,4,0:0:0:0:
448,192,176220,1,4,0:0:0:0:
64,192,176295,1,4,0:0:0:0:
192,192,176370,1,4,0:0:0:0:
320,192,176445,1,4,0:0:0:0:
448,192,176520,1,4,0:0:0:0:
192,192,176595,1,8,0:0:0:0:
64,192,176595,1,0,0:0:0:0:
320,192,177195,1,4,0:0:0:0:
192,192,177195,1,0,0:0:0:0:
448,192,177645,1,4,0:0:0:0:
320,192,177720,1,4,0:0:0:0:
192,192,177795,1,8,0:0:0:0:
64,192,177795,1,0,0:0:0:0:
320,192,177945,1,0,0:0:0:0:
192,192,177945,1,4,0:0:0:0:
448,192,178245,1,4,0:0:0:0:
64,192,178245,1,0,0:0:0:0:
320,192,178545,1,4,0:0:0:0:
448,192,178620,1,4,0:0:0:0:
64,192,178695,1,4,0:0:0:0:
192,192,178770,1,4,0:0:0:0:
320,192,178845,1,4,0:0:0:0:
448,192,178920,1,4,0:0:0:0:
192,192,178995,1,8,0:0:0:0:
64,192,178995,1,0,0:0:0:0:
448,192,179070,1,8,0:0:0:0:
320,192,179145,1,8,0:0:0:0:
192,192,179220,1,8,0:0:0:0:
64,192,179295,128,4,179595:0:0:0:0:
448,192,179595,128,0,180045:0:0:0:0:
192,192,179595,128,4,179895:0:0:0:0:
64,192,179895,128,2,180045:0:0:0:0:
320,192,180045,128,2,180345:0:0:0:0:
192,192,180345,1,0,0:0:0:0:
448,192,180345,1,4,0:0:0:0:
320,192,180645,128,4,180945:0:0:0:0:
448,192,180645,128,0,181095:0:0:0:0:
64,192,180945,128,2,181095:0:0:0:0:
192,192,181095,128,2,181245:0:0:0:0:
320,192,181245,128,2,181545:0:0:0:0:
64,192,181545,1,0,0:0:0:0:
448,192,181545,1,4,0:0:0:0:
64,192,181845,128,0,182295:0:0:0:0:
448,192,181845,128,4,182145:0:0:0:0:
192,192,182145,128,2,182295:0:0:0:0:
320,192,182295,128,2,182445:0:0:0:0:
448,192,182445,128,2,182745:0:0:0:0:
64,192,182745,1,4,0:0:0:0:
192,192,182745,128,0,183045:0:0:0:0:
320,192,183045,1,0,0:0:0:0:
448,192,183195,1,8,0:0:0:0:
64,192,183195,1,0,0:0:0:0:
320,192,183345,1,4,0:0:0:0:
192,192,183345,1,0,0:0:0:0:
448,192,183645,1,0,0:0:0:0:
320,192,183645,1,4,0:0:0:0:
192,192,183945,1,4,0:0:0:0:
64,192,183945,1,0,0:0:0:0:
448,192,184245,1,0,0:0:0:0:
64,192,184245,1,0,0:0:0:0:
320,192,184245,1,4,0:0:0:0:
320,192,184545,1,4,0:0:0:0:
192,192,184545,1,0,0:0:0:0:
448,192,184695,1,8,0:0:0:0:
64,192,184695,1,0,0:0:0:0:
320,192,184845,1,2,0:0:0:0:
192,192,184995,1,4,0:0:0:0:
64,192,184995,1,0,0:0:0:0:
320,192,185145,1,2,0:0:0:0:
448,192,185295,1,8,0:0:0:0:
64,192,185295,1,0,0:0:0:0:
192,192,185445,1,2,0:0:0:0:
448,192,185595,1,0,0:0:0:0:
320,192,185595,1,4,0:0:0:0:
192,192,185745,1,2,0:0:0:0:
64,192,185895,1,0,0:0:0:0:
320,192,185895,1,8,0:0:0:0:
448,192,186045,1,2,0:0:0:0:
320,192,186195,1,0,0:0:0:0:
192,192,186195,1,4,0:0:0:0:
64,192,186345,1,2,0:0:0:0:
448,192,186495,1,8,0:0:0:0:
192,192,186495,1,0,0:0:0:0:
320,192,186645,1,2,0:0:0:0:
448,192,186795,1,0,0:0:0:0:
64,192,186795,1,4,0:0:0:0:
320,192,186945,1,2,0:0:0:0:
64,192,187095,1,0,0:0:0:0:
192,192,187095,1,0,0:0:0:0:
448,192,187095,1,8,0:0:0:0:
320,192,187245,1,2,0:0:0:0:
448,192,187395,1,4,0:0:0:0:
64,192,187395,1,0,0:0:0:0:
192,192,187545,1,2,0:0:0:0:
448,192,187695,1,0,0:0:0:0:
64,192,187695,1,8,0:0:0:0:
320,192,187695,1,0,0:0:0:0:
192,192,187845,1,2,0:0:0:0:
320,192,187995,1,4,0:0:0:0:
448,192,187995,1,0,0:0:0:0:
192,192,188145,1,2,0:0:0:0:
64,192,188295,1,8,0:0:0:0:
448,192,188295,1,0,0:0:0:0:
320,192,188445,1,2,0:0:0:0:
64,192,188595,1,0,0:0:0:0:
192,192,188595,1,4,0:0:0:0:
320,192,188745,1,2,0:0:0:0:
448,192,188895,1,8,0:0:0:0:
192,192,188895,1,0,0:0:0:0:
64,192,189045,1,2,0:0:0:0:
320,192,189195,1,4,0:0:0:0:
448,192,189195,1,0,0:0:0:0:
192,192,189345,1,2,0:0:0:0:
64,192,189495,1,8,0:0:0:0:
448,192,189495,1,0,0:0:0:0:
64,192,189645,1,2,0:0:0:0:
448,192,189795,1,4,0:0:0:0:
192,192,189795,1,0,0:0:0:0:
192,192,189945,1,2,0:0:0:0:
448,192,190095,1,8,0:0:0:0:
320,192,190095,1,0,0:0:0:0:
320,192,190245,1,2,0:0:0:0:
448,192,190395,1,0,0:0:0:0:
192,192,190395,1,4,0:0:0:0:
64,192,190545,1,2,0:0:0:0:
192,192,190695,1,0,0:0:0:0:
448,192,190695,1,8,0:0:0:0:
320,192,190845,1,2,0:0:0:0:
448,192,190995,1,0,0:0:0:0:
64,192,190995,1,4,0:0:0:0:
192,192,191145,1,2,0:0:0:0:
448,192,191295,1,0,0:0:0:0:
320,192,191295,1,8,0:0:0:0:
192,192,191445,1,2,0:0:0:0:
64,192,191595,1,4,0:0:0:0:
448,192,191595,1,0,0:0:0:0:
320,192,191745,1,2,0:0:0:0:
448,192,191895,1,0,0:0:0:0:
64,192,191895,1,8,0:0:0:0:
448,192,192045,1,2,0:0:0:0:
64,192,192195,1,0,0:0:0:0:
320,192,192195,1,4,0:0:0:0:
320,192,192345,1,2,0:0:0:0:
192,192,192495,1,8,0:0:0:0:
64,192,192495,1,0,0:0:0:0:
192,192,192645,1,2,0:0:0:0:
448,192,192795,1,8,0:0:0:0:
64,192,192795,1,0,0:0:0:0:
320,192,192870,1,4,0:0:0:0:
448,192,192945,1,0,0:0:0:0:
192,192,192945,1,8,0:0:0:0:
64,192,193020,1,4,0:0:0:0:
320,192,193095,1,4,0:0:0:0:
192,192,193245,1,8,0:0:0:0:
64,192,193245,1,0,0:0:0:0:
320,192,193320,1,4,0:0:0:0:
448,192,193395,1,4,0:0:0:0:
64,192,193470,1,4,0:0:0:0:
192,192,193545,1,4,0:0:0:0:
320,192,193620,1,4,0:0:0:0:
448,192,193695,1,4,0:0:0:0:
320,192,193845,1,4,0:0:0:0:
192,192,193845,1,0,0:0:0:0:
448,192,194145,1,0,0:0:0:0:
64,192,194145,1,4,0:0:0:0:
192,192,194220,1,0,0:0:0:0:
320,192,194220,1,4,0:0:0:0:
448,192,194295,1,0,0:0:0:0:
64,192,194295,1,8,0:0:0:0:
320,192,194445,1,2,0:0:0:0:
192,192,194595,1,4,0:0:0:0:
64,192,194595,1,0,0:0:0:0:
320,192,194745,1,2,0:0:0:0:
448,192,194895,1,8,0:0:0:0:
64,192,194895,1,0,0:0:0:0:
192,192,195045,1,2,0:0:0:0:
320,192,195195,1,4,0:0:0:0:
448,192,195195,1,0,0:0:0:0:
192,192,195345,1,2,0:0:0:0:
64,192,195495,1,8,0:0:0:0:
320,192,195495,1,0,0:0:0:0:
448,192,195645,1,2,0:0:0:0:
320,192,195795,1,4,0:0:0:0:
192,192,195795,1,0,0:0:0:0:
64,192,195945,1,2,0:0:0:0:
448,192,196095,1,0,0:0:0:0:
192,192,196095,1,8,0:0:0:0:
320,192,196245,1,2,0:0:0:0:
448,192,196395,1,4,0:0:0:0:
64,192,196395,1,0,0:0:0:0:
448,192,196545,1,4,0:0:0:0:
64,192,196545,1,0,0:0:0:0:
320,192,196695,1,0,0:0:0:0:
192,192,196695,1,8,0:0:0:0:
448,192,196695,1,0,0:0:0:0:
64,192,196845,1,2,0:0:0:0:
448,192,196995,1,0,0:0:0:0:
192,192,196995,1,4,0:0:0:0:
192,192,197145,1,4,0:0:0:0:
448,192,197145,1,0,0:0:0:0:
64,192,197295,1,8,0:0:0:0:
448,192,197295,1,0,0:0:0:0:
320,192,197295,1,0,0:0:0:0:
192,192,197445,1,2,0:0:0:0:
448,192,197595,1,4,0:0:0:0:
64,192,197595,1,0,0:0:0:0:
320,192,197745,1,8,0:0:0:0:
192,192,197745,1,0,0:0:0:0:
192,192,197895,1,0,0:0:0:0:
320,192,197895,1,8,0:0:0:0:
448,192,198045,1,4,0:0:0:0:
64,192,198045,1,0,0:0:0:0:
320,192,198195,1,8,0:0:0:0:
192,192,198195,1,0,0:0:0:0:
192,192,198345,1,0,0:0:0:0:
320,192,198345,1,8,0:0:0:0:
448,192,198495,1,4,0:0:0:0:
64,192,198495,128,0,198795:0:0:0:0:
320,192,198795,1,4,0:0:0:0:
64,192,199095,1,0,0:0:0:0:
448,192,199095,1,8,0:0:0:0:
192,192,199095,1,0,0:0:0:0:
320,192,199245,1,2,0:0:0:0:
448,192,199395,1,4,0:0:0:0:
64,192,199395,1,0,0:0:0:0:
192,192,199545,1,2,0:0:0:0:
64,192,199695,1,0,0:0:0:0:
320,192,199695,1,8,0:0:0:0:
448,192,199845,1,2,0:0:0:0:
320,192,199995,1,0,0:0:0:0:
192,192,199995,1,4,0:0:0:0:
64,192,200145,1,2,0:0:0:0:
448,192,200295,1,8,0:0:0:0:
192,192,200295,1,0,0:0:0:0:
320,192,200445,1,2,0:0:0:0:
448,192,200595,1,4,0:0:0:0:
64,192,200595,1,0,0:0:0:0:
192,192,200670,1,4,0:0:0:0:
320,192,200745,1,4,0:0:0:0:
448,192,200820,1,4,0:0:0:0:
320,192,200895,1,8,0:0:0:0:
192,192,200895,1,0,0:0:0:0:
64,192,200970,1,8,0:0:0:0:
448,192,201045,1,8,0:0:0:0:
320,192,201120,1,8,0:0:0:0:
192,192,201195,1,4,0:0:0:0:
64,192,201195,1,0,0:0:0:0:
320,192,201345,1,2,0:0:0:0:
448,192,201495,1,8,0:0:0:0:
64,192,201495,1,0,0:0:0:0:
192,192,201645,1,2,0:0:0:0:
320,192,201795,1,2,0:0:0:0:
448,192,201945,1,4,0:0:0:0:
64,192,201945,1,0,0:0:0:0:
320,192,202095,1,0,0:0:0:0:
192,192,202095,1,8,0:0:0:0:
64,192,202245,1,2,0:0:0:0:
448,192,202395,1,0,0:0:0:0:
320,192,202395,1,4,0:0:0:0:
192,192,202545,1,2,0:0:0:0:
64,192,202695,1,8,0:0:0:0:
448,192,202695,1,0,0:0:0:0:
192,192,202845,1,2,0:0:0:0:
320,192,202995,1,2,0:0:0:0:
448,192,203145,1,4,0:0:0:0:
64,192,203145,1,0,0:0:0:0:
192,192,203295,1,8,0:0:0:0:
320,192,203295,1,0,0:0:0:0:
64,192,203445,1,2,0:0:0:0:
448,192,203595,1,0,0:0:0:0:
320,192,203595,1,4,0:0:0:0:
192,192,203745,1,2,0:0:0:0:
64,192,203895,1,8,0:0:0:0:
320,192,203895,1,0,0:0:0:0:
448,192,204045,1,2,0:0:0:0:
320,192,204195,1,2,0:0:0:0:
64,192,204345,1,4,0:0:0:0:
192,192,204345,1,0,0:0:0:0:
320,192,204495,1,0,0:0:0:0:
448,192,204495,1,8,0:0:0:0:
192,192,204645,1,2,0:0:0:0:
64,192,204795,1,0,0:0:0:0:
320,192,204795,1,4,0:0:0:0:
448,192,204945,1,2,0:0:0:0:
64,192,205095,1,0,0:0:0:0:
192,192,205095,1,8,0:0:0:0:
320,192,205245,1,2,0:0:0:0:
448,192,205395,1,4,0:0:0:0:
64,192,205395,1,0,0:0:0:0:
448,192,205695,1,4,0:0:0:0:
64,192,205695,1,0,0:0:0:0:
320,192,205995,1,4,0:0:0:0:
192,192,205995,1,0,0:0:0:0:
320,192,206145,1,4,0:0:0:0:
192,192,206145,1,0,0:0:0:0:
64,192,206445,1,0,0:0:0:0:
320,192,206445,1,4,0:0:0:0:
320,192,206595,1,4,0:0:0:0:
64,192,206595,1,0,0:0:0:0:
448,192,206895,1,0,0:0:0:0:
192,192,206895,1,4,0:0:0:0:
192,192,207045,1,4,0:0:0:0:
448,192,207045,1,0,0:0:0:0:
64,192,207345,1,0,0:0:0:0:
192,192,207345,1,4,0:0:0:0:
192,192,207495,1,4,0:0:0:0:
64,192,207495,1,0,0:0:0:0:
320,192,207795,1,4,0:0:0:0:
448,192,207795,1,0,0:0:0:0:
320,192,207945,1,4,0:0:0:0:
448,192,207945,1,0,0:0:0:0:
192,192,208245,1,4,0:0:0:0:
448,192,208245,128,2,208545:0:0:0:0:
64,192,208545,128,2,208695:0:0:0:0:
192,192,208695,128,2,208845:0:0:0:0:
320,192,208845,128,2,208995:0:0:0:0:
448,192,208995,128,2,209145:0:0:0:0:
64,192,209145,128,2,209295:0:0:0:0:
192,192,209295,128,2,209445:0:0:0:0:
320,192,209445,128,2,209595:0:0:0:0:
448,192,209595,1,4,0:0:0:0:
64,192,209595,1,0,0:0:0:0:
320,192,209895,1,4,0:0:0:0:
448,192,209895,128,0,210195:0:0:0:0:
192,192,210045,1,0,0:0:0:0:
64,192,210195,128,2,210495:0:0:0:0:
448,192,210495,128,2,210795:0:0:0:0:
64,192,210795,1,8,0:0:0:0:
320,192,210795,1,0,0:0:0:0:
64,192,215551,128,2,215830:0:0:0:0:
320,192,215830,128,2,216109:0:0:0:0:
192,192,216109,128,2,216388:0:0:0:0:
320,192,216388,128,2,216667:0:0:0:0:
64,192,216667,5,0,0:0:0:0:
448,192,216667,5,4,0:0:0:0:
192,192,216806,1,2,0:0:0:0:
320,192,216946,1,8,0:0:0:0:
448,192,216946,1,0,0:0:0:0:
64,192,217085,1,2,0:0:0:0:
192,192,217225,1,0,0:0:0:0:
320,192,217225,1,4,0:0:0:0:
448,192,217364,1,2,0:0:0:0:
64,192,217504,1,0,0:0:0:0:
192,192,217504,1,8,0:0:0:0:
320,192,217644,1,2,0:0:0:0:
448,192,217783,1,4,0:0:0:0:
64,192,217783,1,0,0:0:0:0:
192,192,217923,1,2,0:0:0:0:
320,192,218062,1,8,0:0:0:0:
448,192,218062,1,0,0:0:0:0:
192,192,218202,1,2,0:0:0:0:
64,192,218341,1,0,0:0:0:0:
448,192,218341,1,4,0:0:0:0:
320,192,218481,1,2,0:0:0:0:
448,192,218620,1,8,0:0:0:0:
64,192,218620,1,0,0:0:0:0:
320,192,218760,1,4,0:0:0:0:
192,192,218760,1,0,0:0:0:0:
192,192,218899,1,4,0:0:0:0:
320,192,218899,1,0,0:0:0:0:
64,192,219039,1,2,0:0:0:0:
320,192,219178,1,8,0:0:0:0:
448,192,219178,1,0,0:0:0:0:
192,192,219318,1,2,0:0:0:0:
448,192,219457,1,0,0:0:0:0:
64,192,219457,1,4,0:0:0:0:
192,192,219597,1,2,0:0:0:0:
64,192,219737,1,0,0:0:0:0:
320,192,219737,1,8,0:0:0:0:
448,192,219876,1,2,0:0:0:0:
320,192,220016,1,0,0:0:0:0:
192,192,220016,1,4,0:0:0:0:
64,192,220155,1,2,0:0:0:0:
448,192,220295,1,0,0:0:0:0:
320,192,220295,1,8,0:0:0:0:
192,192,220434,1,2,0:0:0:0:
448,192,220574,1,4,0:0:0:0:
64,192,220574,128,0,220853:0:0:0:0:
192,192,220713,1,2,0:0:0:0:
320,192,220783,1,4,0:0:0:0:
448,192,220853,1,8,0:0:0:0:
192,192,220853,128,0,221132:0:0:0:0:
64,192,220992,1,4,0:0:0:0:
448,192,221132,1,4,0:0:0:0:
320,192,221132,128,0,221411:0:0:0:0:
192,192,221271,1,2,0:0:0:0:
448,192,221411,1,0,0:0:0:0:
64,192,221411,1,8,0:0:0:0:
320,192,221551,1,2,0:0:0:0:
448,192,221690,1,0,0:0:0:0:
192,192,221690,1,4,0:0:0:0:
64,192,221830,1,2,0:0:0:0:
320,192,221969,1,8,0:0:0:0:
448,192,221969,1,0,0:0:0:0:
192,192,222109,1,2,0:0:0:0:
64,192,222248,1,0,0:0:0:0:
448,192,222248,1,4,0:0:0:0:
320,192,222388,1,2,0:0:0:0:
448,192,222527,1,8,0:0:0:0:
64,192,222527,1,0,0:0:0:0:
192,192,222667,1,2,0:0:0:0:
320,192,222806,1,4,0:0:0:0:
448,192,222806,1,0,0:0:0:0:
192,192,222946,1,2,0:0:0:0:
448,192,223085,1,0,0:0:0:0:
64,192,223085,1,8,0:0:0:0:
320,192,223225,1,0,0:0:0:0:
192,192,223225,1,4,0:0:0:0:
320,192,223364,1,4,0:0:0:0:
192,192,223364,1,0,0:0:0:0:
64,192,223504,1,2,0:0:0:0:
448,192,223644,1,8,0:0:0:0:
320,192,223644,1,0,0:0:0:0:
192,192,223783,1,2,0:0:0:0:
64,192,223923,1,4,0:0:0:0:
448,192,223923,1,0,0:0:0:0:
320,192,224062,1,2,0:0:0:0:
448,192,224202,1,0,0:0:0:0:
192,192,224202,1,8,0:0:0:0:
64,192,224341,1,4,0:0:0:0:
320,192,224341,1,0,0:0:0:0:
192,192,224411,1,4,0:0:0:0:
320,192,224481,1,4,0:0:0:0:
64,192,224481,1,0,0:0:0:0:
448,192,224481,1,0,0:0:0:0:
192,192,224620,1,2,0:0:0:0:
64,192,224760,1,2,0:0:0:0:
320,192,224899,1,2,0:0:0:0:
64,192,225039,1,4,0:0:0:0:
448,192,225039,1,0,0:0:0:0:
192,192,225178,1,0,0:0:0:0:
320,192,225248,1,0,0:0:0:0:
448,192,225318,1,4,0:0:0:0:
192,192,225318,1,0,0:0:0:0:
64,192,225388,1,0,0:0:0:0:
192,192,225457,1,0,0:0:0:0:
320,192,225527,1,0,0:0:0:0:
64,192,225597,1,4,0:0:0:0:
448,192,225597,1,0,0:0:0:0:
192,192,225737,1,2,0:0:0:0:
320,192,225876,1,8,0:0:0:0:
64,192,225876,1,0,0:0:0:0:
192,192,226016,1,2,0:0:0:0:
64,192,226155,1,4,0:0:0:0:
448,192,226155,1,0,0:0:0:0:
320,192,226295,1,2,0:0:0:0:
192,192,226434,1,8,0:0:0:0:
64,192,226434,1,0,0:0:0:0:
320,192,226574,1,2,0:0:0:0:
448,192,226713,1,4,0:0:0:0:
64,192,226713,1,0,0:0:0:0:
192,192,226853,1,2,0:0:0:0:
320,192,226992,1,8,0:0:0:0:
448,192,226992,1,0,0:0:0:0:
192,192,227132,1,2,0:0:0:0:
64,192,227271,1,0,0:0:0:0:
320,192,227271,1,4,0:0:0:0:
448,192,227411,1,2,0:0:0:0:
320,192,227550,1,8,0:0:0:0:
192,192,227550,1,0,0:0:0:0:
448,192,227690,1,0,0:0:0:0:
64,192,227690,1,4,0:0:0:0:
64,192,227830,1,0,0:0:0:0:
448,192,227830,1,4,0:0:0:0:
192,192,227969,1,2,0:0:0:0:
320,192,228109,1,8,0:0:0:0:
448,192,228109,1,0,0:0:0:0:
192,192,228248,1,2,0:0:0:0:
64,192,228388,1,4,0:0:0:0:
320,192,228388,1,0,0:0:0:0:
448,192,228527,1,2,0:0:0:0:
320,192,228667,1,8,0:0:0:0:
192,192,228667,1,0,0:0:0:0:
64,192,228806,1,2,0:0:0:0:
448,192,228946,1,4,0:0:0:0:
192,192,228946,1,0,0:0:0:0:
320,192,229085,1,2,0:0:0:0:
448,192,229225,1,0,0:0:0:0:
64,192,229225,1,8,0:0:0:0:
320,192,229364,1,2,0:0:0:0:
192,192,229504,128,0,229783:0:0:0:0:
64,192,229504,1,4,0:0:0:0:
448,192,229644,1,2,0:0:0:0:
64,192,229713,1,4,0:0:0:0:
320,192,229783,128,0,230062:0:0:0:0:
448,192,229783,1,8,0:0:0:0:
192,192,229923,1,4,0:0:0:0:
448,192,230062,128,0,230341:0:0:0:0:
64,192,230062,1,4,0:0:0:0:
192,192,230202,1,2,0:0:0:0:
64,192,230341,1,0,0:0:0:0:
320,192,230341,1,8,0:0:0:0:
192,192,230481,1,2,0:0:0:0:
320,192,230620,1,4,0:0:0:0:
448,192,230620,1,0,0:0:0:0:
192,192,230760,1,2,0:0:0:0:
64,192,230899,1,8,0:0:0:0:
448,192,230899,1,0,0:0:0:0:
320,192,231039,1,2,0:0:0:0:
192,192,231178,1,4,0:0:0:0:
64,192,231178,1,0,0:0:0:0:
320,192,231318,1,2,0:0:0:0:
448,192,231457,1,0,0:0:0:0:
192,192,231457,1,8,0:0:0:0:
64,192,231597,1,2,0:0:0:0:
448,192,231737,1,0,0:0:0:0:
320,192,231737,1,4,0:0:0:0:
64,192,231876,1,2,0:0:0:0:
192,192,232016,1,0,0:0:0:0:
448,192,232016,1,8,0:0:0:0:
320,192,232155,1,4,0:0:0:0:
64,192,232155,1,0,0:0:0:0:
192,192,232225,1,4,0:0:0:0:
448,192,232295,1,0,0:0:0:0:
64,192,232295,1,4,0:0:0:0:
320,192,232295,1,0,0:0:0:0:
192,192,232434,1,2,0:0:0:0:
320,192,232574,1,2,0:0:0:0:
448,192,232713,1,2,0:0:0:0:
192,192,232853,1,0,0:0:0:0:
64,192,232853,1,4,0:0:0:0:
311,192,232853,1,0,0:0:0:0:
448,192,232992,1,2,0:0:0:0:
320,192,233132,1,2,0:0:0:0:
192,192,233271,1,2,0:0:0:0:
64,192,233411,1,0,0:0:0:0:
448,192,233411,128,0,233550:0:0:0:0:
320,192,233411,1,4,0:0:0:0:
64,192,233690,128,0,233969:0:0:0:0:
320,192,233690,1,4,0:0:0:0:
448,192,233969,128,0,234248:0:0:0:0:
192,192,233969,1,4,0:0:0:0:
64,192,234248,1,8,0:0:0:0:
192,192,234318,1,8,0:0:0:0:
448,192,234388,1,8,0:0:0:0:
320,192,234457,1,8,0:0:0:0:
192,192,234527,1,0,0:0:0:0:
64,192,234527,1,4,0:0:0:0:
448,192,234667,1,2,0:0:0:0:
320,192,234806,1,8,0:0:0:0:
64,192,234806,1,0,0:0:0:0:
192,192,234946,1,2,0:0:0:0:
64,192,235085,1,4,0:0:0:0:
448,192,235085,1,0,0:0:0:0:
320,192,235225,1,2,0:0:0:0:
192,192,235364,1,0,0:0:0:0:
64,192,235364,1,8,0:0:0:0:
320,192,235504,1,2,0:0:0:0:
448,192,235644,1,4,0:0:0:0:
192,192,235644,1,0,0:0:0:0:
64,192,235783,1,2,0:0:0:0:
192,192,235923,1,8,0:0:0:0:
320,192,235923,1,0,0:0:0:0:
448,192,236062,1,2,0:0:0:0:
320,192,236202,1,4,0:0:0:0:
64,192,236202,1,0,0:0:0:0:
192,192,236341,1,2,0:0:0:0:
64,192,236481,1,0,0:0:0:0:
320,192,236481,1,8,0:0:0:0:
448,192,236620,1,0,0:0:0:0:
192,192,236620,1,4,0:0:0:0:
448,192,236760,1,4,0:0:0:0:
192,192,236760,1,0,0:0:0:0:
64,192,236899,1,2,0:0:0:0:
320,192,237039,1,8,0:0:0:0:
448,192,237039,1,0,0:0:0:0:
192,192,237178,1,2,0:0:0:0:
64,192,237318,1,4,0:0:0:0:
448,192,237318,1,0,0:0:0:0:
192,192,237457,1,2,0:0:0:0:
448,192,237597,1,0,0:0:0:0:
320,192,237597,1,8,0:0:0:0:
64,192,237737,1,2,0:0:0:0:
448,192,237876,1,0,0:0:0:0:
192,192,237876,1,4,0:0:0:0:
320,192,238016,1,2,0:0:0:0:
64,192,238155,1,8,0:0:0:0:
448,192,238155,1,0,0:0:0:0:
320,192,238295,1,2,0:0:0:0:
192,192,238434,1,4,0:0:0:0:
64,192,238434,1,0,0:0:0:0:
448,192,238574,1,2,0:0:0:0:
192,192,238644,1,0,0:0:0:0:
320,192,238644,1,4,0:0:0:0:
448,192,238713,1,8,0:0:0:0:
64,192,238713,1,0,0:0:0:0:
192,192,238853,1,0,0:0:0:0:
320,192,238853,1,4,0:0:0:0:
320,192,238992,1,4,0:0:0:0:
448,192,238992,1,0,0:0:0:0:
64,192,239132,1,2,0:0:0:0:
192,192,239271,1,8,0:0:0:0:
448,192,239271,1,0,0:0:0:0:
320,192,239411,1,2,0:0:0:0:
192,192,239550,1,0,0:0:0:0:
64,192,239550,1,4,0:0:0:0:
448,192,239690,1,2,0:0:0:0:
64,192,239830,1,0,0:0:0:0:
320,192,239830,1,8,0:0:0:0:
192,192,239969,1,2,0:0:0:0:
64,192,240109,1,0,0:0:0:0:
448,192,240109,1,4,0:0:0:0:
320,192,240248,1,2,0:0:0:0:
192,192,240388,1,8,0:0:0:0:
64,192,240388,1,0,0:0:0:0:
320,192,240527,1,2,0:0:0:0:
448,192,240667,1,0,0:0:0:0:
64,192,240667,1,4,0:0:0:0:
192,192,240806,1,2,0:0:0:0:
320,192,240946,1,8,0:0:0:0:
448,192,240946,1,0,0:0:0:0:
192,192,241085,1,4,0:0:0:0:
64,192,241085,1,0,0:0:0:0:
192,192,241225,1,0,0:0:0:0:
64,192,241225,1,4,0:0:0:0:
320,192,241364,1,2,0:0:0:0:
448,192,241504,1,8,0:0:0:0:
64,192,241504,1,0,0:0:0:0:
192,192,241644,1,2,0:0:0:0:
320,192,241713,1,0,0:0:0:0:
448,192,241783,1,4,0:0:0:0:
64,192,241783,1,0,0:0:0:0:
192,192,241923,1,2,0:0:0:0:
320,192,241992,1,4,0:0:0:0:
448,192,241992,1,0,0:0:0:0:
192,192,242062,1,8,0:0:0:0:
64,192,242062,1,0,0:0:0:0:
320,192,242202,1,4,0:0:0:0:
192,192,242202,1,0,0:0:0:0:
448,192,242341,1,0,0:0:0:0:
64,192,242341,1,4,0:0:0:0:
320,192,242481,1,2,0:0:0:0:
64,192,242620,1,2,0:0:0:0:
192,192,242690,1,2,0:0:0:0:
448,192,242760,1,2,0:0:0:0:
320,192,242830,1,2,0:0:0:0:
192,192,242899,1,2,0:0:0:0:
64,192,242899,128,0,243039:0:0:0:0:
448,192,243039,128,0,243178:0:0:0:0:
320,192,243039,1,4,0:0:0:0:
192,192,243109,1,2,0:0:0:0:
320,192,243178,128,0,243318:0:0:0:0:
64,192,243178,1,4,0:0:0:0:
192,192,243318,128,0,243457:0:0:0:0:
64,192,243318,1,2,0:0:0:0:
448,192,243457,128,2,243737:0:0:0:0:
64,192,243737,1,0,0:0:0:0:
320,192,243737,1,8,0:0:0:0:
192,192,243876,1,2,0:0:0:0:
64,192,244016,1,4,0:0:0:0:
448,192,244016,1,0,0:0:0:0:
320,192,244155,1,2,0:0:0:0:
192,192,244295,1,8,0:0:0:0:
64,192,244295,1,0,0:0:0:0:
320,192,244434,1,2,0:0:0:0:
448,192,244574,1,4,0:0:0:0:
64,192,244574,1,0,0:0:0:0:
192,192,244713,1,2,0:0:0:0:
320,192,244853,1,8,0:0:0:0:
448,192,244853,1,0,0:0:0:0:
192,192,244992,1,2,0:0:0:0:
64,192,245132,1,4,0:0:0:0:
320,192,245132,1,0,0:0:0:0:
448,192,245271,1,2,0:0:0:0:
320,192,245411,1,0,0:0:0:0:
192,192,245411,1,8,0:0:0:0:
64,192,245550,1,4,0:0:0:0:
448,192,245550,1,0,0:0:0:0:
448,192,245690,1,4,0:0:0:0:
64,192,245690,1,0,0:0:0:0:
320,192,245830,1,2,0:0:0:0:
448,192,245969,1,8,0:0:0:0:
64,192,245969,1,0,0:0:0:0:
192,192,246109,1,2,0:0:0:0:
64,192,246248,1,0,0:0:0:0:
320,192,246248,1,4,0:0:0:0:
448,192,246388,1,2,0:0:0:0:
64,192,246527,1,8,0:0:0:0:
192,192,246527,1,0,0:0:0:0:
320,192,246667,1,2,0:0:0:0:
448,192,246806,1,4,0:0:0:0:
64,192,246806,1,0,0:0:0:0:
192,192,246946,1,2,0:0:0:0:
64,192,247085,1,8,0:0:0:0:
448,192,247085,1,0,0:0:0:0:
320,192,247225,1,2,0:0:0:0:
64,192,247364,1,0,0:0:0:0:
192,192,247364,1,4,0:0:0:0:
448,192,247504,1,2,0:0:0:0:
320,192,247574,1,4,0:0:0:0:
192,192,247574,1,0,0:0:0:0:
64,192,247644,1,8,0:0:0:0:
448,192,247644,1,0,0:0:0:0:
320,192,247783,1,0,0:0:0:0:
192,192,247783,1,4,0:0:0:0:
64,192,247923,1,0,0:0:0:0:
448,192,247923,1,4,0:0:0:0:
192,192,248062,1,2,0:0:0:0:
64,192,248202,1,0,0:0:0:0:
320,192,248202,1,8,0:0:0:0:
448,192,248341,1,2,0:0:0:0:
320,192,248481,1,0,0:0:0:0:
192,192,248481,1,4,0:0:0:0:
64,192,248620,1,2,0:0:0:0:
448,192,248760,1,0,0:0:0:0:
320,192,248760,1,8,0:0:0:0:
192,192,248899,1,2,0:0:0:0:
64,192,249039,1,4,0:0:0:0:
448,192,249039,1,0,0:0:0:0:
320,192,249178,1,2,0:0:0:0:
448,192,249318,1,8,0:0:0:0:
192,192,249318,1,0,0:0:0:0:
64,192,249457,1,2,0:0:0:0:
320,192,249597,1,4,0:0:0:0:
448,192,249597,1,0,0:0:0:0:
64,192,249737,1,2,0:0:0:0:
192,192,249876,1,8,0:0:0:0:
448,192,249876,1,0,0:0:0:0:
320,192,250016,1,2,0:0:0:0:
192,192,250085,1,0,0:0:0:0:
448,192,250155,1,0,0:0:0:0:
64,192,250155,1,4,0:0:0:0:
320,192,250155,1,0,0:0:0:0:
192,192,250295,1,0,0:0:0:0:
320,192,250295,1,0,0:0:0:0:
448,192,250295,1,4,0:0:0:0:
448,192,250574,1,4,0:0:0:0:
320,192,250574,1,0,0:0:0:0:
192,192,250574,1,0,0:0:0:0:
192,192,250713,1,0,0:0:0:0:
64,192,250713,1,4,0:0:0:0:
320,192,250713,1,0,0:0:0:0:
64,192,250992,1,4,0:0:0:0:
320,192,250992,1,0,0:0:0:0:
448,192,250992,1,0,0:0:0:0:
192,192,251132,1,0,0:0:0:0:
448,192,251132,1,4,0:0:0:0:
64,192,251132,1,0,0:0:0:0:
64,192,251411,128,0,251550:0:0:0:0:
448,192,251550,128,0,252388:0:0:0:0:
320,192,251550,1,0,0:0:0:0:
192,192,251550,1,4,0:0:0:0:
64,192,252388,1,0,0:0:0:0:
192,192,252388,1,4,0:0:0:0:
320,192,252527,1,0,0:0:0:0:
192,192,252597,1,0,0:0:0:0:
64,192,252667,1,0,0:0:0:0:
448,192,252667,1,8,0:0:0:0:
320,192,252806,1,0,0:0:0:0:
64,192,252946,1,0,0:0:0:0:
192,192,252946,1,4,0:0:0:0:
448,192,253016,1,0,0:0:0:0:
320,192,253085,1,0,0:0:0:0:
192,192,253155,1,0,0:0:0:0:
64,192,253225,1,8,0:0:0:0:
448,192,253225,1,0,0:0:0:0:
192,192,253364,1,0,0:0:0:0:
320,192,253434,1,0,0:0:0:0:
448,192,253504,1,0,0:0:0:0:
64,192,253504,1,4,0:0:0:0:
320,192,253644,1,0,0:0:0:0:
448,192,253713,1,0,0:0:0:0:
192,192,253783,1,8,0:0:0:0:
64,192,253783,1,0,0:0:0:0:
320,192,253923,1,0,0:0:0:0:
192,192,254062,1,0,0:0:0:0:
448,192,254062,1,4,0:0:0:0:
64,192,254132,1,0,0:0:0:0:
448,192,254202,1,0,0:0:0:0:
320,192,254271,1,0,0:0:0:0:
192,192,254341,1,8,0:0:0:0:
64,192,254341,1,0,0:0:0:0:
448,192,254411,1,0,0:0:0:0:
320,192,254481,1,0,0:0:0:0:
192,192,254550,1,0,0:0:0:0:
64,192,254620,1,0,0:0:0:0:
448,192,254620,1,4,0:0:0:0:
320,192,254760,1,2,0:0:0:0:
320,192,254899,1,2,0:0:0:0:
192,192,255039,1,4,0:0:0:0:
64,192,255039,1,0,0:0:0:0:
320,192,255178,1,4,0:0:0:0:
448,192,255178,1,0,0:0:0:0:
192,192,255318,1,2,0:0:0:0:
64,192,255457,1,8,0:0:0:0:
448,192,255457,1,0,0:0:0:0:
320,192,255597,1,2,0:0:0:0:
192,192,255737,1,4,0:0:0:0:
64,192,255737,1,0,0:0:0:0:
448,192,255876,1,2,0:0:0:0:
448,192,256016,1,2,0:0:0:0:
320,192,256155,1,0,0:0:0:0:
192,192,256155,1,4,0:0:0:0:
64,192,256295,1,4,0:0:0:0:
448,192,256295,1,0,0:0:0:0:
320,192,256434,1,2,0:0:0:0:
192,192,256574,1,8,0:0:0:0:
64,192,256574,1,0,0:0:0:0:
448,192,256853,1,0,0:0:0:0:
320,192,256853,1,4,0:0:0:0:
192,192,256992,1,2,0:0:0:0:
192,192,257132,1,2,0:0:0:0:
64,192,257271,1,0,0:0:0:0:
320,192,257271,1,4,0:0:0:0:
192,192,257411,1,4,0:0:0:0:
448,192,257411,1,0,0:0:0:0:
320,192,257550,1,2,0:0:0:0:
192,192,257690,1,8,0:0:0:0:
64,192,257690,1,0,0:0:0:0:
320,192,257830,1,2,0:0:0:0:
448,192,257969,1,4,0:0:0:0:
64,192,257969,1,0,0:0:0:0:
192,192,258109,1,2,0:0:0:0:
320,192,258248,1,2,0:0:0:0:
448,192,258388,1,4,0:0:0:0:
64,192,258388,1,0,0:0:0:0:
192,192,258527,1,0,0:0:0:0:
320,192,258527,1,4,0:0:0:0:
64,192,258667,128,2,258806:0:0:0:0:
448,192,258806,128,2,259085:0:0:0:0:
320,192,258806,1,8,0:0:0:0:
192,192,259085,1,4,0:0:0:0:
64,192,259085,1,0,0:0:0:0:
320,192,259225,1,2,0:0:0:0:
320,192,259364,1,2,0:0:0:0:
192,192,259504,1,4,0:0:0:0:
64,192,259504,1,0,0:0:0:0:
320,192,259644,1,4,0:0:0:0:
448,192,259644,1,0,0:0:0:0:
64,192,259923,1,0,0:0:0:0:
448,192,259923,1,8,0:0:0:0:
320,192,260062,1,2,0:0:0:0:
192,192,260202,1,4,0:0:0:0:
64,192,260202,1,0,0:0:0:0:
448,192,260341,1,2,0:0:0:0:
448,192,260481,1,2,0:0:0:0:
64,192,260620,1,0,0:0:0:0:
192,192,260620,1,4,0:0:0:0:
320,192,260760,1,4,0:0:0:0:
448,192,260760,1,0,0:0:0:0:
192,192,260899,1,2,0:0:0:0:
64,192,261039,1,8,0:0:0:0:
448,192,261039,1,0,0:0:0:0:
64,192,261318,128,2,261457:0:0:0:0:
448,192,261318,1,4,0:0:0:0:
192,192,261457,128,2,261597:0:0:0:0:
320,192,261597,128,2,261737:0:0:0:0:
448,192,261737,128,2,261876:0:0:0:0:
64,192,261737,1,4,0:0:0:0:
192,192,261876,128,2,262016:0:0:0:0:
320,192,261876,1,4,0:0:0:0:
64,192,262016,128,2,262155:0:0:0:0:
192,192,262155,128,2,262295:0:0:0:0:
448,192,262155,1,8,0:0:0:0:
320,192,262295,128,2,262434:0:0:0:0:
448,192,262434,128,2,262574:0:0:0:0:
64,192,262434,1,4,0:0:0:0:
320,192,262574,128,2,262713:0:0:0:0:
192,192,262713,128,2,262853:0:0:0:0:
64,192,262853,128,2,262992:0:0:0:0:
448,192,262853,1,4,0:0:0:0:
448,192,262992,128,0,263550:0:0:0:0:
320,192,262992,1,4,0:0:0:0:
192,192,263132,1,2,0:0:0:0:
320,192,263271,128,0,263550:0:0:0:0:
64,192,263271,1,8,0:0:0:0:
192,192,263411,1,2,0:0:0:0:
64,192,263550,1,4,0:0:0:0:
192,192,263690,1,4,0:0:0:0:
320,192,263690,1,0,0:0:0:0:
448,192,263969,128,0,264667:0:0:0:0:
64,192,263969,1,4,0:0:0:0:
320,192,264667,1,0,0:0:0:0:
64,192,264806,1,0,0:0:0:0:
448,192,264946,1,0,0:0:0:0:
192,192,265085,1,0,0:0:0:0:
64,192,265225,1,0,0:0:0:0:
448,192,265364,1,0,0:0:0:0:
320,192,265364,1,4,0:0:0:0:
192,192,265504,1,4,0:0:0:0:
320,192,265504,1,0,0:0:0:0:
192,192,265644,1,4,0:0:0:0:
64,192,265644,1,0,0:0:0:0:
448,192,265783,1,4,0:0:0:0:
64,192,265783,1,0,0:0:0:0:
320,192,265923,1,0,0:0:0:0:
192,192,265923,1,4,0:0:0:0:
64,192,266202,128,4,267457:0:0:0:0:
448,192,266202,1,0,0:0:0:0:
320,192,266481,1,2,0:0:0:0:
192,192,266620,1,2,0:0:0:0:
448,192,266760,1,2,0:0:0:0:
192,192,266899,1,2,0:0:0:0:
320,192,267039,1,2,0:0:0:0:
448,192,267178,1,2,0:0:0:0:
320,192,267318,1,2,0:0:0:0:
448,192,267457,1,4,0:0:0:0:
192,192,267457,1,4,0:0:0:0:
320,192,267527,1,4,0:0:0:0:
64,192,267597,1,4,0:0:0:0:
192,192,267597,1,0,0:0:0:0:
320,192,267667,1,4,0:0:0:0:
64,192,267737,1,0,0:0:0:0:
448,192,267737,1,4,0:0:0:0:
192,192,267806,1,4,0:0:0:0:
320,192,267876,1,4,0:0:0:0:
448,192,267876,1,0,0:0:0:0:
192,192,267946,1,4,0:0:0:0:
64,192,268016,1,4,0:0:0:0:
448,192,268016,1,0,0:0:0:0:
320,192,268016,1,0,0:0:0:0:
192,192,268155,1,2,0:0:0:0:
64,192,268295,1,0,0:0:0:0:
448,192,268295,1,8,0:0:0:0:
320,192,268434,1,2,0:0:0:0:
448,192,268574,1,0,0:0:0:0:
192,192,268574,1,4,0:0:0:0:
64,192,268713,1,2,0:0:0:0:
320,192,268853,1,8,0:0:0:0:
448,192,268853,1,0,0:0:0:0:
192,192,268992,1,2,0:0:0:0:
320,192,269132,1,0,0:0:0:0:
64,192,269132,1,4,0:0:0:0:
448,192,269132,1,0,0:0:0:0:
192,192,269271,1,2,0:0:0:0:
64,192,269411,1,8,0:0:0:0:
448,192,269411,1,0,0:0:0:0:
320,192,269550,1,2,0:0:0:0:
192,192,269690,1,4,0:0:0:0:
64,192,269690,1,0,0:0:0:0:
320,192,269830,1,2,0:0:0:0:
448,192,269969,1,8,0:0:0:0:
64,192,269969,1,0,0:0:0:0:
192,192,270109,1,2,0:0:0:0:
320,192,270248,1,4,0:0:0:0:
448,192,270248,1,0,0:0:0:0:
320,192,270388,1,4,0:0:0:0:
448,192,270388,1,0,0:0:0:0:
192,192,270527,1,4,0:0:0:0:
64,192,270527,1,0,0:0:0:0:
192,192,270667,1,4,0:0:0:0:
64,192,270667,1,0,0:0:0:0:
448,192,270806,1,0,0:0:0:0:
320,192,270806,1,4,0:0:0:0:
64,192,270876,1,4,0:0:0:0:
192,192,270946,1,4,0:0:0:0:
448,192,270946,1,0,0:0:0:0:
320,192,271016,1,4,0:0:0:0:
192,192,271085,1,0,0:0:0:0:
64,192,271085,1,4,0:0:0:0:
448,192,271155,1,4,0:0:0:0:
64,192,271225,1,4,0:0:0:0:
320,192,271225,1,0,0:0:0:0:
192,192,271295,1,4,0:0:0:0:
448,192,271364,128,0,272202:0:0:0:0:
320,192,271364,1,4,0:0:0:0:
64,192,271364,1,0,0:0:0:0:
64,192,271644,128,2,271923:0:0:0:0:
192,192,271923,128,2,272202:0:0:0:0:
320,192,272202,128,2,272481:0:0:0:0:
448,192,272481,1,4,0:0:0:0:
64,192,272481,1,0,0:0:0:0:
320,192,272760,1,0,0:0:0:0:
192,192,272899,1,0,0:0:0:0:
64,192,273039,1,0,0:0:0:0:
448,192,273178,1,4,0:0:0:0:
320,192,273178,1,0,0:0:0:0:
192,192,273178,1,0,0:0:0:0:
64,192,273457,1,4,0:0:0:0:
192,192,273457,1,0,0:0:0:0:
320,192,273457,1,0,0:0:0:0:
320,192,273737,1,0,0:0:0:0:
192,192,273737,1,4,0:0:0:0:
448,192,273876,1,8,0:0:0:0:
64,192,273876,1,0,0:0:0:0:
192,192,274016,1,2,0:0:0:0:
448,192,274155,1,0,0:0:0:0:
320,192,274155,1,4,0:0:0:0:
192,192,274295,1,2,0:0:0:0:
64,192,274434,1,0,0:0:0:0:
448,192,274434,1,8,0:0:0:0:
320,192,274574,1,0,0:0:0:0:
192,192,274574,1,4,0:0:0:0:
448,192,274713,128,0,274992:0:0:0:0:
64,192,274713,1,4,0:0:0:0:
192,192,274853,1,2,0:0:0:0:
320,192,274992,128,0,275271:0:0:0:0:
64,192,274992,1,8,0:0:0:0:
448,192,275132,1,2,0:0:0:0:
192,192,275271,128,0,275550:0:0:0:0:
64,192,275271,1,4,0:0:0:0:
320,192,275411,1,2,0:0:0:0:
64,192,275550,128,0,275830:0:0:0:0:
448,192,275550,1,8,0:0:0:0:
192,192,275690,1,2,0:0:0:0:
320,192,275830,1,4,0:0:0:0:
448,192,275830,128,0,276109:0:0:0:0:
192,192,275969,1,2,0:0:0:0:
320,192,276109,1,8,0:0:0:0:
64,192,276109,1,0,0:0:0:0:
64,192,276248,128,0,276667:0:0:0:0:
192,192,276248,1,2,0:0:0:0:
448,192,276388,1,0,0:0:0:0:
320,192,276388,1,4,0:0:0:0:
192,192,276527,1,2,0:0:0:0:
320,192,276597,1,4,0:0:0:0:
448,192,276667,1,8,0:0:0:0:
192,192,276667,1,0,0:0:0:0:
320,192,276806,1,4,0:0:0:0:
64,192,276806,1,0,0:0:0:0:
64,192,276946,1,4,0:0:0:0:
448,192,276946,1,0,0:0:0:0:
192,192,277085,1,2,0:0:0:0:
64,192,277225,1,0,0:0:0:0:
320,192,277225,1,8,0:0:0:0:
448,192,277364,1,2,0:0:0:0:
64,192,277504,1,0,0:0:0:0:
192,192,277504,1,4,0:0:0:0:
448,192,277644,1,2,0:0:0:0:
320,192,277783,1,0,0:0:0:0:
192,192,277783,1,8,0:0:0:0:
64,192,277923,1,2,0:0:0:0:
448,192,278062,1,4,0:0:0:0:
192,192,278062,1,0,0:0:0:0:
320,192,278062,1,0,0:0:0:0:
320,192,278202,1,0,0:0:0:0:
64,192,278202,1,0,0:0:0:0:
192,192,278202,1,4,0:0:0:0:
64,192,278481,1,0,0:0:0:0:
448,192,278481,128,0,278899:0:0:0:0:
320,192,278481,1,4,0:0:0:0:
320,192,278899,1,0,0:0:0:0:
192,192,278899,1,8,0:0:0:0:
64,192,279039,1,0,0:0:0:0:
320,192,279039,1,8,0:0:0:0:
192,192,279109,1,8,0:0:0:0:
320,192,279178,1,4,0:0:0:0:
448,192,279178,1,0,0:0:0:0:
192,192,279318,1,2,0:0:0:0:
64,192,279457,1,8,0:0:0:0:
448,192,279457,1,0,0:0:0:0:
320,192,279597,1,2,0:0:0:0:
192,192,279737,1,4,0:0:0:0:
64,192,279737,1,0,0:0:0:0:
320,192,279876,1,2,0:0:0:0:
448,192,280016,1,8,0:0:0:0:
64,192,280016,1,0,0:0:0:0:
192,192,280155,1,2,0:0:0:0:
64,192,280295,128,0,280434:0:0:0:0:
320,192,280295,1,4,0:0:0:0:
192,192,280434,128,0,280574:0:0:0:0:
448,192,280434,1,2,0:0:0:0:
320,192,280574,128,0,280713:0:0:0:0:
64,192,280574,1,8,0:0:0:0:
448,192,280713,128,0,280853:0:0:0:0:
192,192,280713,1,2,0:0:0:0:
64,192,280783,1,0,0:0:0:0:
320,192,280853,1,0,0:0:0:0:
192,192,280923,1,0,0:0:0:0:
64,192,280992,128,2,281132:0:0:0:0:
448,192,281132,128,2,281411:0:0:0:0:
320,192,281132,1,0,0:0:0:0:
192,192,281271,1,2,0:0:0:0:
320,192,281411,1,4,0:0:0:0:
64,192,281411,1,0,0:0:0:0:
192,192,281690,1,0,0:0:0:0:
320,192,281830,1,0,0:0:0:0:
448,192,281969,1,0,0:0:0:0:
320,192,282109,1,4,0:0:0:0:
64,192,282109,1,0,0:0:0:0:
192,192,282109,1,0,0:0:0:0:
64,192,282388,1,4,0:0:0:0:
448,192,282388,1,0,0:0:0:0:
320,192,282388,1,0,0:0:0:0:
64,192,282667,1,0,0:0:0:0:
192,192,282667,1,4,0:0:0:0:
320,192,282806,1,8,0:0:0:0:
448,192,282806,1,0,0:0:0:0:
192,192,282946,1,2,0:0:0:0:
64,192,283085,1,0,0:0:0:0:
448,192,283085,1,4,0:0:0:0:
320,192,283225,1,2,0:0:0:0:
192,192,283364,1,8,0:0:0:0:
64,192,283364,1,0,0:0:0:0:
320,192,283504,1,4,0:0:0:0:
448,192,283504,1,0,0:0:0:0:
192,192,283644,1,4,0:0:0:0:
64,192,283644,128,0,283923:0:0:0:0:
448,192,283783,1,2,0:0:0:0:
448,192,283923,128,0,284202:0:0:0:0:
320,192,283923,1,8,0:0:0:0:
192,192,284062,1,2,0:0:0:0:
320,192,284202,128,0,284481:0:0:0:0:
64,192,284202,1,4,0:0:0:0:
448,192,284341,1,2,0:0:0:0:
192,192,284481,128,0,284760:0:0:0:0:
64,192,284481,1,8,0:0:0:0:
320,192,284620,1,2,0:0:0:0:
64,192,284760,128,0,285039:0:0:0:0:
448,192,284760,1,4,0:0:0:0:
320,192,284899,1,2,0:0:0:0:
192,192,285039,1,8,0:0:0:0:
448,192,285039,1,0,0:0:0:0:
448,192,285178,128,0,285597:0:0:0:0:
320,192,285178,1,2,0:0:0:0:
64,192,285318,1,0,0:0:0:0:
192,192,285318,1,4,0:0:0:0:
320,192,285457,1,2,0:0:0:0:
192,192,285527,1,4,0:0:0:0:
64,192,285597,1,0,0:0:0:0:
320,192,285597,1,8,0:0:0:0:
192,192,285737,1,4,0:0:0:0:
448,192,285737,1,0,0:0:0:0:
64,192,285876,1,4,0:0:0:0:
448,192,285876,1,0,0:0:0:0:
320,192,286016,1,2,0:0:0:0:
192,192,286155,1,8,0:0:0:0:
64,192,286155,1,0,0:0:0:0:
320,192,286295,1,2,0:0:0:0:
448,192,286434,1,4,0:0:0:0:
64,192,286434,1,0,0:0:0:0:
192,192,286574,1,2,0:0:0:0:
320,192,286713,1,8,0:0:0:0:
64,192,286713,1,0,0:0:0:0:
448,192,286853,1,2,0:0:0:0:
64,192,286992,1,4,0:0:0:0:
192,192,286992,1,0,0:0:0:0:
320,192,286992,1,0,0:0:0:0:
448,192,287132,1,4,0:0:0:0:
320,192,287132,1,0,0:0:0:0:
192,192,287132,1,0,0:0:0:0:
64,192,287411,128,0,287830:0:0:0:0:
448,192,287411,1,0,0:0:0:0:
192,192,287411,1,4,0:0:0:0:
448,192,287830,1,0,0:0:0:0:
320,192,287830,1,8,0:0:0:0:
448,192,287969,1,0,0:0:0:0:
192,192,287969,1,8,0:0:0:0:
320,192,288039,1,8,0:0:0:0:
192,192,288109,1,0,0:0:0:0:
64,192,288109,1,4,0:0:0:0:
320,192,288248,1,2,0:0:0:0:
448,192,288388,1,0,0:0:0:0:
192,192,288388,1,8,0:0:0:0:
64,192,288527,1,2,0:0:0:0:
320,192,288667,1,4,0:0:0:0:
192,192,288667,1,0,0:0:0:0:
448,192,288806,1,2,0:0:0:0:
320,192,288946,1,0,0:0:0:0:
64,192,288946,1,8,0:0:0:0:
192,192,289085,1,2,0:0:0:0:
64,192,289225,1,0,0:0:0:0:
448,192,289225,1,4,0:0:0:0:
320,192,289364,1,2,0:0:0:0:
448,192,289504,1,0,0:0:0:0:
192,192,289504,1,8,0:0:0:0:
64,192,289644,1,2,0:0:0:0:
320,192,289783,1,0,0:0:0:0:
192,192,289783,1,4,0:0:0:0:
448,192,289923,1,2,0:0:0:0:
320,192,290062,1,8,0:0:0:0:
64,192,290062,1,0,0:0:0:0:
192,192,290202,1,2,0:0:0:0:
64,192,290341,1,0,0:0:0:0:
448,192,290341,1,0,0:0:0:0:
320,192,290341,1,4,0:0:0:0:
192,192,290481,1,2,0:0:0:0:
448,192,290620,1,0,0:0:0:0:
320,192,290620,1,8,0:0:0:0:
64,192,290760,1,2,0:0:0:0:
448,192,290899,1,0,0:0:0:0:
192,192,290899,1,4,0:0:0:0:
320,192,291039,1,2,0:0:0:0:
448,192,291178,1,0,0:0:0:0:
64,192,291178,1,8,0:0:0:0:
320,192,291318,1,2,0:0:0:0:
64,192,291457,1,0,0:0:0:0:
192,192,291457,1,4,0:0:0:0:
448,192,291597,1,2,0:0:0:0:
64,192,291737,1,0,0:0:0:0:
320,192,291737,1,8,0:0:0:0:
192,192,291876,1,2,0:0:0:0:
448,192,292016,1,4,0:0:0:0:
64,192,292016,1,0,0:0:0:0:
320,192,292155,1,2,0:0:0:0:
192,192,292295,1,8,0:0:0:0:
64,192,292295,1,0,0:0:0:0:
320,192,292434,1,2,0:0:0:0:
448,192,292574,1,0,0:0:0:0:
192,192,292574,1,0,0:0:0:0:
64,192,292574,1,4,0:0:0:0:
320,192,292713,1,0,0:0:0:0:
448,192,292713,1,4,0:0:0:0:
64,192,292713,1,0,0:0:0:0:
192,192,292853,1,2,0:0:0:0:
64,192,292992,1,2,0:0:0:0:
448,192,293132,1,4,0:0:0:0:
320,192,293132,1,0,0:0:0:0:
192,192,293132,1,0,0:0:0:0:
192,192,293271,1,0,0:0:0:0:
64,192,293271,1,0,0:0:0:0:
320,192,293271,1,4,0:0:0:0:
448,192,293411,1,2,0:0:0:0:
192,192,293550,1,2,0:0:0:0:
448,192,293690,1,0,0:0:0:0:
320,192,293690,1,0,0:0:0:0:
64,192,293690,1,4,0:0:0:0:
192,192,293830,1,0,0:0:0:0:
64,192,293830,1,0,0:0:0:0:
448,192,293830,1,4,0:0:0:0:
320,192,293969,1,2,0:0:0:0:
448,192,294109,1,2,0:0:0:0:
64,192,294248,1,0,0:0:0:0:
192,192,294248,1,0,0:0:0:0:
320,192,294248,1,4,0:0:0:0:
64,192,294388,1,4,0:0:0:0:
320,192,294388,1,0,0:0:0:0:
448,192,294388,1,0,0:0:0:0:
192,192,294457,1,4,0:0:0:0:
448,192,294527,1,0,0:0:0:0:
64,192,294527,1,8,0:0:0:0:
320,192,294597,1,0,0:0:0:0:
192,192,294667,1,0,0:0:0:0:
64,192,294667,1,4,0:0:0:0:
320,192,294737,1,0,0:0:0:0:
64,192,294806,1,0,0:0:0:0:
448,192,294806,1,0,0:0:0:0:
192,192,294806,1,4,0:0:0:0:
320,192,294946,1,2,0:0:0:0:
448,192,295085,1,0,0:0:0:0:
192,192,295085,1,8,0:0:0:0:
64,192,295225,1,2,0:0:0:0:
192,192,295364,1,4,0:0:0:0:
320,192,295364,1,0,0:0:0:0:
448,192,295504,1,2,0:0:0:0:
64,192,295644,1,8,0:0:0:0:
320,192,295644,1,0,0:0:0:0:
192,192,295783,1,2,0:0:0:0:
64,192,295923,1,0,0:0:0:0:
448,192,295923,1,4,0:0:0:0:
320,192,296062,1,2,0:0:0:0:
448,192,296202,128,0,296481:0:0:0:0:
192,192,296202,1,8,0:0:0:0:
64,192,296341,1,2,0:0:0:0:
320,192,296481,128,0,296760:0:0:0:0:
192,192,296481,1,4,0:0:0:0:
448,192,296620,1,2,0:0:0:0:
192,192,296760,128,0,297039:0:0:0:0:
64,192,296760,1,8,0:0:0:0:
448,192,296899,1,2,0:0:0:0:
64,192,297039,1,4,0:0:0:0:
320,192,297039,128,0,297318:0:0:0:0:
448,192,297318,128,2,297457:0:0:0:0:
320,192,297457,128,2,297597:0:0:0:0:
192,192,297597,128,2,297737:0:0:0:0:
64,192,297737,128,2,297876:0:0:0:0:
192,192,297876,128,2,298016:0:0:0:0:
320,192,298016,128,2,298155:0:0:0:0:
448,192,298155,128,2,298295:0:0:0:0:
320,192,298295,128,2,298434:0:0:0:0:
192,192,298434,128,2,298713:0:0:0:0:
64,192,298713,128,2,299271:0:0:0:0:
448,192,299271,1,8,0:0:0:0:
192,192,299271,1,0,0:0:0:0:
64,192,302962,1,0,0:0:0:0:
448,192,302962,1,4,0:0:0:0:
64,192,303495,128,2,303895:0:0:0:0:
448,192,303895,1,4,0:0:0:0:
192,192,303895,1,0,0:0:0:0:
448,192,304162,128,0,304295:0:0:0:0:
192,192,304162,1,4,0:0:0:0:
64,192,304295,128,0,304428:0:0:0:0:
320,192,304295,1,8,0:0:0:0:
192,192,304428,128,0,304562:0:0:0:0:
448,192,304428,1,2,0:0:0:0:
320,192,304562,128,0,304828:0:0:0:0:
64,192,304562,1,2,0:0:0:0:
448,192,304695,1,0,0:0:0:0:
192,192,304695,1,4,0:0:0:0:
64,192,304828,1,0,0:0:0:0:
448,192,304828,1,8,0:0:0:0:
192,192,304962,1,2,0:0:0:0:
320,192,305095,1,4,0:0:0:0:
64,192,305095,1,0,0:0:0:0:
64,192,305228,128,0,305362:0:0:0:0:
448,192,305228,1,2,0:0:0:0:
448,192,305362,128,0,305495:0:0:0:0:
192,192,305362,1,8,0:0:0:0:
320,192,305495,128,0,305628:0:0:0:0:
64,192,305495,1,2,0:0:0:0:
192,192,305628,128,0,305895:0:0:0:0:
448,192,305628,1,2,0:0:0:0:
64,192,305762,1,4,0:0:0:0:
320,192,305762,1,0,0:0:0:0:
448,192,305895,1,8,0:0:0:0:
64,192,305895,1,0,0:0:0:0:
320,192,306028,1,2,0:0:0:0:
448,192,306162,128,0,306428:0:0:0:0:
64,192,306162,1,4,0:0:0:0:
192,192,306295,1,2,0:0:0:0:
320,192,306428,128,0,306695:0:0:0:0:
64,192,306428,1,8,0:0:0:0:
448,192,306562,1,2,0:0:0:0:
64,192,306695,1,2,0:0:0:0:
448,192,306828,1,0,0:0:0:0:
192,192,306828,1,4,0:0:0:0:
64,192,306962,1,0,0:0:0:0:
320,192,306962,1,8,0:0:0:0:
448,192,307095,1,2,0:0:0:0:
64,192,307228,128,0,307628:0:0:0:0:
320,192,307228,1,4,0:0:0:0:
192,192,307362,1,2,0:0:0:0:
448,192,307495,1,0,0:0:0:0:
320,192,307495,1,8,0:0:0:0:
192,192,307628,1,2,0:0:0:0:
448,192,307762,128,0,308162:0:0:0:0:
64,192,307762,1,2,0:0:0:0:
320,192,307895,1,4,0:0:0:0:
192,192,307895,1,0,0:0:0:0:
64,192,308028,1,8,0:0:0:0:
192,192,308028,1,0,0:0:0:0:
320,192,308162,1,2,0:0:0:0:
448,192,308295,1,0,0:0:0:0:
64,192,308295,1,4,0:0:0:0:
192,192,308295,1,0,0:0:0:0:
64,192,308428,128,0,308562:0:0:0:0:
320,192,308428,1,2,0:0:0:0:
192,192,308562,128,0,308695:0:0:0:0:
448,192,308562,1,8,0:0:0:0:
320,192,308695,128,0,308828:0:0:0:0:
64,192,308695,1,2,0:0:0:0:
448,192,308828,128,0,309095:0:0:0:0:
192,192,308828,1,2,0:0:0:0:
64,192,308962,1,4,0:0:0:0:
320,192,308962,1,0,0:0:0:0:
192,192,309095,1,8,0:0:0:0:
64,192,309095,1,0,0:0:0:0:
320,192,309228,1,2,0:0:0:0:
64,192,309362,1,4,0:0:0:0:
448,192,309362,1,0,0:0:0:0:
448,192,309495,128,0,309628:0:0:0:0:
192,192,309495,1,2,0:0:0:0:
320,192,309628,128,0,309762:0:0:0:0:
64,192,309628,1,8,0:0:0:0:
192,192,309762,128,0,309895:0:0:0:0:
448,192,309762,1,2,0:0:0:0:
64,192,309895,128,0,310162:0:0:0:0:
320,192,309895,1,2,0:0:0:0:
448,192,310028,1,4,0:0:0:0:
192,192,310028,1,0,0:0:0:0:
320,192,310162,1,8,0:0:0:0:
448,192,310162,1,0,0:0:0:0:
192,192,310295,1,2,0:0:0:0:
320,192,310428,128,0,310695:0:0:0:0:
64,192,310428,1,4,0:0:0:0:
448,192,310562,1,2,0:0:0:0:
192,192,310695,128,0,310962:0:0:0:0:
64,192,310695,1,8,0:0:0:0:
448,192,310828,1,2,0:0:0:0:
64,192,310962,1,2,0:0:0:0:
320,192,311095,1,4,0:0:0:0:
448,192,311095,1,0,0:0:0:0:
64,192,311228,128,0,311495:0:0:0:0:
192,192,311228,1,8,0:0:0:0:
448,192,311228,1,0,0:0:0:0:
320,192,311362,1,2,0:0:0:0:
448,192,311495,128,0,311762:0:0:0:0:
192,192,311495,1,4,0:0:0:0:
320,192,311628,1,2,0:0:0:0:
192,192,311762,1,8,0:0:0:0:
64,192,311762,128,0,312028:0:0:0:0:
448,192,311895,1,2,0:0:0:0:
320,192,312028,1,2,0:0:0:0:
192,192,312162,1,4,0:0:0:0:
64,192,312162,1,0,0:0:0:0:
320,192,312295,1,8,0:0:0:0:
448,192,312295,1,0,0:0:0:0:
192,192,312428,1,0,0:0:0:0:
64,192,312428,1,4,0:0:0:0:
320,192,312428,1,0,0:0:0:0:
448,192,312562,1,2,0:0:0:0:
320,192,312695,128,0,312828:0:0:0:0:
64,192,312828,128,0,312962:0:0:0:0:
192,192,312828,1,8,0:0:0:0:
448,192,312962,128,0,313095:0:0:0:0:
320,192,312962,1,2,0:0:0:0:
192,192,313095,128,0,313362:0:0:0:0:
64,192,313095,1,4,0:0:0:0:
320,192,313228,1,2,0:0:0:0:
448,192,313362,1,8,0:0:0:0:
64,192,313362,1,0,0:0:0:0:
320,192,313495,1,2,0:0:0:0:
64,192,313628,1,4,0:0:0:0:
448,192,313628,1,0,0:0:0:0:
192,192,313762,128,0,313895:0:0:0:0:
320,192,313762,1,2,0:0:0:0:
448,192,313895,128,0,314028:0:0:0:0:
64,192,313895,1,8,0:0:0:0:
64,192,314028,128,0,314162:0:0:0:0:
192,192,314028,1,2,0:0:0:0:
320,192,314162,128,0,314428:0:0:0:0:
448,192,314162,1,4,0:0:0:0:
192,192,314295,1,2,0:0:0:0:
64,192,314428,1,8,0:0:0:0:
448,192,314428,1,0,0:0:0:0:
192,192,314562,1,2,0:0:0:0:
448,192,314695,128,0,314962:0:0:0:0:
320,192,314695,1,4,0:0:0:0:
64,192,314828,1,2,0:0:0:0:
320,192,314962,128,0,315228:0:0:0:0:
192,192,314962,1,8,0:0:0:0:
448,192,315095,1,2,0:0:0:0:
192,192,315228,1,0,0:0:0:0:
64,192,315228,1,4,0:0:0:0:
448,192,315362,1,2,0:0:0:0:
320,192,315495,1,8,0:0:0:0:
64,192,315495,1,0,0:0:0:0:
192,192,315628,1,2,0:0:0:0:
64,192,315762,128,0,316162:0:0:0:0:
448,192,315762,1,4,0:0:0:0:
320,192,315895,1,2,0:0:0:0:
192,192,316028,1,8,0:0:0:0:
448,192,316028,1,0,0:0:0:0:
320,192,316162,1,2,0:0:0:0:
448,192,316295,128,0,316695:0:0:0:0:
192,192,316295,1,4,0:0:0:0:
64,192,316428,1,2,0:0:0:0:
320,192,316562,1,8,0:0:0:0:
192,192,316562,1,0,0:0:0:0:
64,192,316695,1,2,0:0:0:0:
192,192,316828,1,0,0:0:0:0:
448,192,316828,1,4,0:0:0:0:
320,192,316828,1,0,0:0:0:0:
64,192,316962,128,0,317095:0:0:0:0:
320,192,316962,1,2,0:0:0:0:
448,192,317095,128,0,317228:0:0:0:0:
192,192,317095,1,8,0:0:0:0:
192,192,317228,128,0,317362:0:0:0:0:
64,192,317228,1,2,0:0:0:0:
448,192,317362,128,0,317628:0:0:0:0:
320,192,317362,1,4,0:0:0:0:
64,192,317495,1,2,0:0:0:0:
320,192,317628,1,0,0:0:0:0:
192,192,317628,1,8,0:0:0:0:
64,192,317762,1,2,0:0:0:0:
192,192,317895,1,0,0:0:0:0:
320,192,317895,1,4,0:0:0:0:
448,192,318028,128,0,318162:0:0:0:0:
320,192,318028,1,2,0:0:0:0:
64,192,318162,128,0,318295:0:0:0:0:
192,192,318162,1,8,0:0:0:0:
320,192,318295,128,0,318428:0:0:0:0:
448,192,318295,1,2,0:0:0:0:
64,192,318428,128,0,318695:0:0:0:0:
192,192,318428,1,4,0:0:0:0:
320,192,318562,1,2,0:0:0:0:
448,192,318695,1,8,0:0:0:0:
192,192,318695,1,0,0:0:0:0:
320,192,318828,1,2,0:0:0:0:
320,192,318962,1,0,0:0:0:0:
448,192,318962,1,8,0:0:0:0:
64,192,318962,1,0,0:0:0:0:
448,192,319095,128,4,319495:0:0:0:0:
64,192,319095,128,0,319495:0:0:0:0:
192,192,319095,1,0,0:0:0:0:
320,192,319762,1,0,0:0:0:0:
192,192,319762,1,0,0:0:0:0:
64,192,319762,1,8,0:0:0:0:
320,192,319895,1,0,0:0:0:0:
192,192,319895,128,4,320295:0:0:0:0:
448,192,319895,128,0,320295:0:0:0:0:
448,192,320562,1,0,0:0:0:0:
64,192,320562,1,8,0:0:0:0:
192,192,320562,1,0,0:0:0:0:
448,192,320695,128,0,321095:0:0:0:0:
64,192,320695,128,4,321095:0:0:0:0:
320,192,320695,1,0,0:0:0:0:
192,192,321095,1,4,0:0:0:0:
320,192,321095,1,0,0:0:0:0:
64,192,321228,1,2,0:0:0:0:
448,192,321362,1,0,0:0:0:0:
192,192,321362,1,8,0:0:0:0:
320,192,321495,1,2,0:0:0:0:
192,192,321628,1,2,0:0:0:0:
64,192,321762,1,0,0:0:0:0:
320,192,321762,1,4,0:0:0:0:
448,192,321895,1,0,0:0:0:0:
192,192,321895,1,8,0:0:0:0:
320,192,322028,1,2,0:0:0:0:
448,192,322162,1,0,0:0:0:0:
64,192,322162,1,4,0:0:0:0:
192,192,322295,1,2,0:0:0:0:
320,192,322428,1,8,0:0:0:0:
448,192,322428,1,0,0:0:0:0:
192,192,322562,1,2,0:0:0:0:
64,192,322695,1,2,0:0:0:0:
448,192,322828,1,0,0:0:0:0:
320,192,322828,1,4,0:0:0:0:
192,192,322962,1,8,0:0:0:0:
64,192,322962,1,0,0:0:0:0:
448,192,323095,1,2,0:0:0:0:
64,192,323228,1,4,0:0:0:0:
320,192,323228,1,0,0:0:0:0:
192,192,323362,1,2,0:0:0:0:
64,192,323495,1,8,0:0:0:0:
448,192,323495,128,0,323762:0:0:0:0:
192,192,323628,1,2,0:0:0:0:
320,192,323762,128,0,324028:0:0:0:0:
64,192,323762,1,2,0:0:0:0:
448,192,323895,1,4,0:0:0:0:
192,192,323895,1,0,0:0:0:0:
192,192,324028,128,0,324295:0:0:0:0:
64,192,324028,1,8,0:0:0:0:
448,192,324162,1,2,0:0:0:0:
64,192,324295,1,0,0:0:0:0:
320,192,324295,1,4,0:0:0:0:
448,192,324428,1,2,0:0:0:0:
64,192,324562,128,0,324695:0:0:0:0:
448,192,324695,128,2,324962:0:0:0:0:
320,192,324828,1,2,0:0:0:0:
192,192,324962,1,4,0:0:0:0:
64,192,324962,1,0,0:0:0:0:
320,192,325095,1,8,0:0:0:0:
448,192,325095,1,0,0:0:0:0:
192,192,325228,1,2,0:0:0:0:
64,192,325362,1,4,0:0:0:0:
320,192,325362,1,0,0:0:0:0:
448,192,325362,1,0,0:0:0:0:
192,192,325495,1,2,0:0:0:0:
320,192,325628,1,8,0:0:0:0:
64,192,325628,1,0,0:0:0:0:
448,192,325762,1,2,0:0:0:0:
192,192,325895,1,2,0:0:0:0:
64,192,326028,1,4,0:0:0:0:
320,192,326028,1,0,0:0:0:0:
448,192,326162,1,0,0:0:0:0:
192,192,326162,1,8,0:0:0:0:
320,192,326295,1,2,0:0:0:0:
448,192,326428,1,4,0:0:0:0:
64,192,326428,1,0,0:0:0:0:
192,192,326562,1,2,0:0:0:0:
320,192,326695,1,8,0:0:0:0:
448,192,326695,1,0,0:0:0:0:
192,192,326828,1,2,0:0:0:0:
64,192,326962,1,2,0:0:0:0:
448,192,327095,1,0,0:0:0:0:
192,192,327095,1,4,0:0:0:0:
320,192,327228,1,0,0:0:0:0:
64,192,327228,1,8,0:0:0:0:
192,192,327362,1,2,0:0:0:0:
64,192,327495,1,0,0:0:0:0:
448,192,327495,1,4,0:0:0:0:
320,192,327628,1,2,0:0:0:0:
192,192,327762,1,8,0:0:0:0:
64,192,327762,128,0,328028:0:0:0:0:
320,192,327895,1,2,0:0:0:0:
448,192,328028,1,2,0:0:0:0:
192,192,328028,128,0,328295:0:0:0:0:
64,192,328162,1,4,0:0:0:0:
320,192,328162,1,0,0:0:0:0:
448,192,328295,1,8,0:0:0:0:
320,192,328295,128,0,328562:0:0:0:0:
192,192,328428,1,2,0:0:0:0:
64,192,328562,1,4,0:0:0:0:
448,192,328562,1,0,0:0:0:0:
192,192,328695,1,2,0:0:0:0:
320,192,328828,1,8,0:0:0:0:
448,192,328828,1,0,0:0:0:0:
64,192,328962,1,0,0:0:0:0:
192,192,328962,1,4,0:0:0:0:
320,192,329095,1,2,0:0:0:0:
448,192,329228,1,4,0:0:0:0:
192,192,329228,1,0,0:0:0:0:
64,192,329295,1,4,0:0:0:0:
448,192,329362,1,0,0:0:0:0:
320,192,329362,1,8,0:0:0:0:
192,192,329495,1,4,0:0:0:0:
320,192,329495,1,0,0:0:0:0:
64,192,329628,1,8,0:0:0:0:
448,192,329628,1,0,0:0:0:0:
320,192,329628,1,0,0:0:0:0:
192,192,329762,1,2,0:0:0:0:
320,192,329895,1,0,0:0:0:0:
448,192,329895,1,4,0:0:0:0:
192,192,330028,1,2,0:0:0:0:
320,192,330162,1,0,0:0:0:0:
448,192,330162,1,4,0:0:0:0:
192,192,330295,1,2,0:0:0:0:
320,192,330428,1,0,0:0:0:0:
448,192,330428,1,4,0:0:0:0:
64,192,330562,1,2,0:0:0:0:
448,192,330695,1,4,0:0:0:0:
192,192,330695,1,0,0:0:0:0:
64,192,330828,1,2,0:0:0:0:
192,192,330962,1,0,0:0:0:0:
448,192,330962,1,4,0:0:0:0:
64,192,331095,1,2,0:0:0:0:
192,192,331228,1,0,0:0:0:0:
448,192,331228,1,4,0:0:0:0:
64,192,331362,1,2,0:0:0:0:
192,192,331495,1,0,0:0:0:0:
448,192,331495,1,4,0:0:0:0:
320,192,331628,1,2,0:0:0:0:
192,192,331762,1,0,0:0:0:0:
64,192,331762,1,0,0:0:0:0:
448,192,331762,1,8,0:0:0:0:
320,192,331895,1,2,0:0:0:0:
192,192,332028,1,4,0:0:0:0:
64,192,332028,1,0,0:0:0:0:
320,192,332162,1,2,0:0:0:0:
192,192,332295,1,4,0:0:0:0:
64,192,332295,1,0,0:0:0:0:
320,192,332428,1,2,0:0:0:0:
64,192,332562,1,0,0:0:0:0:
192,192,332562,1,4,0:0:0:0:
448,192,332695,1,2,0:0:0:0:
320,192,332828,1,4,0:0:0:0:
64,192,332828,1,0,0:0:0:0:
448,192,332962,1,2,0:0:0:0:
320,192,333095,1,4,0:0:0:0:
64,192,333095,1,0,0:0:0:0:
448,192,333228,1,2,0:0:0:0:
320,192,333362,1,4,0:0:0:0:
64,192,333362,1,0,0:0:0:0:
448,192,333495,1,2,0:0:0:0:
320,192,333628,1,4,0:0:0:0:
64,192,333628,1,0,0:0:0:0:
192,192,333762,1,2,0:0:0:0:
64,192,333895,1,0,0:0:0:0:
448,192,333895,1,8,0:0:0:0:
320,192,333895,1,0,0:0:0:0:
64,192,334028,1,0,0:0:0:0:
448,192,334028,1,4,0:0:0:0:
320,192,334162,1,4,0:0:0:0:
192,192,334162,1,0,0:0:0:0:
192,192,334295,1,0,0:0:0:0:
320,192,334295,1,4,0:0:0:0:
320,192,334428,1,4,0:0:0:0:
64,192,334428,1,0,0:0:0:0:
64,192,334562,1,0,0:0:0:0:
320,192,334562,1,4,0:0:0:0:
192,192,334695,1,0,0:0:0:0:
448,192,334695,1,4,0:0:0:0:
448,192,334828,1,4,0:0:0:0:
192,192,334828,1,0,0:0:0:0:
64,192,334962,1,8,0:0:0:0:
192,192,334962,1,0,0:0:0:0:
320,192,334962,1,0,0:0:0:0:
64,192,335095,1,0,0:0:0:0:
192,192,335095,1,4,0:0:0:0:
320,192,335228,1,4,0:0:0:0:
448,192,335228,1,0,0:0:0:0:
320,192,335362,1,4,0:0:0:0:
448,192,335362,1,0,0:0:0:0:
64,192,335495,1,4,0:0:0:0:
448,192,335495,1,0,0:0:0:0:
448,192,335628,1,0,0:0:0:0:
64,192,335628,1,4,0:0:0:0:
192,192,335762,1,0,0:0:0:0:
320,192,335762,1,4,0:0:0:0:
64,192,335828,1,4,0:0:0:0:
448,192,335895,1,0,0:0:0:0:
320,192,335895,1,4,0:0:0:0:
192,192,335962,1,4,0:0:0:0:
64,192,336028,1,0,0:0:0:0:
448,192,336028,1,8,0:0:0:0:
320,192,336028,1,0,0:0:0:0:
320,192,336162,1,4,0:0:0:0:
192,192,336162,1,0,0:0:0:0:
192,192,336295,1,0,0:0:0:0:
320,192,336295,1,4,0:0:0:0:
64,192,336428,1,0,0:0:0:0:
448,192,336428,1,0,0:0:0:0:
192,192,336428,1,8,0:0:0:0:
320,192,336562,1,4,0:0:0:0:
192,192,336562,1,0,0:0:0:0:
192,192,336695,1,0,0:0:0:0:
320,192,336695,1,4,0:0:0:0:
448,192,336828,1,0,0:0:0:0:
64,192,336828,1,8,0:0:0:0:
319,192,336828,1,0,0:0:0:0:
192,192,336962,1,0,0:0:0:0:
320,192,336962,1,4,0:0:0:0:
320,192,337095,1,4,0:0:0:0:
64,192,337095,128,0,337184:0:0:0:0:
448,192,337184,128,0,337273:0:0:0:0:
64,192,337273,128,0,337362:0:0:0:0:
448,192,337362,128,0,337450:0:0:0:0:
64,192,337450,128,0,337539:0:0:0:0:
448,192,337539,128,0,337628:0:0:0:0:
64,192,337628,128,0,337717:0:0:0:0:
448,192,337717,128,0,337806:0:0:0:0:
192,192,337806,128,0,337895:0:0:0:0:
64,192,337895,1,8,0:0:0:0:
320,192,337895,1,0,0:0:0:0:
192,192,338028,1,2,0:0:0:0:
448,192,338162,1,0,0:0:0:0:
64,192,338162,1,4,0:0:0:0:
320,192,338162,1,0,0:0:0:0:
320,192,338295,1,2,0:0:0:0:
192,192,338428,1,8,0:0:0:0:
64,192,338428,1,0,0:0:0:0:
448,192,338562,1,2,0:0:0:0:
320,192,338695,1,2,0:0:0:0:
64,192,338828,1,0,0:0:0:0:
192,192,338828,1,4,0:0:0:0:
448,192,338962,1,0,0:0:0:0:
320,192,338962,1,8,0:0:0:0:
192,192,339095,1,2,0:0:0:0:
64,192,339228,1,4,0:0:0:0:
448,192,339228,1,0,0:0:0:0:
320,192,339362,1,2,0:0:0:0:
64,192,339495,1,0,0:0:0:0:
192,192,339495,1,8,0:0:0:0:
448,192,339628,1,2,0:0:0:0:
320,192,339762,1,2,0:0:0:0:
448,192,339895,1,0,0:0:0:0:
64,192,339895,1,4,0:0:0:0:
192,192,340028,1,0,0:0:0:0:
320,192,340028,1,8,0:0:0:0:
64,192,340162,1,2,0:0:0:0:
192,192,340295,1,4,0:0:0:0:
320,192,340295,1,0,0:0:0:0:
448,192,340428,1,2,0:0:0:0:
64,192,340562,1,8,0:0:0:0:
320,192,340562,128,0,340828:0:0:0:0:
192,192,340695,1,2,0:0:0:0:
192,192,340828,128,0,341095:0:0:0:0:
448,192,340828,1,2,0:0:0:0:
320,192,340962,1,4,0:0:0:0:
64,192,340962,1,0,0:0:0:0:
64,192,341095,128,0,341362:0:0:0:0:
448,192,341095,1,8,0:0:0:0:
320,192,341228,1,2,0:0:0:0:
192,192,341362,1,4,0:0:0:0:
448,192,341362,1,0,0:0:0:0:
320,192,341495,1,2,0:0:0:0:
192,192,341628,1,8,0:0:0:0:
64,192,341628,1,0,0:0:0:0:
448,192,341762,1,2,0:0:0:0:
320,192,341895,1,2,0:0:0:0:
192,192,342028,1,4,0:0:0:0:
448,192,342028,1,0,0:0:0:0:
64,192,342162,1,0,0:0:0:0:
320,192,342162,1,8,0:0:0:0:
192,192,342295,1,2,0:0:0:0:
64,192,342428,1,4,0:0:0:0:
448,192,342428,1,0,0:0:0:0:
320,192,342428,1,0,0:0:0:0:
192,192,342562,1,2,0:0:0:0:
64,192,342695,1,0,0:0:0:0:
448,192,342695,1,8,0:0:0:0:
192,192,342828,1,2,0:0:0:0:
320,192,342962,1,2,0:0:0:0:
64,192,343095,1,0,0:0:0:0:
192,192,343095,1,4,0:0:0:0:
448,192,343228,1,0,0:0:0:0:
320,192,343228,1,8,0:0:0:0:
192,192,343362,1,2,0:0:0:0:
448,192,343495,1,0,0:0:0:0:
64,192,343495,1,4,0:0:0:0:
320,192,343628,1,2,0:0:0:0:
64,192,343762,1,0,0:0:0:0:
192,192,343762,1,8,0:0:0:0:
448,192,343895,1,2,0:0:0:0:
64,192,344028,1,2,0:0:0:0:
192,192,344162,1,0,0:0:0:0:
320,192,344162,1,4,0:0:0:0:
448,192,344295,1,8,0:0:0:0:
64,192,344295,1,0,0:0:0:0:
320,192,344428,1,2,0:0:0:0:
448,192,344562,1,4,0:0:0:0:
64,192,344562,1,0,0:0:0:0:
192,192,344695,1,2,0:0:0:0:
448,192,344828,128,0,345095:0:0:0:0:
320,192,344828,1,8,0:0:0:0:
192,192,344962,1,2,0:0:0:0:
320,192,345095,128,0,345362:0:0:0:0:
64,192,345095,1,2,0:0:0:0:
448,192,345228,1,4,0:0:0:0:
192,192,345228,1,0,0:0:0:0:
192,192,345362,128,0,345628:0:0:0:0:
64,192,345362,1,8,0:0:0:0:
448,192,345495,1,2,0:0:0:0:
64,192,345628,1,0,0:0:0:0:
320,192,345628,1,4,0:0:0:0:
448,192,345762,1,2,0:0:0:0:
64,192,345895,1,0,0:0:0:0:
320,192,345895,1,8,0:0:0:0:
192,192,346028,1,4,0:0:0:0:
448,192,346028,1,0,0:0:0:0:
64,192,346162,1,0,0:0:0:0:
320,192,346295,1,0,0:0:0:0:
192,192,346295,1,4,0:0:0:0:
448,192,346428,1,4,0:0:0:0:
64,192,346428,1,0,0:0:0:0:
320,192,346495,1,4,0:0:0:0:
192,192,346562,1,4,0:0:0:0:
64,192,346562,1,0,0:0:0:0:
320,192,346628,1,4,0:0:0:0:
448,192,346695,1,8,0:0:0:0:
64,192,346695,1,0,0:0:0:0:
192,192,346695,1,0,0:0:0:0:
320,192,346828,1,2,0:0:0:0:
64,192,346962,1,0,0:0:0:0:
448,192,346962,1,4,0:0:0:0:
192,192,347095,1,2,0:0:0:0:
64,192,347228,1,0,0:0:0:0:
448,192,347228,1,4,0:0:0:0:
192,192,347362,1,2,0:0:0:0:
64,192,347495,1,0,0:0:0:0:
448,192,347495,1,4,0:0:0:0:
320,192,347628,1,2,0:0:0:0:
448,192,347762,1,4,0:0:0:0:
192,192,347762,1,0,0:0:0:0:
64,192,347895,1,2,0:0:0:0:
448,192,348028,1,4,0:0:0:0:
320,192,348028,1,0,0:0:0:0:
64,192,348162,1,2,0:0:0:0:
320,192,348295,1,0,0:0:0:0:
448,192,348295,1,4,0:0:0:0:
64,192,348428,1,2,0:0:0:0:
320,192,348562,1,0,0:0:0:0:
448,192,348562,1,4,0:0:0:0:
192,192,348695,1,2,0:0:0:0:
64,192,348828,1,8,0:0:0:0:
320,192,348828,1,0,0:0:0:0:
448,192,348828,1,0,0:0:0:0:
192,192,348962,1,2,0:0:0:0:
64,192,349095,1,0,0:0:0:0:
320,192,349095,1,4,0:0:0:0:
448,192,349228,1,2,0:0:0:0:
320,192,349362,1,4,0:0:0:0:
64,192,349362,1,0,0:0:0:0:
448,192,349495,1,2,0:0:0:0:
320,192,349628,1,4,0:0:0:0:
64,192,349628,1,0,0:0:0:0:
448,192,349762,1,2,0:0:0:0:
192,192,349895,1,4,0:0:0:0:
64,192,349895,1,0,0:0:0:0:
320,192,350028,1,2,0:0:0:0:
64,192,350162,1,0,0:0:0:0:
448,192,350162,1,4,0:0:0:0:
192,192,350295,1,2,0:0:0:0:
320,192,350428,1,4,0:0:0:0:
448,192,350428,1,0,0:0:0:0:
64,192,350562,1,2,0:0:0:0:
320,192,350695,1,4,0:0:0:0:
448,192,350695,1,0,0:0:0:0:
64,192,350828,1,2,0:0:0:0:
192,192,350962,1,0,0:0:0:0:
320,192,350962,1,0,0:0:0:0:
448,192,350962,1,8,0:0:0:0:
448,192,351095,1,4,0:0:0:0:
64,192,351095,1,0,0:0:0:0:
192,192,351228,1,0,0:0:0:0:
320,192,351228,1,4,0:0:0:0:
448,192,351362,1,4,0:0:0:0:
64,192,351362,1,0,0:0:0:0:
320,192,351495,1,4,0:0:0:0:
448,192,351495,1,0,0:0:0:0:
192,192,351628,1,4,0:0:0:0:
64,192,351628,1,0,0:0:0:0:
320,192,351762,1,4,0:0:0:0:
448,192,351762,1,0,0:0:0:0:
320,192,351895,1,4,0:0:0:0:
64,192,351895,1,0,0:0:0:0:
448,192,352028,1,0,0:0:0:0:
192,192,352028,1,0,0:0:0:0:
64,192,352028,1,8,0:0:0:0:
320,192,352162,1,4,0:0:0:0:
64,192,352162,1,0,0:0:0:0:
192,192,352295,1,4,0:0:0:0:
448,192,352295,1,0,0:0:0:0:
320,192,352428,1,4,0:0:0:0:
64,192,352428,1,0,0:0:0:0:
192,192,352562,1,4,0:0:0:0:
64,192,352562,1,0,0:0:0:0:
448,192,352695,1,0,0:0:0:0:
192,192,352695,1,4,0:0:0:0:
448,192,352828,1,0,0:0:0:0:
320,192,352828,1,4,0:0:0:0:
192,192,352895,1,4,0:0:0:0:
320,192,352962,1,4,0:0:0:0:
64,192,352962,1,0,0:0:0:0:
448,192,353028,1,4,0:0:0:0:
192,192,353095,1,0,0:0:0:0:
64,192,353095,1,8,0:0:0:0:
320,192,353095,1,0,0:0:0:0:
448,192,353228,1,0,0:0:0:0:
192,192,353228,1,4,0:0:0:0:
448,192,353362,1,0,0:0:0:0:
192,192,353362,1,4,0:0:0:0:
64,192,353495,1,0,0:0:0:0:
320,192,353495,1,0,0:0:0:0:
448,192,353495,1,8,0:0:0:0:
192,192,353628,1,4,0:0:0:0:
320,192,353628,1,0,0:0:0:0:
320,192,353762,1,0,0:0:0:0:
192,192,353762,1,4,0:0:0:0:
448,192,353895,1,8,0:0:0:0:
192,192,353895,1,0,0:0:0:0:
64,192,353895,1,0,0:0:0:0:
64,192,354028,1,0,0:0:0:0:
320,192,354028,1,4,0:0:0:0:
448,192,354162,1,0,0:0:0:0:
320,192,354162,1,0,0:0:0:0:
192,192,354162,1,8,0:0:0:0:
64,192,354295,1,4,0:0:0:0:
64,192,354428,1,0,0:0:0:0:
192,192,354428,1,0,0:0:0:0:
448,192,354428,1,8,0:0:0:0:
192,192,354562,1,4,0:0:0:0:
64,192,354695,1,8,0:0:0:0:
320,192,354695,1,0,0:0:0:0:
448,192,354695,1,0,0:0:0:0:
192,192,354828,1,4,0:0:0:0:
320,192,354828,1,0,0:0:0:0:
448,192,354962,1,0,0:0:0:0:
64,192,354962,1,4,0:0:0:0:
448,192,355095,1,8,0:0:0:0:
320,192,355095,1,0,0:0:0:0:
192,192,355095,1,0,0:0:0:0:
64,192,355228,128,0,356295:0:0:0:0:
448,192,357606,128,2,358075:0:0:0:0:
320,192,358075,128,2,358544:0:0:0:0:
192,192,358544,128,2,359481:0:0:0:0:
448,192,358778,1,4,0:0:0:0:
64,192,358895,1,4,0:0:0:0:
320,192,359012,1,4,0:0:0:0:
448,192,359129,1,4,0:0:0:0:
64,192,359247,1,4,0:0:0:0:
320,192,359364,1,4,0:0:0:0:
64,192,359481,128,2,360419:0:0:0:0:
448,192,359481,1,4,0:0:0:0:
320,192,359598,1,4,0:0:0:0:
192,192,359715,1,4,0:0:0:0:
448,192,359833,1,4,0:0:0:0:
192,192,359950,1,0,0:0:0:0:
320,192,359950,1,8,0:0:0:0:
448,192,360067,1,4,0:0:0:0:
192,192,360184,1,4,0:0:0:0:
320,192,360301,1,8,0:0:0:0:
448,192,360301,1,0,0:0:0:0:
64,192,360653,128,2,360887:0:0:0:0:
192,192,360887,128,2,361122:0:0:0:0:
448,192,360887,1,4,0:0:0:0:
320,192,361004,1,4,0:0:0:0:
448,192,361063,1,4,0:0:0:0:
320,192,361122,128,2,361356:0:0:0:0:
64,192,361122,1,8,0:0:0:0:
448,192,361356,1,4,0:0:0:0:
64,192,361356,128,0,363231:0:0:0:0:
320,192,361590,1,4,0:0:0:0:
192,192,361590,1,0,0:0:0:0:
448,192,362294,1,2,0:0:0:0:
192,192,362528,1,2,0:0:0:0:
320,192,362645,1,2,0:0:0:0:
448,192,362879,1,2,0:0:0:0:
320,192,363231,128,0,365106:0:0:0:0:
192,192,363231,1,2,0:0:0:0:
448,192,364169,1,2,0:0:0:0:
64,192,364403,1,2,0:0:0:0:
192,192,364520,1,2,0:0:0:0:
448,192,364754,1,2,0:0:0:0:
192,192,365106,128,0,366981:0:0:0:0:
64,192,365106,1,2,0:0:0:0:
64,192,365809,1,2,0:0:0:0:
448,192,366044,1,2,0:0:0:0:
64,192,366278,1,2,0:0:0:0:
448,192,366512,1,2,0:0:0:0:
64,192,366747,1,2,0:0:0:0:
320,192,366864,1,2,0:0:0:0:
64,192,366981,128,0,367919:0:0:0:0:
448,192,366981,1,2,0:0:0:0:
320,192,367215,1,2,0:0:0:0:
192,192,367450,1,2,0:0:0:0:
448,192,367684,1,2,0:0:0:0:
320,192,367919,128,0,368270:0:0:0:0:
192,192,367919,1,2,0:0:0:0:
448,192,368036,1,2,0:0:0:0:
192,192,368153,1,2,0:0:0:0:
64,192,368270,1,0,0:0:0:0:
448,192,368270,1,8,0:0:0:0:
192,192,368387,1,8,0:0:0:0:
320,192,368387,1,0,0:0:0:0:
448,192,368504,1,4,0:0:0:0:
64,192,368504,1,0,0:0:0:0:
320,192,368622,1,4,0:0:0:0:
192,192,368622,1,0,0:0:0:0:
64,192,368856,1,0,0:0:0:0:
320,192,368856,1,4,0:0:0:0:
448,192,368856,1,0,0:0:0:0:
64,192,369090,128,2,369325:0:0:0:0:
448,192,369090,1,8,0:0:0:0:
192,192,369325,128,2,369559:0:0:0:0:
448,192,369559,128,2,369794:0:0:0:0:
64,192,369559,1,8,0:0:0:0:
320,192,370028,1,8,0:0:0:0:
64,192,370028,1,0,0:0:0:0:
448,192,370497,1,0,0:0:0:0:
192,192,370497,1,8,0:0:0:0:
192,192,370965,128,2,371200:0:0:0:0:
448,192,370965,1,8,0:0:0:0:
320,192,371200,128,2,371434:0:0:0:0:
448,192,371434,128,2,371669:0:0:0:0:
64,192,371434,1,8,0:0:0:0:
192,192,371669,128,2,371903:0:0:0:0:
64,192,371903,128,2,372137:0:0:0:0:
448,192,371903,1,8,0:0:0:0:
320,192,372137,128,2,372372:0:0:0:0:
448,192,372372,1,4,0:0:0:0:
192,192,372372,128,2,372606:0:0:0:0:
64,192,372606,1,4,0:0:0:0:
448,192,372606,1,0,0:0:0:0:
448,192,372840,1,0,0:0:0:0:
64,192,372840,1,8,0:0:0:0:
448,192,373309,1,0,0:0:0:0:
320,192,373309,1,8,0:0:0:0:
64,192,373544,1,0,0:0:0:0:
320,192,373544,1,4,0:0:0:0:
192,192,373661,1,4,0:0:0:0:
448,192,373661,1,0,0:0:0:0:
64,192,373778,1,0,0:0:0:0:
320,192,373778,1,8,0:0:0:0:
448,192,374012,1,4,0:0:0:0:
320,192,374090,1,4,0:0:0:0:
192,192,374169,1,4,0:0:0:0:
64,192,374247,1,4,0:0:0:0:
192,192,374325,1,4,0:0:0:0:
320,192,374403,1,4,0:0:0:0:
64,192,374481,1,0,0:0:0:0:
448,192,374481,1,8,0:0:0:0:
320,192,374715,1,4,0:0:0:0:
192,192,374833,1,4,0:0:0:0:
320,192,374950,1,4,0:0:0:0:
64,192,375067,1,8,0:0:0:0:
192,192,375126,1,8,0:0:0:0:
320,192,375184,1,8,0:0:0:0:
448,192,375301,1,8,0:0:0:0:
64,192,375419,128,2,375536:0:0:0:0:
192,192,375419,1,4,0:0:0:0:
448,192,375536,128,2,375653:0:0:0:0:
320,192,375536,1,4,0:0:0:0:
192,192,375653,128,2,375770:0:0:0:0:
64,192,375653,1,4,0:0:0:0:
320,192,375770,128,2,375887:0:0:0:0:
448,192,375770,1,4,0:0:0:0:
64,192,375887,128,2,376004:0:0:0:0:
192,192,375887,1,4,0:0:0:0:
448,192,376004,128,2,376122:0:0:0:0:
320,192,376004,1,4,0:0:0:0:
192,192,376122,128,2,376239:0:0:0:0:
64,192,376122,1,4,0:0:0:0:
320,192,376239,128,2,376356:0:0:0:0:
448,192,376239,1,4,0:0:0:0:
64,192,376356,1,4,0:0:0:0:
192,192,376356,1,0,0:0:0:0:
448,192,376356,1,0,0:0:0:0:
320,192,376590,1,8,0:0:0:0:
64,192,376590,128,2,376825:0:0:0:0:
192,192,376825,128,2,377059:0:0:0:0:
320,192,376825,1,4,0:0:0:0:
448,192,376942,1,4,0:0:0:0:
320,192,377059,128,2,377294:0:0:0:0:
64,192,377059,1,8,0:0:0:0:
448,192,377294,1,4,0:0:0:0:
64,192,377294,1,0,0:0:0:0:
448,192,377528,1,0,0:0:0:0:
192,192,377528,1,8,0:0:0:0:
64,192,377645,1,0,0:0:0:0:
320,192,377645,1,4,0:0:0:0:
64,192,377879,1,0,0:0:0:0:
192,192,377879,1,4,0:0:0:0:
320,192,377997,1,8,0:0:0:0:
448,192,377997,1,0,0:0:0:0:
320,192,378231,1,4,0:0:0:0:
64,192,378231,1,0,0:0:0:0:
320,192,378465,1,8,0:0:0:0:
192,192,378465,128,2,378700:0:0:0:0:
320,192,378700,128,2,378934:0:0:0:0:
448,192,378700,1,4,0:0:0:0:
64,192,378817,1,4,0:0:0:0:
448,192,378934,128,2,379169:0:0:0:0:
192,192,378934,1,8,0:0:0:0:
64,192,379169,1,0,0:0:0:0:
320,192,379169,1,4,0:0:0:0:
448,192,379403,1,8,0:0:0:0:
192,192,379403,1,0,0:0:0:0:
320,192,379520,1,4,0:0:0:0:
64,192,379520,1,0,0:0:0:0:
64,192,379637,1,0,0:0:0:0:
320,192,379637,1,4,0:0:0:0:
64,192,379754,1,4,0:0:0:0:
320,192,379754,1,0,0:0:0:0:
192,192,379872,1,8,0:0:0:0:
448,192,379872,1,0,0:0:0:0:
320,192,380106,1,0,0:0:0:0:
192,192,380106,1,4,0:0:0:0:
448,192,380340,128,2,380575:0:0:0:0:
64,192,380340,1,8,0:0:0:0:
320,192,380575,128,2,380809:0:0:0:0:
192,192,380575,1,4,0:0:0:0:
64,192,380692,1,4,0:0:0:0:
192,192,380809,128,2,381044:0:0:0:0:
448,192,380809,1,8,0:0:0:0:
64,192,381044,1,0,0:0:0:0:
448,192,381044,1,4,0:0:0:0:
448,192,381278,1,8,0:0:0:0:
64,192,381278,1,0,0:0:0:0:
192,192,381395,1,4,0:0:0:0:
320,192,381395,1,0,0:0:0:0:
64,192,381629,1,0,0:0:0:0:
192,192,381629,1,4,0:0:0:0:
320,192,381747,1,8,0:0:0:0:
448,192,381747,1,0,0:0:0:0:
64,192,381981,1,0,0:0:0:0:
448,192,381981,1,4,0:0:0:0:
320,192,382215,128,2,382450:0:0:0:0:
192,192,382215,1,8,0:0:0:0:
192,192,382450,128,2,382684:0:0:0:0:
64,192,382450,1,4,0:0:0:0:
320,192,382567,1,4,0:0:0:0:
64,192,382684,128,2,382919:0:0:0:0:
448,192,382684,1,8,0:0:0:0:
320,192,382919,1,4,0:0:0:0:
192,192,382919,1,0,0:0:0:0:
448,192,383036,1,4,0:0:0:0:
64,192,383036,1,0,0:0:0:0:
320,192,383153,1,8,0:0:0:0:
448,192,383153,1,0,0:0:0:0:
192,192,383270,1,0,0:0:0:0:
320,192,383270,1,4,0:0:0:0:
64,192,383387,1,0,0:0:0:0:
192,192,383387,1,4,0:0:0:0:
448,192,383504,1,0,0:0:0:0:
320,192,383504,1,4,0:0:0:0:
64,192,383622,1,0,0:0:0:0:
192,192,383622,1,8,0:0:0:0:
64,192,383856,1,0,0:0:0:0:
320,192,383856,1,4,0:0:0:0:
448,192,383856,1,0,0:0:0:0:
448,192,384090,1,8,0:0:0:0:
64,192,384090,128,2,384325:0:0:0:0:
320,192,384325,128,2,384559:0:0:0:0:
192,192,384325,1,4,0:0:0:0:
64,192,384442,1,4,0:0:0:0:
448,192,384559,128,2,384794:0:0:0:0:
192,192,384559,1,8,0:0:0:0:
64,192,384794,1,0,0:0:0:0:
320,192,384794,1,4,0:0:0:0:
448,192,385028,1,8,0:0:0:0:
192,192,385028,1,0,0:0:0:0:
320,192,385145,1,4,0:0:0:0:
64,192,385145,1,0,0:0:0:0:
64,192,385379,1,0,0:0:0:0:
192,192,385379,1,4,0:0:0:0:
320,192,385497,1,8,0:0:0:0:
448,192,385497,1,0,0:0:0:0:
64,192,385731,1,0,0:0:0:0:
448,192,385731,1,4,0:0:0:0:
448,192,385965,128,2,386200:0:0:0:0:
320,192,385965,1,8,0:0:0:0:
192,192,386200,128,2,386434:0:0:0:0:
64,192,386200,1,4,0:0:0:0:
320,192,386317,1,4,0:0:0:0:
64,192,386434,128,2,386669:0:0:0:0:
448,192,386434,1,8,0:0:0:0:
192,192,386669,1,4,0:0:0:0:
448,192,386669,1,0,0:0:0:0:
448,192,386903,1,0,0:0:0:0:
320,192,386903,1,8,0:0:0:0:
64,192,387020,1,0,0:0:0:0:
192,192,387020,1,4,0:0:0:0:
64,192,387137,1,0,0:0:0:0:
192,192,387137,1,4,0:0:0:0:
192,192,387254,1,4,0:0:0:0:
448,192,387254,1,0,0:0:0:0:
64,192,387372,1,0,0:0:0:0:
320,192,387372,1,8,0:0:0:0:
320,192,387489,1,8,0:0:0:0:
192,192,387489,1,0,0:0:0:0:
192,192,387606,1,0,0:0:0:0:
64,192,387606,1,0,0:0:0:0:
448,192,387606,1,4,0:0:0:0:
320,192,387840,1,8,0:0:0:0:
192,192,387840,1,0,0:0:0:0:
64,192,388075,1,0,0:0:0:0:
192,192,388075,1,4,0:0:0:0:
64,192,388192,1,0,0:0:0:0:
192,192,388192,1,4,0:0:0:0:
448,192,388309,1,0,0:0:0:0:
320,192,388309,1,8,0:0:0:0:
64,192,388544,1,0,0:0:0:0:
192,192,388544,1,4,0:0:0:0:
448,192,388778,1,8,0:0:0:0:
192,192,388778,1,0,0:0:0:0:
64,192,388895,1,0,0:0:0:0:
320,192,388895,1,4,0:0:0:0:
64,192,389129,1,4,0:0:0:0:
192,192,389129,1,0,0:0:0:0:
320,192,389247,1,8,0:0:0:0:
448,192,389247,1,0,0:0:0:0:
64,192,389481,1,0,0:0:0:0:
320,192,389481,1,4,0:0:0:0:
448,192,389715,1,8,0:0:0:0:
192,192,389715,1,0,0:0:0:0:
64,192,389950,1,0,0:0:0:0:
320,192,389950,1,4,0:0:0:0:
320,192,390067,1,4,0:0:0:0:
64,192,390067,1,0,0:0:0:0:
192,192,390184,1,8,0:0:0:0:
448,192,390184,1,0,0:0:0:0:
64,192,390419,1,4,0:0:0:0:
448,192,390419,1,0,0:0:0:0:
448,192,390653,1,0,0:0:0:0:
320,192,390653,1,8,0:0:0:0:
64,192,390887,1,0,0:0:0:0:
192,192,390887,1,4,0:0:0:0:
448,192,391004,1,0,0:0:0:0:
192,192,391004,1,8,0:0:0:0:
320,192,391122,1,4,0:0:0:0:
448,192,391122,1,0,0:0:0:0:
64,192,391239,1,0,0:0:0:0:
192,192,391239,1,4,0:0:0:0:
448,192,391356,1,0,0:0:0:0:
320,192,391356,1,0,0:0:0:0:
64,192,391356,1,4,0:0:0:0:
448,192,391590,1,8,0:0:0:0:
64,192,391590,1,0,0:0:0:0:
64,192,391825,1,0,0:0:0:0:
192,192,391825,1,4,0:0:0:0:
192,192,391942,1,4,0:0:0:0:
320,192,391942,1,0,0:0:0:0:
320,192,392059,1,8,0:0:0:0:
448,192,392059,1,0,0:0:0:0:
64,192,392294,1,0,0:0:0:0:
320,192,392294,1,4,0:0:0:0:
448,192,392528,1,8,0:0:0:0:
192,192,392528,1,0,0:0:0:0:
64,192,392645,1,0,0:0:0:0:
320,192,392645,1,4,0:0:0:0:
64,192,392879,1,0,0:0:0:0:
192,192,392879,1,4,0:0:0:0:
320,192,392997,1,8,0:0:0:0:
448,192,392997,1,0,0:0:0:0:
64,192,393231,1,0,0:0:0:0:
448,192,393231,1,4,0:0:0:0:
448,192,393465,1,0,0:0:0:0:
320,192,393465,1,8,0:0:0:0:
64,192,393700,1,0,0:0:0:0:
192,192,393700,1,4,0:0:0:0:
320,192,393817,1,0,0:0:0:0:
192,192,393817,1,4,0:0:0:0:
320,192,393934,1,8,0:0:0:0:
448,192,393934,1,0,0:0:0:0:
64,192,394169,1,0,0:0:0:0:
448,192,394169,1,4,0:0:0:0:
320,192,394247,1,4,0:0:0:0:
192,192,394325,1,4,0:0:0:0:
64,192,394403,1,4,0:0:0:0:
320,192,394481,1,4,0:0:0:0:
192,192,394559,1,4,0:0:0:0:
64,192,394637,1,4,0:0:0:0:
192,192,394754,1,4,0:0:0:0:
448,192,394872,1,4,0:0:0:0:
320,192,394989,1,4,0:0:0:0:
448,192,395106,1,8,0:0:0:0:
64,192,395106,1,0,0:0:0:0:
192,192,395106,1,0,0:0:0:0:
64,192,395340,1,0,0:0:0:0:
320,192,395340,1,8,0:0:0:0:
448,192,395575,1,8,0:0:0:0:
64,192,395575,1,0,0:0:0:0:
192,192,395692,1,0,0:0:0:0:
320,192,395692,1,4,0:0:0:0:
320,192,395809,1,8,0:0:0:0:
448,192,395809,1,0,0:0:0:0:
192,192,395926,1,4,0:0:0:0:
64,192,395926,1,0,0:0:0:0:
64,192,396044,1,0,0:0:0:0:
320,192,396044,1,8,0:0:0:0:
448,192,396161,1,0,0:0:0:0:
320,192,396161,1,4,0:0:0:0:
192,192,396278,1,8,0:0:0:0:
64,192,396278,1,0,0:0:0:0:
320,192,396395,1,4,0:0:0:0:
192,192,396454,1,4,0:0:0:0:
448,192,396512,1,0,0:0:0:0:
64,192,396512,1,8,0:0:0:0:
192,192,396629,1,0,0:0:0:0:
320,192,396629,1,4,0:0:0:0:
64,192,396747,1,0,0:0:0:0:
448,192,396747,1,8,0:0:0:0:
320,192,396864,1,4,0:0:0:0:
192,192,396864,1,0,0:0:0:0:
192,192,396981,1,8,0:0:0:0:
64,192,396981,1,0,0:0:0:0:
448,192,397215,1,8,0:0:0:0:
64,192,397215,1,0,0:0:0:0:
448,192,397450,1,0,0:0:0:0:
320,192,397450,1,8,0:0:0:0:
64,192,397567,1,0,0:0:0:0:
192,192,397567,1,4,0:0:0:0:
448,192,397684,1,0,0:0:0:0:
320,192,397684,1,8,0:0:0:0:
192,192,397801,1,4,0:0:0:0:
448,192,397801,1,0,0:0:0:0:
320,192,397919,1,8,0:0:0:0:
64,192,397919,1,0,0:0:0:0:
192,192,398036,1,4,0:0:0:0:
64,192,398036,1,0,0:0:0:0:
448,192,398153,1,0,0:0:0:0:
320,192,398153,1,8,0:0:0:0:
64,192,398270,1,4,0:0:0:0:
192,192,398329,1,4,0:0:0:0:
320,192,398387,1,8,0:0:0:0:
448,192,398387,1,0,0:0:0:0:
320,192,398504,1,0,0:0:0:0:
192,192,398504,1,4,0:0:0:0:
64,192,398622,1,0,0:0:0:0:
448,192,398622,1,8,0:0:0:0:
192,192,398739,1,0,0:0:0:0:
320,192,398739,1,4,0:0:0:0:
448,192,398856,1,8,0:0:0:0:
64,192,398856,1,0,0:0:0:0:
320,192,399090,1,8,0:0:0:0:
192,192,399090,1,0,0:0:0:0:
64,192,399325,1,0,0:0:0:0:
448,192,399325,1,8,0:0:0:0:
448,192,399442,1,0,0:0:0:0:
320,192,399442,1,4,0:0:0:0:
192,192,399559,1,8,0:0:0:0:
64,192,399559,1,0,0:0:0:0:
192,192,399676,1,4,0:0:0:0:
448,192,399676,1,0,0:0:0:0:
320,192,399794,1,8,0:0:0:0:
64,192,399794,1,0,0:0:0:0:
192,192,399911,1,4,0:0:0:0:
320,192,399911,1,0,0:0:0:0:
448,192,400028,1,8,0:0:0:0:
64,192,400028,1,0,0:0:0:0:
320,192,400145,1,4,0:0:0:0:
192,192,400204,1,4,0:0:0:0:
64,192,400262,1,0,0:0:0:0:
448,192,400262,1,8,0:0:0:0:
192,192,400379,1,0,0:0:0:0:
320,192,400379,1,4,0:0:0:0:
192,192,400497,1,8,0:0:0:0:
448,192,400497,1,0,0:0:0:0:
320,192,400614,1,4,0:0:0:0:
64,192,400614,1,0,0:0:0:0:
64,192,400731,1,0,0:0:0:0:
448,192,400731,1,8,0:0:0:0:
320,192,400848,1,4,0:0:0:0:
192,192,400848,1,0,0:0:0:0:
64,192,400965,1,8,0:0:0:0:
448,192,400965,1,0,0:0:0:0:
448,192,401200,1,0,0:0:0:0:
320,192,401200,1,8,0:0:0:0:
64,192,401317,1,0,0:0:0:0:
192,192,401317,1,4,0:0:0:0:
320,192,401434,1,8,0:0:0:0:
448,192,401434,1,0,0:0:0:0:
64,192,401551,1,0,0:0:0:0:
320,192,401551,1,4,0:0:0:0:
448,192,401669,1,0,0:0:0:0:
192,192,401669,1,8,0:0:0:0:
64,192,401903,1,0,0:0:0:0:
192,192,401903,1,8,0:0:0:0:
448,192,402020,1,4,0:0:0:0:
320,192,402079,1,4,0:0:0:0:
192,192,402137,1,8,0:0:0:0:
64,192,402137,1,0,0:0:0:0:
320,192,402254,1,4,0:0:0:0:
448,192,402254,1,0,0:0:0:0:
64,192,402372,1,0,0:0:0:0:
320,192,402372,1,8,0:0:0:0:
448,192,402489,1,0,0:0:0:0:
192,192,402489,1,4,0:0:0:0:
448,192,402606,1,8,0:0:0:0:
64,192,402606,1,0,0:0:0:0:
320,192,402606,1,0,0:0:0:0:
448,192,402840,1,8,0:0:0:0:
64,192,402840,1,0,0:0:0:0:
192,192,403075,1,8,0:0:0:0:
64,192,403075,1,0,0:0:0:0:
320,192,403192,1,0,0:0:0:0:
192,192,403192,1,4,0:0:0:0:
448,192,403309,1,0,0:0:0:0:
64,192,403309,1,8,0:0:0:0:
192,192,403426,1,0,0:0:0:0:
320,192,403426,1,4,0:0:0:0:
448,192,403544,1,0,0:0:0:0:
64,192,403544,1,8,0:0:0:0:
64,192,403661,1,0,0:0:0:0:
192,192,403661,1,4,0:0:0:0:
320,192,403778,1,8,0:0:0:0:
448,192,403778,1,0,0:0:0:0:
448,192,403895,1,4,0:0:0:0:
320,192,403954,1,4,0:0:0:0:
192,192,404012,1,8,0:0:0:0:
64,192,404012,1,0,0:0:0:0:
448,192,404129,1,0,0:0:0:0:
320,192,404129,1,4,0:0:0:0:
192,192,404247,1,8,0:0:0:0:
64,192,404247,1,0,0:0:0:0:
320,192,404364,1,4,0:0:0:0:
192,192,404364,1,0,0:0:0:0:
64,192,404481,1,8,0:0:0:0:
448,192,404481,1,0,0:0:0:0:
448,192,404715,1,0,0:0:0:0:
320,192,404715,1,8,0:0:0:0:
64,192,404950,1,0,0:0:0:0:
192,192,404950,1,8,0:0:0:0:
448,192,405067,1,0,0:0:0:0:
320,192,405067,1,4,0:0:0:0:
64,192,405184,1,0,0:0:0:0:
320,192,405184,1,8,0:0:0:0:
192,192,405301,1,4,0:0:0:0:
448,192,405301,1,0,0:0:0:0:
64,192,405419,1,0,0:0:0:0:
192,192,405419,1,8,0:0:0:0:
320,192,405536,1,4,0:0:0:0:
448,192,405536,1,0,0:0:0:0:
64,192,405653,1,0,0:0:0:0:
192,192,405653,1,8,0:0:0:0:
448,192,405770,1,4,0:0:0:0:
320,192,405829,1,4,0:0:0:0:
192,192,405887,1,8,0:0:0:0:
64,192,405887,1,0,0:0:0:0:
448,192,406004,1,0,0:0:0:0:
192,192,406004,1,4,0:0:0:0:
64,192,406122,1,0,0:0:0:0:
320,192,406122,1,8,0:0:0:0:
192,192,406239,1,4,0:0:0:0:
320,192,406239,1,0,0:0:0:0:
448,192,406356,1,4,0:0:0:0:
192,192,406356,1,0,0:0:0:0:
64,192,406356,1,0,0:0:0:0:
64,192,406473,1,0,0:0:0:0:
448,192,406473,1,8,0:0:0:0:
320,192,406590,1,4,0:0:0:0:
192,192,406590,1,0,0:0:0:0:
64,192,406708,1,8,0:0:0:0:
448,192,406708,1,0,0:0:0:0:
320,192,406825,1,4,0:0:0:0:
192,192,406825,1,0,0:0:0:0:
64,192,406942,1,0,0:0:0:0:
448,192,406942,1,8,0:0:0:0:
320,192,407059,1,0,0:0:0:0:
192,192,407059,1,4,0:0:0:0:
64,192,407176,1,8,0:0:0:0:
448,192,407176,1,0,0:0:0:0:
192,192,407294,1,0,0:0:0:0:
320,192,407294,1,4,0:0:0:0:
64,192,407411,1,0,0:0:0:0:
448,192,407411,1,8,0:0:0:0:
448,192,407528,1,0,0:0:0:0:
320,192,407528,1,8,0:0:0:0:
192,192,407645,1,8,0:0:0:0:
320,192,407645,1,0,0:0:0:0:
64,192,407762,1,4,0:0:0:0:
192,192,407762,1,0,0:0:0:0:
320,192,407879,1,4,0:0:0:0:
64,192,407879,1,0,0:0:0:0:
192,192,407997,1,4,0:0:0:0:
448,192,407997,1,0,0:0:0:0:
64,192,408114,1,4,0:0:0:0:
320,192,408114,1,0,0:0:0:0:
192,192,408231,1,0,0:0:0:0:
64,192,408231,1,0,0:0:0:0:
448,192,408231,1,8,0:0:0:0:
320,192,408465,1,0,0:0:0:0:
448,192,408583,1,0,0:0:0:0:
64,192,408700,1,0,0:0:0:0:
192,192,408700,1,8,0:0:0:0:
448,192,408817,1,8,0:0:0:0:
192,192,408817,1,0,0:0:0:0:
320,192,408934,1,8,0:0:0:0:
448,192,408934,1,0,0:0:0:0:
64,192,409051,1,0,0:0:0:0:
192,192,409051,1,8,0:0:0:0:
448,192,409169,1,0,0:0:0:0:
320,192,409169,1,8,0:0:0:0:
64,192,409286,1,4,0:0:0:0:
320,192,409286,1,0,0:0:0:0:
192,192,409403,1,4,0:0:0:0:
448,192,409403,1,0,0:0:0:0:
320,192,409520,1,8,0:0:0:0:
192,192,409520,1,0,0:0:0:0:
64,192,409637,1,4,0:0:0:0:
448,192,409754,1,0,0:0:0:0:
320,192,409754,1,4,0:0:0:0:
192,192,409872,1,8,0:0:0:0:
64,192,409872,1,0,0:0:0:0:
320,192,409989,1,4,0:0:0:0:
192,192,409989,1,0,0:0:0:0:
64,192,410106,1,8,0:0:0:0:
320,192,410106,1,0,0:0:0:0:
448,192,410106,1,0,0:0:0:0:
448,192,410223,1,4,0:0:0:0:
320,192,410223,1,0,0:0:0:0:
320,192,410340,1,0,0:0:0:0:
448,192,410340,1,4,0:0:0:0:
448,192,410458,1,8,0:0:0:0:
64,192,410458,1,0,0:0:0:0:
192,192,410458,1,0,0:0:0:0:
64,192,410575,1,0,0:0:0:0:
320,192,410575,1,4,0:0:0:0:
320,192,410692,1,4,0:0:0:0:
64,192,410692,1,0,0:0:0:0:
64,192,410809,1,0,0:0:0:0:
448,192,410809,1,0,0:0:0:0:
192,192,410809,1,8,0:0:0:0:
448,192,410926,1,0,0:0:0:0:
320,192,410926,1,4,0:0:0:0:
320,192,411044,1,4,0:0:0:0:
448,192,411044,1,0,0:0:0:0:
64,192,411161,1,0,0:0:0:0:
192,192,411161,1,0,0:0:0:0:
320,192,411161,1,8,0:0:0:0:
448,192,411278,1,0,0:0:0:0:
192,192,411278,1,4,0:0:0:0:
192,192,411395,1,4,0:0:0:0:
448,192,411395,1,0,0:0:0:0:
64,192,411512,1,0,0:0:0:0:
320,192,411512,1,0,0:0:0:0:
448,192,411512,1,8,0:0:0:0:
192,192,411629,1,4,0:0:0:0:
320,192,411629,1,0,0:0:0:0:
64,192,411747,1,0,0:0:0:0:
448,192,411747,1,4,0:0:0:0:
320,192,411864,1,4,0:0:0:0:
192,192,411864,1,0,0:0:0:0:
64,192,411981,1,8,0:0:0:0:
192,192,411981,1,0,0:0:0:0:
448,192,411981,1,0,0:0:0:0:
320,192,412098,1,4,0:0:0:0:
448,192,412098,1,0,0:0:0:0:
192,192,412215,1,4,0:0:0:0:
64,192,412215,1,0,0:0:0:0:
64,192,412333,1,0,0:0:0:0:
320,192,412333,1,0,0:0:0:0:
448,192,412333,1,8,0:0:0:0:
64,192,412450,1,0,0:0:0:0:
192,192,412450,1,4,0:0:0:0:
320,192,412567,1,4,0:0:0:0:
448,192,412567,1,0,0:0:0:0:
64,192,412684,1,8,0:0:0:0:
320,192,412684,1,0,0:0:0:0:
192,192,412684,1,0,0:0:0:0:
448,192,412801,1,0,0:0:0:0:
192,192,412801,1,4,0:0:0:0:
64,192,412919,1,0,0:0:0:0:
320,192,412919,1,4,0:0:0:0:
192,192,413036,1,8,0:0:0:0:
64,192,413036,1,0,0:0:0:0:
448,192,413036,1,0,0:0:0:0:
320,192,413153,1,0,0:0:0:0:
192,192,413153,1,4,0:0:0:0:
320,192,413270,1,4,0:0:0:0:
448,192,413270,1,0,0:0:0:0:
64,192,413387,1,0,0:0:0:0:
192,192,413387,1,8,0:0:0:0:
448,192,413387,1,0,0:0:0:0:
448,192,413504,1,0,0:0:0:0:
320,192,413504,1,4,0:0:0:0:
64,192,413622,1,0,0:0:0:0:
192,192,413622,1,4,0:0:0:0:
192,192,413739,1,8,0:0:0:0:
448,192,413739,1,0,0:0:0:0:
64,192,413739,128,2,417606:0:0:0:0:
320,192,413856,128,2,413973:0:0:0:0:
192,192,414090,128,2,414208:0:0:0:0:
448,192,414325,128,2,414442:0:0:0:0:
192,192,414442,1,2,0:0:0:0:
320,192,414559,128,2,414676:0:0:0:0:
192,192,414676,1,2,0:0:0:0:
448,192,414794,128,2,414911:0:0:0:0:
320,192,415028,128,2,415145:0:0:0:0:
192,192,415262,128,2,415379:0:0:0:0:
448,192,415379,1,2,0:0:0:0:
320,192,415497,128,2,415614:0:0:0:0:
192,192,415614,1,2,0:0:0:0:
448,192,415731,128,2,415848:0:0:0:0:
320,192,415965,128,2,416083:0:0:0:0:
192,192,416200,128,2,416317:0:0:0:0:
448,192,416317,1,2,0:0:0:0:
320,192,416434,128,2,416551:0:0:0:0:
192,192,416551,1,2,0:0:0:0:
448,192,416669,128,2,416786:0:0:0:0:
192,192,416786,1,2,0:0:0:0:
320,192,416903,128,2,417020:0:0:0:0:
448,192,417020,1,2,0:0:0:0:
192,192,417137,128,2,417254:0:0:0:0:
320,192,417254,1,2,0:0:0:0:
448,192,417372,128,2,417606:0:0:0:0:
320,192,417489,128,2,417606:0:0:0:0:
