osu file format v14

[General]
AudioFilename: bassdrop freaks.mp3
AudioLeadIn: 0
PreviewTime: 33316
Countdown: 0
SampleSet: Normal
StackLeniency: 0.7
Mode: 0
LetterboxInBreaks: 0
WidescreenStoryboard: 0

[Editor]
Bookmarks: 47730
DistanceSpacing: 1.6
BeatDivisor: 4
GridSize: 4
TimelineZoom: 2.3

[Metadata]
Title:Bassdrop Freaks
TitleUnicode:ベィスドロップ・フリークス
Artist:Camellia feat. Nanahira
ArtistUnicode:かめりあ feat. ななひら
Creator:Horo
Version:DJ HORO
Source:beatmaniaIIDX22 PENDUAL
Tags:ost beatmania this song sucks and all the maps of it do too
BeatmapID:680722
BeatmapSetID:303800

[Difficulty]
HPDrainRate:3
CircleSize:4
OverallDifficulty:7.6
ApproachRate:9.6
SliderMultiplier:2.8
SliderTickRate:1

[Events]
//Background and Video events
0,0,"beesudoroppu.png",0,0
//Break Periods
//Storyboard Layer 0 (Background)
//Storyboard Layer 1 (Fail)
//Storyboard Layer 2 (Pass)
//Storyboard Layer 3 (Foreground)
//Storyboard Sound Samples
Sample,32133,3,"laugh.wav",100

[TimingPoints]
1128,335.195530726257,4,1,0,100,1,0
2133,-100,4,3,0,100,0,0
2468,-100,4,3,1,100,0,0
3306,-100,4,2,0,40,0,0
3641,-100,4,3,0,60,0,0
3977,-100,4,3,0,30,0,0
4312,-100,4,3,0,60,0,0
4647,-100,4,3,0,30,0,0
5150,-100,4,3,0,60,0,0
5820,-66.6666666666667,4,2,0,60,0,0
6323,-100,4,3,0,100,0,0
7831,-100,4,3,1,100,0,0
10513,-100,4,3,1,45,0,0
11854,-66.6666666666667,4,1,1,50,0,0
12859,-100,4,3,0,100,0,0
13195,-100,4,3,1,100,0,0
13530,-100,4,3,0,100,0,0
14033,-71.4285714285714,4,3,0,100,0,0
14368,-100,4,3,0,100,0,0
14703,-100,4,3,0,45,0,0
15038,-100,4,3,0,75,0,0
16211,-66.6666666666667,4,3,0,100,0,0
17049,-100,4,3,0,100,0,0
17720,-66.6666666666667,4,3,0,100,0,0
18558,-100,4,3,0,100,0,0
19228,-66.6666666666667,4,3,3,70,0,0
19898,-100,4,3,0,100,0,0
20904,-66.6666666666667,4,3,0,100,0,0
21239,-100,4,3,0,100,0,0
22580,-80,4,3,0,100,0,0
22580,-83.3333333333333,4,3,0,100,0,0
23921,-200,4,1,0,50,0,0
25932,-100,4,1,0,50,0,0
26938,-133.333333333333,4,1,0,50,0,0
27273,-100,4,1,0,50,0,0
28614,-50,4,1,3,90,0,0
28949,-50,4,1,0,50,0,0
29284,-100,4,1,0,50,0,0
31295,-80,4,1,0,50,0,0
33306,-200,4,1,0,10,0,0
33977,-80,4,1,0,10,0,0
34647,-50,4,1,69,100,0,1
35150,-50,4,1,0,100,0,1
37999,-66.6666666666667,4,1,0,100,0,1
40010,-100,4,1,0,100,0,1
40513,-57.1428571428571,4,1,0,100,0,1
42021,-66.6666666666667,4,1,0,100,0,1
42357,-100,4,1,0,100,0,1
42692,-86.9565217391304,4,1,0,90,0,1
44703,-66.6666666666667,4,1,0,90,0,1
45373,-66.6666666666667,4,1,69,100,0,1
45876,-66.6666666666667,4,1,0,100,0,1
46379,-50,4,1,0,100,0,1
47384,-66.6666666666667,4,1,0,100,0,1
48725,-50,4,1,0,100,0,1
50736,-100,4,1,1,70,0,1
51407,-100,4,1,0,100,0,1
52077,-66.6666666666667,4,1,0,100,0,1
58781,-100,4,1,0,100,0,1
65485,-66.6666666666667,4,1,0,100,0,1
66826,-100,4,1,0,100,0,1

[Colours]
Combo1 : 251,231,254
Combo2 : 255,85,85

[HitObjects]
72,80,2133,5,2,0:0:0:0:
232,264,2301,1,0,0:0:0:0:
288,144,2468,6,0,B|240:176|216:120|216:120|112:152|160:248|80:232,1,280,8|0,0:0|0:0,0:0:0:0:
56,328,3139,5,0,0:0:0:0:
144,96,3306,2,0,P|128:176|184:112,1,210
236,292,3641,6,0,B|236:388|336:268|360:324|432:312|304:372,1,210,8|0,0:0|0:0,0:0:0:0:
464,248,3977,2,0,B|464:176|312:144|292:264|344:228,1,210,8|0,0:0|0:0,0:0:0:0:
256,180,4312,6,0,B|208:224|176:144|176:144|184:240|76:216,1,210,8|0,0:0|0:0,0:0:0:0:
48,72,4647,2,0,B|96:16|152:64|152:64|192:48,1,140
400,48,4982,1,2,0:0:0:0:
40,216,5150,6,0,B|168:168|192:312|192:312|256:280,1,280,10|0,0:0|0:0,0:0:0:0:
320,216,5653,1,0,0:0:0:0:
224,292,5820,6,2,B|175:275|172:408|78:230,1,105.000004005432
32,200,5988,2,2,B|65:247|119:93|137:272,1,105.000004005432
224,124,6155,2,2,P|148:76|115:85,1,105.000004005432
16,248,6323,6,0,B|78:228|11:95|210:133,1,210,8|0,0:0|0:0,0:0:0:0:
304,68,6658,2,0,B|240:92|236:148|264:176|408:156|296:296|296:296,1,210,2|0,0:0|0:0,0:0:0:0:
48,320,6993,2,0,B|60:384|128:336|128:336|184:312|276:348,1,210,8|0,0:0|0:0,0:0:0:0:
336,328,7329,1,2,0:0:0:0:
96,248,7496,1,0,0:0:0:0:
356,136,7664,1,0,0:0:0:0:
120,48,7831,6,0,B|88:132|96:164|164:184|220:152|220:104|148:76|120:100|132:144|152:156|156:156,1,210,8|0,0:0|0:0,0:0:0:0:
260,184,8167,2,0,B|264:224|216:280|-112:196|56:280|120:268,1,280
200,324,8669,1,0,0:0:0:0:
352,100,9005,6,0,B|256:152|404:144|432:168|464:216,1,210
188,172,9340,2,0,B|284:120|136:128|108:104|76:56,1,210
456,76,9675,2,0,B|364:44|252:148|316:236|384:216|404:116,1,280
424,104,10178,1,0,0:0:0:0:
192,352,10345,1,0,0:0:0:0:
100,24,10513,5,0,0:0:0:0:
136,56,10597,1,0,0:0:0:0:
152,100,10681,1,0,0:0:0:0:
124,144,10764,1,0,0:0:0:0:
140,192,10848,2,0,B|188:188|172:180|192:232,1,70
248,300,11016,5,0,0:0:0:0:
292,328,11100,1,0,0:0:0:0:
344,324,11183,2,0,B|344:296|396:340|400:288,1,70
420,192,11351,5,0,0:0:0:0:
404,144,11435,1,0,0:0:0:0:
364,112,11519,2,0,B|364:92|304:148|304:84,1,70
88,100,11686,2,0,B|124:84|116:36|180:96,1,70
328,132,11854,6,0,B|284:0|304:192|248:20|344:252|120:224,1,210.000008010865,8|0,0:0|0:0,0:0:0:0:
136,264,12105,6,0,B|148:316|112:324|64:304|56:260|56:200|80:156|104:144,1,210.000008010865,8|0,0:0|0:0,0:0:0:0:
96,72,12357,6,0,B|172:72|260:144|260:144|200:188|212:152,1,210.000008010865,8|0,0:0|0:0,0:0:0:0:
168,216,12608,6,0,B|136:236|136:236|224:312|300:312,1,210.000008010865,8|0,0:0|0:0,0:0:0:0:
472,340,12859,6,0,P|452:312|388:320,1,70
280,216,13027,1,0,0:0:0:0:
280,216,13111,1,0,0:0:0:0:
280,216,13195,6,0,P|352:232|344:180,1,140,8|0,0:0|0:0,0:0:0:0:
368,84,13530,2,0,B|372:48|316:28|316:28|288:60|296:140|212:128|180:88,1,210
144,104,13865,1,8,0:0:0:0:
32,256,14033,2,0,B|104:212|176:212|216:236|236:316|224:344|132:336|92:280|184:272|184:272,1,293.999991027832,2|0,0:0|0:0,0:0:0:0:
272,248,14368,6,0,B|308:328|412:292|412:292|372:260,1,210
368,180,14703,2,0,B|344:72|200:264|152:108,1,210,8|0,0:0|0:0,0:0:0:0:
76,132,15038,2,0,B|160:224|-72:-284|272:252|184:16,1,280,0|2,0:0|0:0,0:0:0:0:
432,80,15541,1,0,0:0:0:0:
288,112,15653,1,0,0:0:0:0:
392,212,15764,1,0,0:0:0:0:
288,112,15876,6,0,B|236:152|140:76|140:76|96:144,1,210
56,176,16211,2,0,B|40:244|140:216|156:248,1,105.000004005432
404,304,16379,2,0,B|420:236|320:264|304:232,1,105.000004005432
60,272,16546,6,0,B|56:336|56:336|92:272|92:272|96:328|96:328|144:276|144:276|144:320|144:324|180:280|180:280|200:296|204:300|216:280|220:292|232:308|232:308|264:308,1,420.000016021729
432,164,17049,2,0,P|360:204|420:128,1,210
392,80,17384,2,0,B|332:148|260:68|260:68|204:148,1,210,2|0,0:0|0:0,0:0:0:0:
156,128,17720,2,0,B|88:152|76:248|192:240|176:172|136:160|72:208|100:300|148:292,1,210.000008010865
68,320,18222,5,0,0:0:0:0:
232,48,18390,1,2,0:0:0:0:
440,260,18558,2,0,P|424:220|412:308,1,280
432,332,19060,1,0,0:0:0:0:
456,200,19228,6,0,B|400:188|376:236|376:236|336:224,1,105.000004005432,2|0,0:0|0:0,0:0:0:0:
224,320,19396,2,0,B|168:296|188:244|188:244|164:216,1,105.000004005432,2|0,0:0|0:0,0:0:0:0:
252,116,19563,2,0,B|296:88|320:140|334:126|364:104,1,105.000004005432,2|0,0:0|0:0,0:0:0:0:
112,300,19730,1,0,0:0:0:0:
284,244,19898,6,0,B|248:180|116:196|116:196|200:164|128:100,1,280,4|0,0:0|0:0,0:0:0:0:
60,96,20401,1,0,0:0:0:0:
400,52,20569,1,0,0:0:0:0:
420,100,20653,1,0,0:0:0:0:
400,148,20736,1,0,0:0:0:0:
352,168,20820,1,0,0:0:0:0:
300,164,20904,6,0,P|224:180|336:240,1,315.000012016297
424,272,21239,2,0,B|380:300|336:244|336:244|296:368|216:196|164:340,1,280,4|0,0:0|0:0,0:0:0:0:
88,268,21742,2,0,B|124:244|140:200|140:164|100:68|40:68|-48:176|0:256|148:292|144:116|132:96,1,420,2|0,0:0|0:0,0:0:0:0:
288,72,22412,5,0,0:0:0:0:
288,72,22496,1,0,0:0:0:0:
288,72,22580,2,0,B|396:68|452:160|452:160|324:144,1,262.5,4|0,0:0|0:0,0:0:0:0:
224,156,22915,2,0,B|180:160|180:160|232:232|336:224,1,175,4|0,0:0|0:0,0:0:0:0:
416,248,23250,1,0,0:0:0:0:
208,336,23418,1,0,0:0:0:0:
64,92,23585,2,0,B|56:232|64:240|152:252|184:184|132:140|88:160|88:224,1,262.5,4|0,0:0|0:0,0:0:0:0:
52,228,23921,6,2,P|94:276|153:248,1,140
208,168,24424,2,0,P|268:136|324:188,1,140,2|0,0:0|0:0,0:0:0:0:
400,256,24926,1,0,0:0:0:0:
420,88,25094,2,0,B|356:92|384:168|308:176,1,140,2|0,0:0|0:0,0:0:0:0:
204,212,25597,1,0,0:0:0:0:
84,104,25764,1,2,0:0:0:0:
68,208,25932,6,2,B|56:244|80:260|104:268|52:320,1,70
212,312,26100,2,2,B|224:276|200:260|176:252|228:200,1,70
300,188,26267,2,2,B|294:231|284:280|356:304|356:304|404:304|436:260|404:212|372:228|340:256|332:284,1,280,2|0,0:0|0:0,0:0:0:0:
292,300,26770,5,2,0:0:0:0:
292,300,26854,1,2,0:0:0:0:
292,300,26938,2,0,B|252:316|204:292|204:292|228:276,1,105.000004005432,2|0,0:0|0:0,0:0:0:0:
372,200,27273,2,0,P|416:136|384:64,1,140,2|0,0:0|0:0,0:0:0:0:
296,48,27524,2,0,B|256:88|192:52|192:52|204:124,1,140,2|0,0:0|0:0,0:0:0:0:
72,128,27776,2,0,B|136:112|104:216|196:200,1,140,2|0,0:0|0:0,0:0:0:0:
216,280,28111,1,0,0:0:0:0:
272,76,28278,1,0,0:0:0:0:
72,128,28446,1,0,0:0:0:0:
232,296,28614,6,2,B|312:312|312:312|320:284|296:252|296:252|368:264|368:264|384:232|352:204|352:204|428:212|428:212|456:176|372:140|372:140,1,420,10|2,0:0|0:0,0:0:0:0:
352,104,28949,1,2,0:0:0:0:
196,88,29060,1,2,0:0:0:0:
256,232,29172,1,2,0:0:0:0:
408,248,29284,6,0,P|332:240|388:312,1,210
381,314,29619,1,0,0:0:0:0:
324,212,29787,2,0,B|248:212|248:8|248:212|148:212,1,210
168,216,30122,1,0,0:0:0:0:
40,140,30290,1,0,0:0:0:0:
48,280,30457,2,0,B|120:304|196:236|196:236|184:296,1,210
144,348,30792,1,0,0:0:0:0:
256,128,30960,1,0,0:0:0:0:
368,348,31128,1,0,0:0:0:0:
176,300,31295,6,0,B|120:288|108:252|108:252|124:216,1,87.5,8|0,0:0|0:0,0:0:0:0:
92,72,31463,2,0,B|124:64|156:112|156:112|196:144,1,87.5,8|0,0:0|0:0,0:0:0:0:
288,216,31630,2,0,B|364:252|380:180|380:180|452:184|420:256|364:216|364:184,1,175,8|0,0:0|0:0,0:0:0:0:
444,264,31965,5,0,0:0:0:0:
152,88,32133,1,0,0:0:0:0:
116,320,32301,1,0,0:0:0:0:
308,60,32468,1,0,0:0:0:0:
296,364,32636,5,0,0:0:0:0:
304,320,32720,1,0,0:0:0:0:
280,284,32803,1,0,0:0:0:0:
248,256,32887,1,0,0:0:0:0:
264,216,32971,2,0,P|272:172|244:136,1,87.5
104,56,33139,2,0,P|48:72|32:108,1,87.5
40,296,33306,6,0,B|52:328|52:328|92:328|116:304|120:268,1,105
184,136,33641,1,0,0:0:0:0:
272,328,33809,1,0,0:0:0:0:
424,136,33977,2,0,P|388:244|376:160,1,262.5
392,140,34312,1,0,0:0:0:0:
364,116,34647,6,0,B|360:184|384:200|384:200|360:184|324:148|324:148|336:224|336:224|320:188|292:184|292:184|296:244|296:244|256:220|256:220|260:268|260:268|220:256|220:256|224:284|224:284|196:268|176:280|176:280,1,560,8|0,0:0|0:0,0:0:0:0:
108,108,35150,1,0,0:0:0:0:
168,180,35234,1,0,0:0:0:0:
256,192,35317,2,0,B|276:212|332:232|360:172|356:136|356:136|356:96|388:56|444:80|464:112,1,280,8|0,0:0|0:0,0:0:0:0:
476,204,35653,1,0,0:0:0:0:
264,44,35820,1,0,0:0:0:0:
344,272,35988,6,0,B|292:312|256:320|188:320|128:288|120:232|104:168|200:128|276:140|316:192|296:272|264:308|216:324|168:328|112:320|72:296|68:288,1,560,8|0,0:0|0:0,0:0:0:0:
52,184,36491,1,0,0:0:0:0:
116,80,36658,6,0,B|108:56|108:56|252:48|104:180|236:196|236:196|228:152,1,280,8|0,0:0|0:0,0:0:0:0:
264,44,36993,1,0,0:0:0:0:
312,64,37076,1,0,0:0:0:0:
332,120,37161,1,0,0:0:0:0:
380,140,37244,1,0,0:0:0:0:
408,192,37329,6,0,B|404:260|428:276|428:276|404:260|368:224|368:224|380:300|380:300|364:264|336:260|336:260|340:320|340:320|300:296|300:296|304:344|304:344|264:332|264:332|268:360|268:360|240:344|220:356|220:356,1,560,8|0,0:0|0:0,0:0:0:0:
36,252,37831,1,0,0:0:0:0:
132,312,37915,1,0,0:0:0:0:
132,196,37999,2,0,P|248:160|100:156,1,420.000016021729,8|0,0:0|0:0,0:0:0:0:
36,252,38502,5,0,0:0:0:0:
374,260,38669,2,0,B|358:256|304:184|304:184|264:351|189:196|189:196|170:270|144:292,1,420.000016021729,8|0,0:0|0:0,0:0:0:0:
464,188,39172,1,0,0:0:0:0:
400,76,39340,5,0,0:0:0:0:
372,112,39423,1,0,0:0:0:0:
333,134,39507,1,0,0:0:0:0:
287,131,39591,1,0,0:0:0:0:
244,116,39675,1,0,0:0:0:0:
200,101,39758,1,0,0:0:0:0:
155,96,39842,1,0,0:0:0:0:
112,112,39926,1,0,0:0:0:0:
82,147,40010,6,0,B|92:112|80:60|80:60|136:164|56:256,1,280,8|0,0:0|0:0,0:0:0:0:
300,296,40513,1,0,0:0:0:0:
224,328,40597,1,0,0:0:0:0:
136,328,40681,2,0,B|88:276|112:200|208:168|216:344|276:216|288:164,1,245.000002336502,8|0,0:0|0:0,0:0:0:0:
332,32,41016,2,0,B|380:84|356:160|260:192|252:16|192:144|180:196,1,245.000002336502
104,316,41351,5,8,0:0:0:0:
56,144,41519,1,0,0:0:0:0:
224,200,41686,1,0,0:0:0:0:
239,247,41770,1,0,0:0:0:0:
266,284,41854,1,0,0:0:0:0:
303,311,41938,1,0,0:0:0:0:
348,312,42021,2,0,B|388:344|420:356|452:352|476:340|484:320|464:288|432:280|396:296|404:332|468:320,1,210.000008010865,8|0,0:0|0:0,0:0:0:0:
384,236,42357,2,0,B|360:216|332:252|296:212,1,70
312,144,42524,2,0,B|290:125|262:161|246:137,1,70
176,96,42692,6,0,B|144:122|96:44|96:44|104:136|164:272|56:328|-52:260|-40:176|64:108|128:164|40:240|36:220,1,483.000009212494,8|8,0:0|0:0,0:0:0:0:
176,96,43530,1,0,0:0:0:0:
328,316,43697,1,0,0:0:0:0:
384,140,43865,2,0,B|344:152|304:124|304:124|312:232|308:240|120:328|196:180|180:260,1,315.000012016297,8|0,0:0|0:0,0:0:0:0:
96,204,44368,1,0,0:0:0:0:
244,44,44535,1,0,0:0:0:0:
444,288,44703,2,0,B|428:232|340:224|340:224|336:168|392:156|388:180|364:216,1,210.000008010865,8|0,0:0|0:0,0:0:0:0:
32,116,45038,1,8,0:0:0:0:
232,308,45206,1,0,0:0:0:0:
424,44,45373,6,0,B|466:113|466:113|442:130|404:119|404:119|440:182|440:182|415:208|378:188|378:188|412:256|412:256|387:295|325:228|325:228,1,420,8|0,0:0|0:0,0:0:0:0:
240,128,45876,1,0,0:0:0:0:
176,236,45960,1,0,0:0:0:0:
108,128,46044,2,0,B|172:196|236:124|236:124|280:132|276:176|220:188,1,210.000008010865,8|0,0:0|0:0,0:0:0:0:
272,256,46379,2,0,B|348:280|361:310|361:310|348:280|335:249|335:249|348:280|438:310,1,280
448,216,46714,5,8,0:0:0:0:
80,336,46882,1,0,0:0:0:0:
92,72,47049,1,0,0:0:0:0:
408,344,47217,1,0,0:0:0:0:
404,40,47384,6,0,P|395:74|370:111,1,70.0000026702882
352,72,47496,2,0,P|343:106|318:143,1,70.0000026702882
300,104,47608,2,0,P|291:138|266:175,1,70.0000026702882
60,140,47720,2,0,P|68:174|93:211,1,70.0000026702882
112,172,47832,2,0,P|120:206|145:243,1,70.0000026702882
164,204,47944,2,0,P|172:238|197:275,1,70.0000026702882
304,288,48055,6,0,P|472:272|312:240,1,420.000016021729,8|0,0:0|0:0,0:0:0:0:
112,48,48558,1,0,0:0:0:0:
144,84,48641,1,0,0:0:0:0:
192,104,48725,2,0,B|160:164|131:165|131:165|160:164|209:152|209:152|160:210|160:210|192:188|218:199|218:199|184:248|184:248|231:248|231:248|202:287|202:287|243:298|243:298|225:320|225:320|257:320|268:341|268:341,1,560,8|0,0:0|0:0,0:0:0:0:
420,272,49395,5,8,0:0:0:0:
48,220,49563,1,0,0:0:0:0:
408,48,49730,1,8,0:0:0:0:
224,344,49898,1,0,0:0:0:0:
178,30,50066,5,0,0:0:0:0:
172,64,50149,1,0,0:0:0:0:
181,98,50233,1,0,0:0:0:0:
206,121,50317,1,0,0:0:0:0:
237,138,50401,1,0,0:0:0:0:
267,155,50484,1,0,0:0:0:0:
292,180,50568,1,0,0:0:0:0:
301,213,50652,1,0,0:0:0:0:
297,248,50736,6,0,P|300:288|280:316,1,70,8|0,0:0|0:0,0:0:0:0:
48,96,50904,2,0,P|45:56|65:28,1,70,8|0,0:0|0:0,0:0:0:0:
451,31,51072,2,0,P|468:61|464:96,1,70,8|0,0:0|0:0,0:0:0:0:
292,332,51239,2,0,P|255:339|201:321,1,70,8|0,0:0|0:0,0:0:0:0:
84,284,51407,2,0,B|-16:200|0:112|68:104|104:120|132:164|84:212|40:160,1,280,8|0,0:0|0:0,0:0:0:0:
304,72,51910,5,2,0:0:0:0:
304,72,51993,1,2,0:0:0:0:
304,72,52077,2,0,B|256:128|224:104|224:104|216:88|168:64|160:64|160:64|160:112|80:132|76:112,1,210.000008010865,8|0,0:0|0:0,0:0:0:0:
40,124,52412,2,0,B|64:168|56:200|56:200|76:224,1,105.000004005432
216,340,52580,2,0,B|204:280|156:288|156:288|160:240,1,105.000004005432
160,100,52748,6,0,B|228:112|208:252|368:156,1,210.000008010865,8|0,0:0|0:0,0:0:0:0:
396,140,53083,2,0,P|340:164|320:208,1,105.000004005432
178,301,53250,2,0,P|224:312|284:296,1,105.000004005432
224,192,53418,2,0,P|194:149|148:124,2,105.000004005432,8|0|0,0:0|0:0|0:0,0:0:0:0:
276,88,53753,1,0,0:0:0:0:
68,152,53921,1,0,0:0:0:0:
68,152,54088,2,0,B|80:260|104:280|168:284|180:244|168:216|108:216|112:244|128:256|136:260,1,210.000008010865,8|0,0:0|0:0,0:0:0:0:
272,36,54424,5,0,0:0:0:0:
456,228,54592,1,0,0:0:0:0:
440,232,54675,1,0,0:0:0:0:
428,240,54759,6,0,B|336:200|336:296|336:296|304:256|276:276,1,210.000008010865,8|0,0:0|0:0,0:0:0:0:
192,308,55010,6,0,B|172:320|120:316|124:236|148:220|187:224|196:252|172:294|92:292|76:244|108:200,1,210.000008010865,8|0,0:0|0:0,0:0:0:0:
228,108,55262,6,0,P|238:189|174:138,1,210.000008010865,8|0,0:0|0:0,0:0:0:0:
48,60,55513,6,0,P|84:52|168:52,1,105.000004005432,8|0,0:0|0:0,0:0:0:0:
200,60,55681,1,0,0:0:0:0:
256,72,55764,1,0,0:0:0:0:
280,120,55848,1,0,0:0:0:0:
328,132,55932,1,0,0:0:0:0:
352,180,56016,1,0,0:0:0:0:
400,200,56100,6,0,P|508:248|340:296,1,420.000016021729
264,248,56602,1,0,0:0:0:0:
264,248,56686,1,0,0:0:0:0:
264,248,56770,2,0,B|380:168|436:236|356:300,1,210.000008010865
268,336,57105,1,0,0:0:0:0:
144,264,57273,6,0,B|32:168|140:324|204:348,1,210.000008010865
240,164,57608,2,0,B|205:20|201:210|239:267,1,210.000008010865
372,148,57943,2,0,B|409:5|316:170|322:238,1,210.000008010865
424,264,58278,1,0,0:0:0:0:
336,324,58447,6,0,P|288:356|240:336,1,70.0000026702882
104,292,58558,2,0,P|152:260|200:284,1,70.0000026702882
332,224,58669,2,0,P|284:256|232:236,1,70.0000026702882
124,176,58781,6,0,P|72:56|176:160,1,350
240,184,59284,2,0,B|332:268|468:232|368:188,1,210
332,140,59619,1,0,0:0:0:0:
272,136,59703,1,0,0:0:0:0:
216,152,59787,1,0,0:0:0:0:
168,188,59871,1,0,0:0:0:0:
132,236,59954,6,0,P|108:320|232:292,1,210
380,236,60290,2,0,P|404:320|280:292,1,210
248,44,60625,2,0,B|288:96|256:136|208:180|264:240,1,210
336,328,60960,6,0,P|400:280|408:248,1,70
424,164,61128,2,0,P|360:212|352:244,1,70
184,320,61295,2,0,P|248:272|256:240,1,70
280,152,61463,6,0,B|240:204|72:208|92:96,1,210
68,48,61798,2,0,P|152:80|172:240,1,210
152,284,62133,1,0,0:0:0:0:
293,62,62301,2,0,B|298:171|415:129|415:129|430:187,1,210
452,248,62636,6,0,P|348:248|328:340,1,210
424,336,62971,1,0,0:0:0:0:
76,264,63139,1,0,0:0:0:0:
240,136,63306,1,0,0:0:0:0:
76,264,63474,1,0,0:0:0:0:
303,325,63641,2,0,B|258:323|234:279|234:279|115:370|56:278|73:203,1,280
20,200,64060,1,0,0:0:0:0:
32,124,64144,6,0,P|160:76|244:220,1,280
156,76,64312,1,0,0:0:0:0:
245,169,64479,1,0,0:0:0:0:
480,260,64647,6,0,P|352:308|268:164,1,280
356,308,64815,1,0,0:0:0:0:
266,214,64982,1,0,0:0:0:0:
208,92,65066,1,0,0:0:0:0:
92,116,65150,2,0,P|40:144|32:216,1,70
32,288,65317,2,0,P|72:324|148:312,1,70
220,280,65485,6,0,B|344:184|452:256|392:272|336:276,1,210.000008010865
292,336,65736,2,0,B|100:316|348:192|192:168|164:260,1,210.000008010865
104,232,65988,2,0,B|48:232|96:88|200:112,1,210.000008010865
304,156,66239,2,0,B|280:148|280:148|232:304|496:252|348:172,1,210.000008010865
436,192,66491,5,0,0:0:0:0:
420,124,66574,1,0,0:0:0:0:
368,80,66658,1,0,0:0:0:0:
300,60,66742,1,0,0:0:0:0:
232,64,66826,6,0,P|160:144|252:112,1,280
