osu file format v14

[General]
AudioFilename: 05 yesterday.mp3
AudioLeadIn: 0
PreviewTime: 105975
Countdown: 0
SampleSet: Soft
StackLeniency: 0.4
Mode: 0
LetterboxInBreaks: 0
WidescreenStoryboard: 1

[Editor]
Bookmarks: 23475
DistanceSpacing: 1.4
BeatDivisor: 4
GridSize: 4
TimelineZoom: 1.5

[Metadata]
Title:yesterday
TitleUnicode:yesterday
Artist:Camellia
ArtistUnicode:Camellia
Creator:AndreasHD
Version:Insane
Source:
Tags:
BeatmapID:927967
BeatmapSetID:430154

[Difficulty]
HPDrainRate:6
CircleSize:4.5
OverallDifficulty:8.7
ApproachRate:9.5
SliderMultiplier:2
SliderTickRate:1

[Events]
//Background and Video events
0,0,"Ice Crystal bg.jpg",0,0
//Break Periods
//Storyboard Layer 0 (Background)
//Storyboard Layer 1 (Fail)
//Storyboard Layer 2 (Pass)
//Storyboard Layer 3 (Foreground)
//Storyboard Sound Samples

[TimingPoints]
975,468.75,4,2,0,100,1,0
58045,-100,4,2,0,5,0,0
58162,-100,4,2,0,100,0,0
58514,-100,4,2,0,5,0,0
58631,-100,4,2,0,100,0,0
58982,-100,4,2,0,5,0,0
59100,-100,4,2,0,100,0,0
63201,-100,4,2,0,5,0,0
63318,-100,4,2,0,100,0,0
63670,-100,4,2,0,5,0,0
63787,-100,4,2,0,100,0,0
64139,-100,4,2,0,5,0,0
64256,-100,4,2,0,100,0,0
64607,-100,4,2,0,5,0,0
64725,-100,4,2,0,100,0,0
65076,-100,4,2,0,5,0,0
65193,-100,4,2,0,100,0,0
65545,-100,4,2,0,5,0,0
65662,-100,4,2,0,100,0,0
66014,-100,4,2,0,5,0,0
66131,-100,4,2,0,100,0,0
66951,-100,4,2,0,5,0,0
67068,-100,4,2,0,100,0,0
68826,-100,4,2,0,5,0,0
68943,-100,4,2,0,100,0,0
69295,-100,4,2,0,5,0,0
69412,-100,4,2,0,100,0,0
69764,-100,4,2,0,5,0,0
69881,-100,4,2,0,100,0,0
70232,-100,4,2,0,5,0,0
70350,-100,4,2,0,100,0,0
70701,-100,4,2,0,5,0,0
70818,-100,4,2,0,100,0,0
71170,-100,4,2,0,5,0,0
71287,-100,4,2,0,100,0,0
71639,-100,4,2,0,5,0,0
71756,-100,4,2,0,100,0,0
72107,-100,4,2,0,5,0,0
72225,-100,4,2,0,100,0,0
72576,-100,4,2,0,5,0,0
72693,-100,4,2,0,100,0,0
75975,-100,4,1,0,50,0,0
90975,-83.3333333333333,4,2,0,100,0,0
104100,-83.3333333333333,4,2,0,10,0,0
104568,-83.3333333333333,4,1,0,40,0,0
104920,-83.3333333333333,4,1,0,5,0,0
105037,-83.3333333333333,4,1,0,40,0,0
105154,-83.3333333333333,4,1,0,5,0,0
105271,-83.3333333333333,4,1,0,50,0,0
105506,-66.6666666666667,4,3,0,50,0,0
105740,-66.6666666666667,4,3,0,40,0,0
105975,468.75,4,2,0,100,1,0
105975,-50,4,2,0,100,0,1
106560,-50,4,2,0,5,0,1
106678,-50,4,2,0,100,0,1
106795,-50,4,2,0,5,0,1
106912,-50,4,2,0,100,0,1
107029,-50,4,2,0,5,0,1
107146,-50,4,2,0,100,0,1
107264,-50,4,2,0,5,0,1
107381,-50,4,2,0,100,0,1
107498,-50,4,2,0,5,0,1
107615,-50,4,2,0,100,0,1
107732,-50,4,2,0,5,0,1
107850,-50,4,2,0,100,0,1
108201,-142.857142857143,4,2,0,100,0,1
108553,-50,4,2,0,100,0,1
110896,-100,4,2,0,100,0,1
111131,-50,4,2,0,100,0,1
112537,-58.8235294117647,4,2,0,100,0,1
112889,-71.4285714285714,4,2,0,100,0,1
113475,-50,4,2,0,100,0,1
114060,-50,4,2,0,5,0,1
114178,-50,4,2,0,100,0,1
114295,-50,4,2,0,5,0,1
114412,-50,4,2,0,100,0,1
114529,-50,4,2,0,5,0,1
114646,-50,4,2,0,100,0,1
114764,-50,4,2,0,5,0,1
114881,-50,4,2,0,100,0,1
114998,-50,4,2,0,5,0,1
115115,-50,4,2,0,100,0,1
115232,-50,4,2,0,5,0,1
115350,-50,4,2,0,100,0,1
115701,-142.857142857143,4,2,0,100,0,1
116053,-50,4,2,0,100,0,1
118162,-62.5,4,2,0,100,0,1
118514,-50,4,2,0,100,0,1
119100,-100,4,2,0,100,0,1
119920,-76.9230769230769,4,2,0,100,0,1
120271,-62.5,4,2,0,100,0,1
120740,-58.8235294117647,4,2,0,100,0,1
120975,-50,4,2,0,100,0,1
121560,-50,4,2,0,5,0,1
121678,-50,4,2,0,100,0,1
121795,-50,4,2,0,5,0,1
121912,-50,4,2,0,100,0,1
122029,-50,4,2,0,5,0,1
122146,-50,4,2,0,100,0,1
122264,-50,4,2,0,5,0,1
122381,-50,4,2,0,100,0,1
122498,-50,4,2,0,5,0,1
122615,-50,4,2,0,100,0,1
122732,-50,4,2,0,5,0,1
122850,-50,4,2,0,100,0,1
123201,-142.857142857143,4,2,0,100,0,1
123553,-50,4,2,0,100,0,1
125896,-50,4,2,0,5,0,1
126131,-50,4,2,0,100,0,1
126600,-55.5555555555556,4,2,0,100,0,1
127537,-62.5,4,2,0,100,0,1
127889,-76.9230769230769,4,2,0,100,0,1
128475,-50,4,2,0,100,0,1
129060,-50,4,2,0,5,0,1
129178,-50,4,2,0,100,0,1
129295,-50,4,2,0,5,0,1
129412,-50,4,2,0,100,0,1
129529,-50,4,2,0,5,0,1
129646,-50,4,2,0,100,0,1
129764,-50,4,2,0,5,0,1
129881,-50,4,2,0,100,0,1
129998,-50,4,2,0,5,0,1
130115,-50,4,2,0,100,0,1
130232,-50,4,2,0,5,0,1
130350,-50,4,2,0,100,0,1
130701,-100,4,2,0,100,0,1
131053,-50,4,2,0,100,0,1
132225,-50,4,1,0,50,0,1
132693,-50,4,1,0,55,0,1
132928,-50,4,1,0,60,0,1
133162,-50,4,1,0,65,0,1
133396,-50,4,1,0,70,0,1
133631,-50,4,1,0,72,0,1
133865,-50,4,1,0,75,0,1
134100,-50,4,2,0,5,0,1
134217,-50,4,2,0,8,0,1
134334,-50,4,2,0,11,0,1
134451,-50,4,2,0,14,0,1
134568,-50,4,2,0,17,0,1
134685,-50,4,2,0,20,0,1
134803,-50,4,2,0,23,0,1
134920,-50,4,2,0,26,0,1
135037,-50,4,2,0,5,0,1
135975,-50,4,2,0,100,0,1
136209,-50,4,2,0,45,0,1
136443,-50,4,1,0,50,0,1
137850,-50,4,2,0,100,0,1
139959,-50,4,2,0,45,0,1
140076,-50,4,2,0,90,0,1
140428,-50,4,2,0,5,0,1
140545,-50,4,2,0,100,0,1
140662,-50,4,2,0,5,0,1
140779,-50,4,2,0,100,0,1
140896,-50,4,2,0,5,0,1
141014,-50,4,2,0,100,0,1
141131,-50,4,2,0,5,0,1
141248,-58.8235294117647,4,2,0,100,0,1
141365,-58.8235294117647,4,2,0,5,0,1
141482,-58.8235294117647,4,2,0,100,0,1
143826,-58.8235294117647,4,2,0,5,0,1
143943,-58.8235294117647,4,2,0,100,0,1
144060,-58.8235294117647,4,1,0,50,0,1
145350,-58.8235294117647,4,2,0,100,0,1
149764,-58.8235294117647,4,2,0,5,0,1
149803,-58.8235294117647,4,2,0,100,0,1
150975,-58.8235294117647,4,2,0,100,0,0
151912,-100,4,2,0,100,0,0
180857,-100,4,2,0,5,0,0
180975,-100,4,2,0,100,0,0

[Colours]
Combo1 : 190,139,237
Combo2 : 81,253,227
Combo3 : 82,100,228
Combo4 : 29,149,184
Combo5 : 232,249,255
Combo6 : 177,245,220
Combo7 : 20,217,233

[HitObjects]
256,192,23475,12,0,30740,0:0:0:0:
256,192,30975,5,2,0:0:0:0:
264,200,31678,1,0,0:0:0:0:
272,212,31912,2,0,B|248:184|248:184|224:176|224:176|200:148,1,100
136,114,32264,2,0,P|193:110|221:79,1,100
158,47,32615,1,0,0:0:0:0:
158,47,33553,5,0,0:0:0:0:
142,51,33787,2,0,P|130:105|148:156,1,100
192,196,34139,2,0,B|168:185|147:171|147:171|136:193|123:213,2,100
188,336,34842,1,0,0:0:0:0:
188,336,35428,6,0,P|157:330|139:318,1,50
155,251,35662,2,0,L|116:346,1,100
46,343,36014,2,0,L|85:248,2,100
240,262,36834,5,0,0:0:0:0:
117,343,37068,1,0,0:0:0:0:
257,333,37303,2,0,P|312:254|245:189,1,200
113,219,38006,1,0,0:0:0:0:
69,203,38084,1,0,0:0:0:0:
53,158,38162,1,0,0:0:0:0:
73,115,38240,1,0,0:0:0:0:
208,150,38475,6,0,P|284:120|212:76,1,200
73,115,39178,1,0,0:0:0:0:
40,250,39412,2,0,P|49:299|96:339,1,100
151,313,39764,2,0,L|237:258,1,100
293,219,40115,1,0,0:0:0:0:
293,219,41053,5,0,0:0:0:0:
337,86,41287,2,0,B|338:118|324:139|324:139|345:147|363:168,1,100
293,219,41639,2,0,B|264:228|264:228|206:181,2,100
337,86,42342,1,0,0:0:0:0:
337,86,42928,6,0,P|286:64|256:58,1,50
222,52,43162,2,0,B|217:73|226:96|226:96|208:117|204:147,1,100
244,203,43514,2,0,P|199:180|151:193,1,100
154,331,43982,6,0,P|178:259|153:192,1,150
35,115,44568,2,0,P|16:161|17:220,1,100
207,113,45037,2,0,P|190:93|170:82,1,50
83,192,45389,1,0,0:0:0:0:
172,298,45623,1,0,0:0:0:0:
172,298,45975,6,0,B|239:323|257:275|317:298,1,150
324,304,46443,1,0,0:0:0:0:
210,221,46678,1,0,0:0:0:0:
347,193,46912,2,0,B|427:175|427:175|408:164,1,100
355,122,47264,2,0,B|275:140|275:140|294:151,1,100
347,193,47615,1,0,0:0:0:0:
347,193,48553,5,0,0:0:0:0:
347,193,48787,2,0,B|332:213|332:213|383:270,1,100
452,276,49139,2,0,P|429:324|383:340,2,100
452,276,49842,1,0,0:0:0:0:
452,276,50428,6,0,P|444:241|445:210,1,50
487,173,50662,2,0,P|497:120|479:73,1,100
416,52,51014,2,0,P|368:64|320:48,1,100
181,54,51482,2,0,P|244:72|261:150,1,150
152,235,52068,1,0,0:0:0:0:
53,134,52303,2,0,B|41:114|40:85|40:85|8:132|10:191|41:228,1,200
154,305,53006,1,0,0:0:0:0:
197,320,53084,1,0,0:0:0:0:
243,315,53162,1,0,0:0:0:0:
279,285,53240,1,0,0:0:0:0:
286,144,53475,6,0,P|344:86|364:170,1,200
234,211,54178,1,0,0:0:0:0:
152,97,54412,2,0,P|141:72|139:45,1,50
144,189,54764,1,0,0:0:0:0:
155,325,54998,2,0,P|174:344|196:357,1,50
334,349,55350,6,0,B|363:323|399:319|399:319|408:300|404:282|404:282|418:269|431:250|431:250|423:225|423:225|399:248,1,200
408,240,56053,1,0,0:0:0:0:
408,240,56287,2,0,L|409:191,1,50
449,55,56639,2,0,P|400:45|348:62,1,100
313,116,56990,2,0,P|273:143|219:147,1,100
222,147,57693,6,0,P|237:212|173:251,1,150
110,221,58162,2,0,P|95:156|159:117,1,150
222,147,58631,2,0,L|74:77,1,150
130,27,59100,6,0,L|278:97,1,150
305,148,59568,1,0,0:0:0:0:
242,273,59803,1,0,0:0:0:0:
102,282,60037,2,0,P|74:240|79:193,1,100
142,224,60389,1,0,0:0:0:0:
172,286,60506,2,0,L|177:335,1,50
247,322,60740,2,0,L|242:273,1,50
102,282,60975,5,4,0:0:0:0:
377,328,61443,1,0,0:0:0:0:
427,52,61912,1,0,0:0:0:0:
149,10,62381,1,0,0:0:0:0:
46,192,62732,2,0,P|53:254|163:196,1,200
136,173,63318,6,0,B|129:141|141:116|141:116|191:159|261:126,1,150
276,87,63787,2,0,P|298:150|243:208,1,150
177,213,64256,2,0,L|328:242,1,150
336,310,64725,6,0,P|390:269|366:185,1,150
311,170,65193,2,0,B|290:138|290:138|324:95|335:23,1,150
401,20,65662,2,0,B|401:69|381:113|381:113|406:93|443:97,1,150
427,167,66131,2,0,B|425:218|425:218|413:268,1,100
304,352,66600,6,0,B|276:348|244:352|244:352|212:336|212:336|184:340|156:336,1,150
89,322,67068,1,0,0:0:0:0:
365,277,67537,1,0,0:0:0:0:
87,236,68006,1,0,0:0:0:0:
296,223,68357,2,0,P|228:208|284:125,1,200
346,138,68943,6,0,P|291:123|285:38,1,150
352,27,69412,2,0,L|200:41,1,150
169,103,69881,2,0,B|135:85|131:47|131:47|98:72|54:69,1,150
34,136,70350,2,0,P|57:187|34:275,1,150
53,341,70818,6,0,B|106:336|106:336|148:311|148:311|200:303,1,150
208,372,71287,2,0,L|178:204,1,150
134,171,71756,2,0,P|166:218|249:191,1,150
263,128,72225,2,0,P|231:81|148:108,1,150
134,171,72693,6,0,B|130:220|130:220|43:288,1,150
82,344,73162,2,0,B|156:361|156:361|151:334,1,100
196,282,73514,1,0,0:0:0:0:
246,330,73631,2,0,L|282:364,1,50
343,330,73865,2,0,L|379:364,1,50
441,330,74100,5,0,0:0:0:0:
381,203,74334,1,0,0:0:0:0:
441,77,74568,1,0,0:0:0:0:
449,217,74803,2,0,P|409:267|331:252,1,150
323,183,75271,2,0,B|341:176|352:156|337:132|316:127|296:133|288:147|289:165|285:183|270:200|256:213|237:217|212:218|195:216|182:204,1,200
148,174,75857,1,0,0:0:0:0:
168,106,75975,5,4,0:0:0:0:
31,349,76443,1,0,0:0:0:0:
306,296,76912,1,0,0:0:0:0:
442,51,77381,1,0,0:0:0:0:
162,62,77850,1,0,0:0:0:0:
230,333,78318,1,0,0:0:0:0:
483,213,78787,1,0,0:0:0:0:
262,40,79256,1,0,0:0:0:0:
42,214,79725,5,0,0:0:0:0:
305,307,80193,1,0,0:0:0:0:
398,201,80428,2,0,P|398:173|389:150,1,50
329,187,80662,2,0,P|285:210|221:210,2,100
381,56,81365,2,0,P|287:93|191:52,1,200
68,112,82068,5,0,0:0:0:0:
215,261,82420,1,0,0:0:0:0:
215,261,82537,2,0,P|195:312|175:331,2,50
215,120,83006,2,0,P|219:95|231:71,1,50
361,120,83357,1,0,0:0:0:0:
361,120,83475,6,0,P|379:213|295:271,1,200
78,103,84412,1,0,0:0:0:0:
351,43,84881,1,0,0:0:0:0:
104,175,85350,1,0,0:0:0:0:
383,169,85818,1,0,0:0:0:0:
113,244,86287,1,0,0:0:0:0:
392,268,86756,1,0,0:0:0:0:
117,324,87225,6,0,P|62:308|36:269,1,100
177,280,87693,2,0,P|227:259|253:212,1,100
110,216,88162,2,0,P|68:184|58:138,1,100
196,159,88631,2,0,P|237:125|248:77,1,100
108,98,89100,6,0,P|94:63|107:-3,1,100
196,159,89568,2,0,P|211:210|174:303,1,150
112,321,90037,2,0,P|190:310|285:336,1,150
320,358,90506,2,0,P|367:351|319:294,1,150
327,290,90975,5,4,0:0:0:0:
494,274,91209,2,0,L|430:261,1,59.9999981689454
373,205,91443,2,0,L|309:223,1,59.9999981689454
237,186,91678,1,0,0:0:0:0:
161,221,91795,1,0,0:0:0:0:
214,285,91912,6,0,P|211:323|196:354,1,59.9999981689454
47,373,92146,2,0,P|50:335|65:304,1,59.9999981689454
161,221,92381,2,0,P|133:239|101:246,1,59.9999981689454
0,164,92615,2,0,P|28:146|60:139,1,59.9999981689454
237,186,92850,6,0,L|271:219,2,29.9999990844727
226,175,93084,2,0,L|284:188,1,59.9999981689454
361,154,93318,2,0,L|419:116,1,59.9999981689454
469,181,93553,2,0,L|505:240,1,59.9999981689454
447,297,93787,6,0,P|419:309|384:315,1,59.9999981689454
242,346,94021,2,0,P|270:334|305:328,1,59.9999981689454
399,224,94256,2,0,L|408:161,1,59.9999981689454
322,261,94490,2,0,L|330:201,1,59.9999981689454
244,108,94725,6,0,L|210:75,2,29.9999990844727
251,114,94959,2,0,L|213:170,1,59.9999981689454
184,276,95193,2,0,L|175:214,1,59.9999981689454
58,191,95428,2,0,L|126:182,1,59.9999981689454
262,259,95662,6,0,P|297:263|332:259,1,59.9999981689454
160,330,95896,2,0,P|167:301|185:274,1,59.9999981689454
191,144,96131,2,0,P|201:173|205:202,1,59.9999981689454
255,351,96365,2,0,P|285:358|317:359,1,59.9999981689454
417,272,96600,6,0,L|451:239,2,29.9999990844727
408,279,96834,2,0,P|370:263|352:254,1,59.9999981689454
295,193,97068,2,0,P|283:162|280:132,1,59.9999981689454
275,307,97303,2,0,P|259:279|251:247,1,59.9999981689454
406,136,97537,6,0,P|401:167|385:197,1,59.9999981689454
192,220,97771,2,0,P|197:189|213:159,1,59.9999981689454
215,349,98006,2,0,P|187:361|154:361,1,59.9999981689454
69,199,98240,2,0,P|58:229|57:257,1,59.9999981689454
192,220,98475,6,0,L|226:187,2,29.9999990844727
181,230,98709,2,0,L|175:160,1,59.9999981689454
244,161,98943,2,0,L|238:91,1,59.9999981689454
74,258,99178,2,0,L|68:188,1,59.9999981689454
287,284,99412,6,0,L|281:214,1,59.9999981689454
152,353,99646,2,0,L|146:283,1,59.9999981689454
360,353,99881,2,0,L|366:283,1,59.9999981689454
204,175,100115,2,0,P|188:200|180:232,1,59.9999981689454
312,102,100350,6,0,L|319:73,2,29.9999990844727
345,216,100584,2,0,P|363:244|385:265,1,59.9999981689454
475,124,100818,2,0,P|445:130|418:144,1,59.9999981689454
262,180,101053,2,0,P|227:181|202:174,1,59.9999981689454
128,50,101287,6,0,L|121:21,2,29.9999990844727
122,179,101521,2,0,P|113:222|97:247,1,59.9999981689454
30,366,101756,2,0,P|54:346|84:333,1,59.9999981689454
230,359,101990,2,0,P|261:351|291:333,1,59.9999981689454
357,227,102225,6,0,L|370:264,1,29.9999990844727
364,217,102342,2,0,L|377:254,1,29.9999990844727
368,204,102459,2,0,L|381:241,1,29.9999990844727
367,191,102576,2,0,L|380:228,1,29.9999990844727
366,179,102693,6,0,L|379:216,1,29.9999990844727
362,171,102810,2,0,L|375:208,1,29.9999990844727
357,162,102928,2,0,L|370:199,1,29.9999990844727
351,154,103045,2,0,L|364:191,1,29.9999990844727
343,150,103162,6,0,L|356:187,1,29.9999990844727
334,147,103279,2,0,L|347:184,1,29.9999990844727
322,149,103396,2,0,L|335:186,1,29.9999990844727
315,158,103514,2,0,L|328:195,1,29.9999990844727
308,167,103631,6,0,L|321:204,1,29.9999990844727
307,182,103748,2,0,L|320:219,1,29.9999990844727
308,198,103865,2,0,L|321:235,1,29.9999990844727
313,220,103982,2,0,L|326:257,1,29.9999990844727
314,240,104100,6,0,B|300:290|300:336|300:336|265:309,2,119.999996337891
435,359,104803,2,0,P|439:329|438:293,1,59.9999981689454
392,39,105037,2,0,P|381:67|377:98,1,59.9999981689454
506,241,105271,1,8,0:0:0:0:
506,241,105506,6,0,P|470:255|431:252,1,75.0000028610231,8|0,0:0|0:0,0:0:0:0:
279,145,105740,2,0,P|239:134|200:138,1,75.0000028610231,8|0,0:0|0:0,0:0:0:0:
114,355,105975,6,0,B|126:359|126:359|143:303|143:303|131:268,1,100,4|0,0:0|0:0,0:0:0:0:
43,72,106209,1,8,0:0:0:0:
382,334,106443,6,0,B|399:339|399:339|415:313|423:291|423:291|421:262,1,100
91,262,106678,2,0,B|89:291|89:291|97:313|113:339|113:339|130:334,1,100
421,262,106912,2,0,P|453:221|435:162,1,100
65,176,107146,2,0,P|59:224|91:262,1,100
446,176,107381,2,0,B|463:154|463:128|463:128|463:96|463:96|448:83,1,100
61,85,107615,2,0,B|49:96|49:96|49:128|49:128|49:154|66:176,1,100
336,334,107850,6,0,B|285:336|236:316|236:316|285:336|309:349|309:349|337:348,1,200
421,262,108201,6,0,B|401:256|401:256|376:259|376:259|352:249,1,69.9999978637696
353,249,108553,6,0,B|366:227|366:227|371:172|371:172|363:156,1,100
149,156,108787,2,0,B|140:172|140:172|146:227|146:227|158:249,1,100
336,334,109021,1,0,0:0:0:0:
432,356,109139,2,0,B|458:328|458:328|477:257|477:257|461:232|461:232|454:200|454:200|435:218,1,200
353,249,109490,2,0,P|305:260|255:255,1,100
56,64,109725,6,0,B|87:52|87:52|118:61|144:78|144:78|147:91,1,100,4|0,0:0|0:0,0:0:0:0:
76,348,109959,1,0,0:0:0:0:
76,348,110193,2,0,B|113:341|113:341|169:309,1,100
436,348,110428,2,0,B|399:341|399:341|343:309,1,100
59,214,110662,2,0,B|84:231|84:231|157:216,1,100
421,96,110896,6,0,P|400:77|371:84,1,50
438,107,111131,6,0,P|408:66|356:77,1,100
421,254,111365,2,0,B|440:303|440:303|441:342|441:342|418:365,1,100
236,332,111600,2,0,B|162:331|133:278|133:278|162:267|162:267|202:272|226:296|226:296|242:306|261:312|284:310|302:294,1,300
300,226,112068,2,0,B|300:275|319:303|319:303|336:273|337:238,1,100
391,198,112303,2,0,B|323:231|323:231|274:219,1,100
128,252,112537,6,0,P|74:223|138:175,1,170.000003242493
211,288,112889,2,0,P|275:292|266:233,1,139.999995727539
128,337,113240,2,0,B|95:350|95:350|70:350|70:350|55:340,1,69.9999978637696
211,288,113475,6,0,B|221:249|221:249|233:223|245:167|245:167|241:208|241:208|255:254,1,200,4|0,0:0|0:0,0:0:0:0:
384,337,113943,2,0,B|433:323|433:323|457:309|457:309|453:298|445:292,1,100
67,292,114178,2,0,B|58:298|55:309|55:309|79:323|79:323|128:337,1,100
481,253,114412,2,0,P|427:252|380:231,1,100
31,253,114646,2,0,P|85:252|132:231,1,100
446,112,114881,2,0,B|408:136|366:149|366:149|391:167,1,100
66,112,115115,2,0,B|104:136|146:149|146:149|121:167,1,100
252,340,115350,6,0,B|206:345|167:371|167:371|176:349|176:349|206:345|237:329|256:309,1,200
324,267,115701,6,0,B|344:234|344:234|313:246,1,69.9999978637696
379,331,116053,6,0,B|418:349|460:348|460:348|453:324,1,100
231,259,116287,2,0,B|208:242|208:242|181:173,2,100
384,258,116639,2,0,B|408:237|408:237|411:218|411:218|387:179|396:132|396:132|362:153|362:153|366:184,1,200
488,161,116990,2,0,B|495:119|495:119|481:78|481:78|460:61,1,100
264,124,117225,6,0,B|195:139|149:105|149:105|190:78|190:78|219:89,1,200,4|0,0:0|0:0,0:0:0:0:
100,213,117693,2,0,B|36:236|28:244|28:244|32:257|37:263,1,100
475,263,117928,2,0,B|479:257|484:244|484:244|476:236|412:213,1,100
151,304,118162,6,0,B|136:312|125:325|125:325|156:338|181:360|181:360|212:356|212:356|246:348,1,160
352,260,118514,1,0,0:0:0:0:
206,188,118631,2,0,B|162:175|142:131|158:83|158:83|122:117|150:188,1,200
230,116,118982,1,0,0:0:0:0:
376,40,119100,6,0,P|415:73|417:123,1,100
293,338,119568,2,0,P|275:289|299:235,1,100
362,228,119920,6,0,P|294:224|234:195,1,129.999994049073
195,24,120271,6,0,P|207:59|201:102,1,80
49,226,120506,2,0,P|50:185|73:143,1,80
300,256,120740,2,0,P|306:301|292:339,1,85.0000016212464
82,343,120975,6,0,B|79:321|79:321|106:288|106:288|147:279,1,100,4|0,0:0|0:0,0:0:0:0:
433,315,121209,1,0,0:0:0:0:
433,315,121443,6,0,P|374:315|330:296,1,100
82,343,121678,2,0,P|141:343|185:324,1,100
464,201,121912,2,0,B|472:181|472:181|374:168,1,100
50,166,122146,2,0,B|42:146|42:146|140:133,1,100
433,315,122381,2,0,B|368:313|368:313|326:278,1,100
79,69,122615,2,0,B|144:71|144:71|186:106,1,100
187,305,122850,6,0,B|145:351|88:348|88:348|84:316|101:291|101:291|153:275,1,200
268,348,123201,6,0,B|296:331|296:331|310:292,1,69.9999978637696
213,213,123553,6,0,B|188:140|188:140|233:182,1,100
308,295,123787,2,0,B|333:368|333:368|288:326,2,100
213,213,124139,6,0,B|198:185|197:154|197:154|220:120|222:70|222:70|241:94|288:113,1,200
376,152,124490,2,0,B|417:152|417:152|445:122|445:122|441:102,1,100
293,217,124725,6,0,B|243:303|243:303|290:270|318:248|318:248|304:248,1,200,4|0,0:0|0:0,0:0:0:0:
55,320,125193,2,0,B|100:313|100:313|169:274,1,100
457,320,125428,2,0,B|412:313|412:313|343:274,1,100
208,52,125662,2,0,P|256:40|304:52,1,100
104,124,125896,2,0,B|91:124|91:124|80:117|80:117|68:117|68:117|57:110|57:110|45:111|45:111|34:104|34:104|22:104|22:104|11:97|11:97|8:100,1,100
116,244,126131,2,0,B|136:272|176:288|176:288|216:284,1,100
402,168,126365,2,0,P|406:136|359:149,1,100
358,253,126600,6,0,P|342:188|393:233,2,179.999994506836
213,343,127303,1,0,0:0:0:0:
69,283,127537,6,0,P|67:184|139:193,1,160
215,213,127889,2,0,P|277:183|254:137,1,129.999994049073
274,301,128240,2,0,P|303:323|340:335,1,64.9999970245363
466,270,128475,6,0,B|509:253|511:191|474:168|474:168|487:153|479:129|479:129|455:150|423:145,1,200,4|0,0:0|0:0,0:0:0:0:
96,54,128943,2,0,B|172:73|172:73|129:93,1,100
416,54,129178,2,0,B|340:73|340:73|383:93,1,100
90,234,129412,2,0,B|127:220|127:220|157:188|157:188|137:192,1,100
422,234,129646,2,0,B|385:220|385:220|354:188|354:188|371:191,1,100
79,357,129881,2,0,P|134:338|161:293,1,100
433,357,130115,2,0,P|378:338|351:293,1,100
322,76,130350,6,0,B|348:130|327:177|327:177|311:177|294:181|294:181|305:143|287:113,1,200
206,59,130701,6,0,B|181:47|181:47|146:80|146:80|150:117,1,100
234,268,131053,6,0,B|227:224|227:224|224:218|186:177,1,100
36,313,131287,2,0,B|81:335|81:335|147:325,1,100
53,143,131521,1,0,0:0:0:0:
74,35,131639,2,0,B|125:55|146:109|146:109|119:57|76:48,1,200
53,143,131990,2,0,B|55:174|55:174|90:242,1,100
278,350,132225,6,0,L|326:363,2,50,4|0|0,0:0|0:0|0:0,0:0:0:0:
261,344,132459,2,0,B|345:324|345:324|327:313,1,100
146,282,132693,2,0,B|68:243|68:243|88:236,1,100
383,261,132928,2,0,B|460:222|460:222|440:215,1,100
116,160,133162,2,0,B|95:144|95:144|71:91|71:91|91:90,1,100
425,90,133396,2,0,B|441:91|441:91|417:144|417:144|396:160,1,100
214,36,133631,2,0,B|256:56|298:80|298:80|296:104,1,100
298,348,133865,2,0,B|256:327|213:303|213:303|216:280,1,100
256,192,134100,12,0,135037,0:0:0:0:
389,248,135975,6,0,B|406:261|406:261|395:279|395:279|336:303|336:303|309:280|278:263|278:263|279:251|278:239,1,200,4|0,0:0|0:0,0:0:0:0:
46,35,136443,2,0,B|43:73|34:105|34:105|51:143|51:143|78:134,1,133.333333333333
152,72,136678,1,0,0:0:0:0:
386,122,136834,5,0,0:0:0:0:
55,253,137068,1,0,0:0:0:0:
477,303,137303,1,0,0:0:0:0:
27,184,137537,1,0,0:0:0:0:
468,125,137771,1,0,0:0:0:0:
435,248,137850,6,0,P|389:256|335:226,1,100,2|0,0:0|0:0,0:0:0:0:
342,233,138201,2,0,P|277:175|279:260,1,200,2|2,0:0|0:0,0:0:0:0:
263,248,138670,2,0,B|216:358|216:358|223:268,1,200,2|0,0:0|0:0,0:0:0:0:
342,233,139021,1,2,0:0:0:0:
342,233,139256,2,0,B|376:159|376:159|353:175,1,100,2|0,0:0|0:0,0:0:0:0:
263,248,139490,1,2,0:0:0:0:
412,352,139725,6,0,B|452:365|482:365|482:365|500:340|524:320|524:320|504:303|491:285|491:285|445:280,1,200,4|0,0:0|0:0,0:0:0:0:
348,313,140076,1,0,0:0:0:0:
115,319,140193,1,0,0:0:0:0:
115,319,140310,6,0,P|81:278|86:222,1,100
397,65,140545,2,0,P|431:106|426:162,1,100
114,75,140779,2,0,P|145:35|202:23,1,100
398,309,141014,2,0,P|367:349|310:361,1,100
266,113,141248,6,0,P|309:122|337:157,2,85.0000016212464
224,300,141600,6,0,B|250:326|276:352|276:352|273:343|268:336,1,85.0000016212464
172,250,141834,2,0,B|146:224|120:198|120:198|123:207|128:214,1,85.0000016212464
165,351,142068,2,0,B|204:342|223:300|223:300|273:289|286:240,2,170.000003242493
90,314,142654,5,0,0:0:0:0:
20,170,142771,1,0,0:0:0:0:
20,170,143006,1,0,0:0:0:0:
116,208,143123,1,0,0:0:0:0:
251,103,143240,1,0,0:0:0:0:
251,103,143475,6,0,B|256:138|236:163|236:163|248:199|280:212|280:212|271:241|276:267|298:283|322:289|322:289|315:256,1,255.000004863739,4|0,0:0|0:0,0:0:0:0:
317,266,143943,1,0,0:0:0:0:
189,317,144060,1,0,0:0:0:0:
466,247,144295,1,0,0:0:0:0:
132,86,144529,1,0,0:0:0:0:
437,122,144764,1,0,0:0:0:0:
44,212,144998,1,0,0:0:0:0:
415,349,145232,1,0,0:0:0:0:
310,349,145350,6,0,P|266:330|245:297,1,85.0000016212464,2|0,0:0|0:0,0:0:0:0:
246,300,145701,2,0,P|168:339|161:272,1,170.000003242493,2|2,0:0|0:0,0:0:0:0:
153,284,146170,2,0,P|106:312|115:229,1,170.000003242493,2|0,0:0|0:0,0:0:0:0:
181,208,146521,1,2,0:0:0:0:
181,208,146756,2,0,B|255:223|255:223|247:208,1,85.0000016212464,2|0,0:0|0:0,0:0:0:0:
101,231,146990,1,2,0:0:0:0:
390,310,147225,6,0,L|429:338,2,42.5000008106232
314,359,147459,2,0,L|347:281,1,85.0000016212464,2|0,0:0|0:0,0:0:0:0:
233,253,147693,2,0,L|200:175,1,85.0000016212464
123,315,147928,1,0,0:0:0:0:
242,349,148045,2,0,L|308:191,2,170.000003242493
242,349,148748,2,0,B|206:265|206:265|224:232|236:190,1,170.000003242493
285,276,149100,6,0,B|300:313|300:313|307:321,2,42.5000008106232
235,192,149334,2,0,B|218:153|218:153|213:147,2,42.5000008106232
407,346,149568,2,0,P|427:273|406:210,1,141.666669368744
396,206,149803,1,2,0:0:0:0:
79,60,150037,2,0,P|74:99|93:145,1,85.0000016212464
219,279,150271,1,2,0:0:0:0:
433,324,150506,2,0,P|438:285|419:239,1,85.0000016212464
293,105,150740,1,2,0:0:0:0:
156,336,150975,5,4,0:0:0:0:
153,343,151678,1,0,0:0:0:0:
149,351,151912,2,0,P|152:295|131:248,1,100
46,207,152264,2,0,P|89:245|132:248,1,100
220,176,152615,1,0,0:0:0:0:
220,176,153553,5,0,0:0:0:0:
220,176,153787,2,0,B|223:207|234:229|234:229|226:253|231:281,1,100
296,297,154139,2,0,P|264:335|213:341,1,100
153,151,154607,2,0,P|185:113|236:107,1,100
232,106,155428,6,0,L|182:68,1,50
127,48,155662,2,0,B|155:52|155:52|201:47|201:47|230:51,1,100
294,69,156014,2,0,P|303:124|273:166,1,100
142,175,156482,6,0,B|176:207|227:203|227:203|197:213|177:234,1,150
203,370,157068,1,0,0:0:0:0:
342,357,157303,2,0,B|367:344|376:324|377:289|351:273|324:264|298:281|298:281|315:252|298:220,1,200
207,125,158006,1,0,0:0:0:0:
246,150,158084,1,0,0:0:0:0:
292,149,158162,1,0,0:0:0:0:
326,117,158240,1,0,0:0:0:0:
436,32,158475,6,0,B|481:64|485:123|460:160|460:160|476:190|464:220,1,200
343,281,159178,1,0,0:0:0:0:
209,239,159412,2,0,P|151:228|91:238,1,100
62,283,159764,2,0,P|91:244|80:185,1,100
46,137,160115,1,0,0:0:0:0:
46,137,161053,5,0,0:0:0:0:
46,137,161287,2,0,L|170:115,1,100
203,157,161639,2,0,L|327:135,2,100
203,157,162342,1,0,0:0:0:0:
203,157,162928,6,0,L|211:208,1,50
221,275,163162,2,0,B|226:318|256:345|256:345|257:320,1,100
256,325,163514,2,0,L|157:342,1,100
325,314,163982,6,0,L|483:287,1,150
512,269,164568,2,0,L|399:289,1,100
275,321,165037,2,0,L|343:310,1,50
421,211,165389,2,0,P|370:213|323:232,1,100
324,230,165975,6,0,P|369:187|343:108,1,150
303,165,166443,1,0,0:0:0:0:
231,285,166678,1,0,0:0:0:0:
100,336,166912,2,0,P|65:305|55:248,1,100
94,196,167264,2,0,L|54:100,1,100
94,45,167615,1,0,0:0:0:0:
94,45,168553,5,0,0:0:0:0:
94,45,168787,2,0,L|140:158,1,100
160,202,169139,2,0,P|195:171|195:108,2,100
40,128,169842,1,0,0:0:0:0:
40,128,170428,6,0,P|36:180|19:216,1,50
15,244,170662,2,0,B|11:257|9:270|9:270|30:305|76:307,1,100
139,314,171014,2,0,L|240:324,1,100
377,337,171482,6,0,B|270:326|270:326|318:319,1,150
447,283,172068,1,0,0:0:0:0:
312,243,172303,2,0,P|276:187|377:180,1,200
370,307,173006,1,0,0:0:0:0:
334,337,173084,1,0,0:0:0:0:
287,341,173162,1,0,0:0:0:0:
246,317,173240,1,0,0:0:0:0:
246,317,173475,6,0,P|217:272|116:263,1,150
111,326,173943,2,0,B|102:309|102:309|96:226,1,100
164,106,174412,2,0,L|147:152,1,50
20,214,174764,2,0,B|7:183|7:183|39:113,1,100
69,62,175115,1,0,0:0:0:0:
147,178,175350,6,0,P|219:156|226:66,1,150
202,28,175818,2,0,L|303:57,1,100
426,112,176287,2,0,L|447:165,1,50
426,112,176639,2,0,L|452:215,1,100
450,208,176990,1,0,0:0:0:0:
377,329,177225,6,0,P|308:308|223:334,1,150
233,321,177693,1,0,0:0:0:0:
232,317,177771,1,0,0:0:0:0:
231,313,177850,1,0,0:0:0:0:
230,309,177928,1,0,0:0:0:0:
229,305,178006,1,0,0:0:0:0:
228,301,178084,1,0,0:0:0:0:
227,297,178162,1,0,0:0:0:0:
226,293,178240,1,0,0:0:0:0:
225,289,178318,1,0,0:0:0:0:
224,285,178396,1,0,0:0:0:0:
223,281,178475,1,0,0:0:0:0:
222,277,178553,1,0,0:0:0:0:
219,270,178631,6,0,L|196:331,1,50
68,360,178982,2,0,P|34:292|51:214,1,150
121,102,179568,1,0,0:0:0:0:
121,102,179685,2,0,P|160:127|220:123,1,100
258,72,180037,2,0,L|317:51,1,50
365,89,180271,2,0,P|303:139|412:129,1,250
437,96,180975,6,0,P|416:39|326:28,1,150
278,63,181443,2,0,P|231:77|154:56,2,100
278,63,182029,2,0,L|295:113,1,50
348,239,182381,2,0,B|270:175|270:175|305:278,1,200
