osu file format v14

[General]
AudioFilename: [SDVX II ] werewolf howls. [EXH].mp3
AudioLeadIn: 0
PreviewTime: 79300
Countdown: 0
SampleSet: Soft
StackLeniency: 0.7
Mode: 3
LetterboxInBreaks: 0
EpilepsyWarning: 1
SpecialStyle: 0
WidescreenStoryboard: 1

[Editor]
DistanceSpacing: 0.8
BeatDivisor: 4
GridSize: 8
TimelineZoom: 1.3

[Metadata]
Title:werewolf howls.
TitleUnicode:werewolf howls.
Artist:Camellia
ArtistUnicode:かめりあ
Creator:Takane6
Version:NOVICE Lv.8
Source:SOUND VOLTEX II -infinite infection-
Tags:SDVX Touhou Project Double Dealing Character Remix Contest Ichigaki [Shana_Lesus] ExUsagi Masaya Oya cametek ZUN Team Shanghai Alice Arviejhay
BeatmapID:559714
BeatmapSetID:242484

[Difficulty]
HPDrainRate:7
CircleSize:4
OverallDifficulty:7
ApproachRate:5
SliderMultiplier:1.4
SliderTickRate:1

[Events]
//Background and Video events
0,0,"wolf.jpg",0,0
//Break Periods
//Storyboard Layer 0 (Background)
//Storyboard Layer 1 (Fail)
//Storyboard Layer 2 (Pass)
//Storyboard Layer 3 (Foreground)
//Storyboard Sound Samples

[TimingPoints]
2003,270.27027027027,4,2,1,15,1,0
10651,-100,4,2,1,50,0,0
19300,-100,4,2,1,50,0,1
36597,-100,4,2,1,50,0,0
79840,-100,4,2,1,50,0,1
97138,-100,4,2,1,50,0,0

[HitObjects]
320,192,2003,5,0,0:0:0:0:
192,192,2273,1,0,0:0:0:0:
64,192,2543,1,0,0:0:0:0:
448,192,2813,1,0,0:0:0:0:
192,192,3084,128,0,4165:0:0:0:0:
448,192,4165,1,0,0:0:0:0:
320,192,4435,1,0,0:0:0:0:
64,192,4705,1,0,0:0:0:0:
192,192,4975,128,0,5246:0:0:0:0:
448,192,5246,128,0,5786:0:0:0:0:
192,192,5786,1,0,0:0:0:0:
320,192,6057,1,0,0:0:0:0:
64,192,6327,1,0,0:0:0:0:
448,192,6597,1,0,0:0:0:0:
192,192,6867,1,0,0:0:0:0:
320,192,7138,1,0,0:0:0:0:
64,192,7408,128,4,7678:3:0:0:0:
320,192,7678,1,4,3:0:0:0:
448,192,7948,128,4,8219:3:0:0:0:
192,192,8219,1,4,3:0:0:0:
320,192,8489,128,0,8759:0:0:0:0:
192,192,8759,128,0,9030:0:0:0:0:
448,192,9030,128,0,9300:0:0:0:0:
64,192,9300,128,0,9570:0:0:0:0:
448,192,9570,1,0,0:0:0:0:
320,192,9840,1,0,0:0:0:0:
192,192,10111,1,0,0:0:0:0:
320,192,10381,1,0,0:0:0:0:
192,192,10516,1,0,0:0:0:0:
64,192,10651,1,8,0:0:0:0:
448,192,10651,1,0,0:0:0:0:
192,192,12813,1,8,0:0:0:0:
320,192,12813,1,0,0:0:0:0:
64,192,13084,1,8,0:0:0:0:
448,192,13084,1,0,0:0:0:0:
448,192,14435,128,4,14705:3:0:0:0:
192,192,14705,1,4,3:0:0:0:
320,192,14975,128,4,15246:3:0:0:0:
448,192,15246,1,0,0:0:0:0:
64,192,15246,1,8,0:0:0:0:
192,192,15516,1,4,3:0:0:0:
320,192,15651,1,4,3:0:0:0:
448,192,15786,1,0,0:0:0:0:
64,192,15786,1,8,0:0:0:0:
192,192,16057,128,4,16327:3:0:0:0:
64,192,16327,1,8,0:0:0:0:
448,192,16327,1,0,0:0:0:0:
192,192,16597,1,4,3:0:0:0:
320,192,16732,1,8,0:0:0:0:
448,192,16732,1,0,0:0:0:0:
192,192,16867,1,8,0:0:0:0:
64,192,16867,1,0,0:0:0:0:
448,192,17138,1,0,0:0:0:0:
192,192,17273,1,0,0:0:0:0:
64,192,17543,1,0,0:0:0:0:
448,192,17678,1,4,3:0:0:0:
192,192,17813,1,4,3:0:0:0:
320,192,17948,1,4,3:0:0:0:
64,192,18084,1,4,3:0:0:0:
320,192,18219,1,8,0:0:0:0:
448,192,18219,1,0,0:0:0:0:
192,192,19030,1,4,0:0:0:0:
320,192,19165,1,4,0:0:0:0:
64,192,19300,1,4,3:0:0:0:
448,192,19300,1,4,3:0:0:0:
64,192,19435,1,4,3:0:0:0:
320,192,19570,1,4,0:0:0:0:
192,192,19840,1,4,3:0:0:0:
64,192,20111,128,4,20381:0:0:0:0:
448,192,20381,1,4,3:0:0:0:
448,192,20516,1,4,3:0:0:0:
320,192,20651,1,4,0:0:0:0:
192,192,20921,1,4,3:0:0:0:
320,192,21192,128,4,21462:0:0:0:0:
64,192,21462,1,4,3:0:0:0:
64,192,21597,1,4,3:0:0:0:
192,192,21732,1,4,0:0:0:0:
448,192,22002,1,4,3:0:0:0:
64,192,22273,128,4,22543:0:0:0:0:
320,192,22543,1,4,3:0:0:0:
320,192,22678,1,4,3:0:0:0:
448,192,22813,1,4,0:0:0:0:
192,192,23084,1,4,3:0:0:0:
448,192,23354,128,4,23624:0:0:0:0:
64,192,23624,1,4,3:0:0:0:
64,192,23759,1,4,3:0:0:0:
320,192,23894,1,4,0:0:0:0:
448,192,24165,1,4,3:0:0:0:
64,192,24435,128,4,24705:0:0:0:0:
320,192,24705,1,4,3:0:0:0:
320,192,24840,1,4,3:0:0:0:
448,192,24975,1,4,0:0:0:0:
192,192,25246,1,4,3:0:0:0:
320,192,25516,128,4,25786:0:0:0:0:
64,192,25786,1,4,3:0:0:0:
64,192,25921,1,4,3:0:0:0:
448,192,26057,1,4,0:0:0:0:
192,192,26327,1,4,3:0:0:0:
64,192,26597,128,4,26867:0:0:0:0:
320,192,26867,1,8,0:0:0:0:
448,192,26867,1,0,0:0:0:0:
192,192,27138,1,0,0:0:0:0:
64,192,27138,1,8,0:0:0:0:
320,192,27408,1,8,0:0:0:0:
448,192,27408,1,0,0:0:0:0:
64,192,27678,1,8,0:0:0:0:
192,192,27678,1,0,0:0:0:0:
320,192,27948,1,4,3:0:0:0:
448,192,27948,1,4,3:0:0:0:
192,192,28219,1,4,0:0:0:0:
64,192,28489,1,4,3:0:0:0:
320,192,28759,1,4,0:0:0:0:
448,192,29030,1,4,3:0:0:0:
192,192,29300,1,4,0:0:0:0:
320,192,29570,1,4,3:0:0:0:
64,192,29840,1,4,0:0:0:0:
192,192,30111,128,4,30381:3:0:0:0:
448,192,30381,1,4,0:0:0:0:
64,192,30651,1,4,3:0:0:0:
448,192,30921,1,4,0:0:0:0:
320,192,31192,1,4,3:0:0:0:
64,192,31462,1,4,0:0:0:0:
192,192,31732,1,4,3:0:0:0:
448,192,32002,128,4,32273:3:0:0:0:
64,192,32273,1,4,3:0:0:0:
192,192,32543,1,4,0:0:0:0:
448,192,32813,1,0,0:0:0:0:
320,192,33084,1,4,0:0:0:0:
64,192,33354,1,8,0:0:0:0:
448,192,33354,1,0,0:0:0:0:
192,192,33489,1,8,0:0:0:0:
320,192,33624,1,8,0:0:0:0:
192,192,33759,1,8,0:0:0:0:
64,192,33894,1,8,0:0:0:0:
448,192,33894,1,0,0:0:0:0:
320,192,34030,1,8,0:0:0:0:
192,192,34165,1,8,0:0:0:0:
320,192,34300,1,8,0:0:0:0:
64,192,34435,1,8,0:0:0:0:
448,192,34435,1,0,0:0:0:0:
320,192,34705,1,8,0:0:0:0:
64,192,34975,1,8,0:0:0:0:
192,192,34975,1,0,0:0:0:0:
320,192,35246,1,8,0:0:0:0:
64,192,35516,1,8,0:0:0:0:
448,192,35516,1,0,0:0:0:0:
192,192,35786,1,8,0:0:0:0:
320,192,36057,1,8,0:0:0:0:
448,192,36057,1,0,0:0:0:0:
64,192,36327,1,8,0:0:0:0:
320,192,36597,1,8,0:0:0:0:
192,192,36800,1,8,0:0:0:0:
320,192,37002,1,8,0:0:0:0:
192,192,37205,1,8,0:0:0:0:
64,192,37408,128,0,37678:0:0:0:0:
448,192,37678,1,8,0:0:0:0:
320,192,37881,1,8,0:0:0:0:
64,192,38084,1,8,0:0:0:0:
192,192,38219,1,8,0:0:0:0:
320,192,38354,1,8,0:0:0:0:
64,192,38557,1,8,0:0:0:0:
448,192,38759,1,8,0:0:0:0:
192,192,38962,1,8,0:0:0:0:
320,192,39165,1,8,0:0:0:0:
192,192,39367,1,8,0:0:0:0:
64,192,39570,128,0,39840:0:0:0:0:
448,192,39840,1,0,0:0:0:0:
320,192,39975,1,0,0:0:0:0:
192,192,40111,1,0,0:0:0:0:
64,192,40246,1,0,0:0:0:0:
448,192,40381,1,4,0:0:0:0:
192,192,40651,1,4,0:0:0:0:
448,192,40921,1,8,0:0:0:0:
192,192,41124,1,8,0:0:0:0:
320,192,41327,1,8,0:0:0:0:
64,192,41530,1,8,0:0:0:0:
192,192,41732,128,4,42002:3:0:0:0:
448,192,42002,1,8,0:0:0:0:
320,192,42205,1,8,0:0:0:0:
64,192,42408,1,8,0:0:0:0:
192,192,42543,1,8,0:0:0:0:
320,192,42678,1,8,0:0:0:0:
64,192,42881,1,8,0:0:0:0:
448,192,43084,1,8,0:0:0:0:
192,192,43286,1,8,0:0:0:0:
448,192,43489,1,8,0:0:0:0:
64,192,43624,1,8,0:0:0:0:
192,192,43827,1,8,0:0:0:0:
320,192,44030,1,8,0:0:0:0:
64,192,44165,1,8,0:0:0:0:
192,192,44300,1,8,0:0:0:0:
448,192,44435,1,8,0:0:0:0:
320,192,44570,1,8,0:0:0:0:
64,192,44705,128,0,44975:0:0:0:0:
192,192,44975,1,8,0:0:0:0:
448,192,45246,1,8,0:0:0:0:
320,192,45246,1,0,0:0:0:0:
192,192,45786,1,0,0:0:0:0:
320,192,46057,1,0,0:0:0:0:
64,192,46327,128,0,46867:0:0:0:0:
448,192,46867,128,0,47408:0:0:0:0:
192,192,47408,1,0,0:0:0:0:
320,192,47543,128,0,47948:0:0:0:0:
192,192,48084,128,0,48489:0:0:0:0:
320,192,48489,1,8,0:0:0:0:
448,192,48489,1,0,0:0:0:0:
192,192,49030,1,8,0:0:0:0:
64,192,49030,1,0,0:0:0:0:
320,192,49570,128,0,50111:0:0:0:0:
64,192,50111,1,0,0:0:0:0:
448,192,50381,1,0,0:0:0:0:
320,192,50651,128,8,51192:0:0:0:0:
192,192,50651,1,0,0:0:0:0:
448,192,51192,128,0,51732:0:0:0:0:
64,192,51192,1,8,0:0:0:0:
320,192,51732,1,0,0:0:0:0:
192,192,52002,1,0,0:0:0:0:
64,192,52273,1,4,3:0:0:0:
192,192,52408,1,4,3:0:0:0:
320,192,52543,1,4,3:0:0:0:
448,192,52678,1,4,3:0:0:0:
64,192,52813,1,0,0:0:0:0:
320,192,53084,1,0,0:0:0:0:
192,192,53354,128,8,53624:0:0:0:0:
448,192,53624,128,8,53894:0:0:0:0:
192,192,53894,1,4,3:0:0:0:
320,192,54030,1,4,3:0:0:0:
64,192,54165,1,4,0:0:0:0:
192,192,54435,1,4,3:0:0:0:
448,192,54435,1,4,3:0:0:0:
64,192,54705,1,4,0:0:0:0:
320,192,54975,1,4,3:0:0:0:
192,192,55111,1,4,3:0:0:0:
448,192,55246,1,4,0:0:0:0:
192,192,55516,1,4,3:0:0:0:
448,192,55651,128,4,56057:3:0:0:0:
192,192,56057,1,4,3:0:0:0:
320,192,56192,1,4,3:0:0:0:
64,192,56327,1,4,0:0:0:0:
192,192,56597,1,4,3:0:0:0:
448,192,56597,1,4,3:0:0:0:
320,192,56867,1,4,0:0:0:0:
448,192,57138,1,4,3:0:0:0:
64,192,57273,1,4,3:0:0:0:
320,192,57408,1,4,0:0:0:0:
192,192,57678,128,4,58219:3:0:0:0:
320,192,57678,128,4,58219:3:0:0:0:
64,192,58219,1,4,3:0:0:0:
448,192,58354,1,4,3:0:0:0:
192,192,58489,1,4,0:0:0:0:
64,192,58759,1,4,3:0:0:0:
320,192,58759,1,4,3:0:0:0:
192,192,59030,1,4,0:0:0:0:
320,192,59300,1,4,3:0:0:0:
64,192,59435,1,4,3:0:0:0:
448,192,59570,1,4,0:0:0:0:
320,192,59840,1,4,3:0:0:0:
64,192,59975,128,4,60381:3:0:0:0:
320,192,60381,1,4,3:0:0:0:
192,192,60516,1,4,3:0:0:0:
448,192,60651,1,4,0:0:0:0:
64,192,60921,1,4,3:0:0:0:
320,192,60921,1,4,3:0:0:0:
192,192,61192,1,4,0:0:0:0:
320,192,61462,1,8,0:0:0:0:
448,192,61462,1,0,0:0:0:0:
64,192,61732,1,8,0:0:0:0:
192,192,61732,1,0,0:0:0:0:
320,192,62002,1,8,0:0:0:0:
448,192,62002,1,0,0:0:0:0:
64,192,62273,1,8,0:0:0:0:
192,192,62273,1,0,0:0:0:0:
320,192,62543,128,4,62813:3:0:0:0:
448,192,62813,1,8,0:0:0:0:
64,192,62813,1,0,0:0:0:0:
320,192,63084,1,4,3:0:0:0:
192,192,63354,1,4,0:0:0:0:
64,192,63624,1,4,3:0:0:0:
320,192,63759,1,4,3:0:0:0:
192,192,63894,1,4,0:0:0:0:
448,192,64030,1,4,3:0:0:0:
64,192,64165,1,4,3:0:0:0:
448,192,64300,1,8,0:0:0:0:
320,192,64435,1,8,0:0:0:0:
448,192,64570,1,8,0:0:0:0:
192,192,64705,128,0,64975:0:0:0:0:
448,192,64975,128,8,65516:0:0:0:0:
64,192,64975,128,0,65516:0:0:0:0:
320,192,65516,1,4,3:0:0:0:
192,192,65651,1,4,3:0:0:0:
320,192,65786,1,8,0:0:0:0:
448,192,65786,1,0,0:0:0:0:
192,192,66057,1,8,0:0:0:0:
64,192,66057,1,0,0:0:0:0:
320,192,66327,1,8,0:0:0:0:
448,192,66327,1,0,0:0:0:0:
192,192,66597,1,8,0:0:0:0:
64,192,66597,1,0,0:0:0:0:
320,192,66867,128,4,67138:3:0:0:0:
64,192,67138,1,8,0:0:0:0:
448,192,67138,1,0,0:0:0:0:
320,192,67408,1,8,0:0:0:0:
64,192,67543,1,8,0:0:0:0:
448,192,67678,1,0,0:0:0:0:
192,192,67948,128,4,68219:3:0:0:0:
64,192,68219,1,8,0:0:0:0:
448,192,68219,1,8,0:0:0:0:
192,192,68489,1,4,3:0:0:0:
448,192,68624,1,4,3:0:0:0:
64,192,68759,1,4,3:0:0:0:
320,192,69030,128,4,69300:3:0:0:0:
64,192,69300,1,8,0:0:0:0:
448,192,69300,1,0,0:0:0:0:
64,192,69705,1,8,0:0:0:0:
448,192,69705,1,0,0:0:0:0:
64,192,69975,1,8,0:0:0:0:
448,192,69975,1,0,0:0:0:0:
320,192,70381,128,0,71192:0:0:0:0:
192,192,71192,1,0,0:0:0:0:
64,192,71192,1,8,0:0:0:0:
320,192,71597,1,2,0:0:0:0:
192,192,72002,1,2,0:0:0:0:
448,192,72273,1,2,0:0:0:0:
320,192,72678,1,2,0:0:0:0:
192,192,73084,1,2,0:0:0:0:
192,192,73354,1,2,0:0:0:0:
64,192,73759,1,2,0:0:0:0:
320,192,74165,1,2,0:0:0:0:
448,192,74435,1,2,0:0:0:0:
64,192,74840,1,2,0:0:0:0:
192,192,75246,1,2,0:0:0:0:
448,192,75516,1,2,0:0:0:0:
64,192,75786,1,2,0:0:0:0:
320,192,75921,1,2,0:0:0:0:
192,192,76327,1,2,0:0:0:0:
448,192,76597,1,2,0:0:0:0:
192,192,76867,1,2,0:0:0:0:
320,192,77002,1,2,0:0:0:0:
448,192,77408,128,0,78759:0:0:0:0:
64,192,77408,128,0,78759:0:0:0:0:
320,192,79300,128,0,79840:0:0:0:0:
64,192,79840,1,4,3:0:0:0:
448,192,79840,1,4,0:0:0:0:
192,192,79975,1,4,3:0:0:0:
320,192,80111,1,4,0:0:0:0:
448,192,80381,1,4,3:0:0:0:
64,192,80381,1,4,3:0:0:0:
192,192,80651,1,4,0:0:0:0:
448,192,80921,1,4,3:0:0:0:
64,192,80921,1,4,3:0:0:0:
320,192,81057,1,4,3:0:0:0:
192,192,81192,1,4,0:0:0:0:
448,192,81462,1,4,3:0:0:0:
64,192,81462,1,4,3:0:0:0:
320,192,81732,1,4,0:0:0:0:
64,192,82002,1,4,3:0:0:0:
448,192,82002,1,4,3:0:0:0:
192,192,82138,1,4,3:0:0:0:
320,192,82273,1,4,0:0:0:0:
64,192,82543,1,4,3:0:0:0:
448,192,82543,1,4,3:0:0:0:
192,192,82813,1,4,0:0:0:0:
320,192,83084,128,4,83624:3:0:0:0:
64,192,83624,1,4,3:0:0:0:
64,192,83759,1,4,3:0:0:0:
448,192,83894,1,4,3:0:0:0:
448,192,84030,1,4,3:0:0:0:
64,192,84165,1,4,3:0:0:0:
192,192,84165,1,4,3:0:0:0:
448,192,84300,1,4,3:0:0:0:
192,192,84435,1,4,0:0:0:0:
320,192,84705,1,4,3:0:0:0:
448,192,84705,1,4,3:0:0:0:
64,192,84975,1,4,0:0:0:0:
320,192,85246,1,4,3:0:0:0:
448,192,85246,1,4,3:0:0:0:
192,192,85381,1,4,3:0:0:0:
320,192,85516,1,4,0:0:0:0:
64,192,85786,1,4,3:0:0:0:
192,192,85786,128,0,86057:0:0:0:0:
448,192,86057,1,4,0:0:0:0:
320,192,86327,1,4,3:0:0:0:
64,192,86327,1,4,3:0:0:0:
192,192,86462,1,4,3:0:0:0:
320,192,86597,1,4,0:0:0:0:
64,192,86867,1,4,3:0:0:0:
192,192,86867,1,4,3:0:0:0:
320,192,87138,1,4,0:0:0:0:
64,192,87408,1,4,3:0:0:0:
448,192,87408,1,4,3:0:0:0:
320,192,87543,1,4,3:0:0:0:
192,192,87678,1,4,0:0:0:0:
448,192,87948,1,4,3:0:0:0:
64,192,87948,1,4,3:0:0:0:
320,192,88084,1,4,3:0:0:0:
192,192,88219,1,4,0:0:0:0:
320,192,88354,1,4,3:0:0:0:
192,192,88489,1,4,3:0:0:0:
64,192,88489,1,4,3:0:0:0:
448,192,88624,1,4,3:0:0:0:
320,192,88759,1,4,0:0:0:0:
448,192,89030,1,4,3:0:0:0:
192,192,89030,1,4,3:0:0:0:
64,192,89300,1,4,0:0:0:0:
448,192,89435,1,4,3:0:0:0:
320,192,89705,1,0,0:0:0:0:
192,192,89705,1,8,0:0:0:0:
448,192,89975,1,0,0:0:0:0:
64,192,89975,1,8,0:0:0:0:
320,192,90246,1,8,0:0:0:0:
192,192,90246,1,0,0:0:0:0:
448,192,90651,1,4,3:0:0:0:
64,192,90651,1,4,3:0:0:0:
192,192,90786,1,4,3:0:0:0:
320,192,90921,1,4,0:0:0:0:
192,192,91192,1,4,3:0:0:0:
64,192,91192,1,4,3:0:0:0:
320,192,91462,1,4,0:0:0:0:
64,192,91732,1,4,3:0:0:0:
448,192,91732,128,4,92002:3:0:0:0:
192,192,92002,128,4,92273:0:0:0:0:
64,192,92273,1,4,3:0:0:0:
448,192,92273,1,4,3:0:0:0:
320,192,92543,1,4,3:0:0:0:
64,192,92813,1,4,3:0:0:0:
448,192,92813,1,4,0:0:0:0:
320,192,92948,1,4,3:0:0:0:
192,192,93084,1,4,0:0:0:0:
320,192,93354,1,4,3:0:0:0:
64,192,93354,1,4,3:0:0:0:
192,192,93624,1,4,0:0:0:0:
448,192,93894,1,4,3:0:0:0:
320,192,93894,1,4,3:0:0:0:
64,192,94030,1,4,3:0:0:0:
320,192,94165,1,4,0:0:0:0:
64,192,94435,1,4,3:0:0:0:
448,192,94435,1,4,3:0:0:0:
448,192,94570,1,4,3:0:0:0:
192,192,94705,1,4,3:0:0:0:
320,192,94840,1,0,0:0:0:0:
448,192,94840,1,0,0:0:0:0:
320,192,95111,1,8,0:0:0:0:
448,192,95111,1,0,0:0:0:0:
192,192,95381,1,8,0:0:0:0:
64,192,95381,1,0,0:0:0:0:
192,192,95651,1,0,0:0:0:0:
64,192,95651,1,8,0:0:0:0:
320,192,95921,1,8,0:0:0:0:
448,192,95921,128,0,97138:0:0:0:0:
64,192,96462,128,8,97138:0:0:0:0:
192,192,97138,1,4,3:0:0:0:
320,192,97138,1,4,3:0:0:0:
64,192,97408,1,4,0:0:0:0:
192,192,97678,1,4,3:0:0:0:
448,192,97678,1,4,3:0:0:0:
320,192,97948,128,4,98219:0:0:0:0:
64,192,98219,1,4,3:0:0:0:
192,192,98219,1,4,3:0:0:0:
320,192,98489,1,4,0:0:0:0:
64,192,98759,1,4,3:0:0:0:
448,192,98759,1,4,3:0:0:0:
192,192,99030,1,4,0:0:0:0:
448,192,99300,1,4,3:0:0:0:
320,192,99300,1,4,3:0:0:0:
64,192,99570,1,4,0:0:0:0:
448,192,99840,128,4,100381:3:0:0:0:
192,192,100381,1,4,3:0:0:0:
320,192,100516,1,4,3:0:0:0:
64,192,100651,128,4,100921:0:0:0:0:
448,192,100921,1,8,0:0:0:0:
192,192,101057,1,0,0:0:0:0:
320,192,101192,1,4,3:0:0:0:
64,192,101327,1,8,0:0:0:0:
448,192,101462,1,4,3:0:0:0:
320,192,101597,1,4,3:0:0:0:
192,192,101732,1,8,0:0:0:0:
64,192,102002,1,4,3:0:0:0:
448,192,102002,1,4,3:0:0:0:
192,192,102273,1,4,0:0:0:0:
320,192,102543,1,4,3:0:0:0:
448,192,102543,1,4,3:0:0:0:
192,192,102678,1,4,3:0:0:0:
320,192,102813,1,4,0:0:0:0:
64,192,103084,1,4,3:0:0:0:
448,192,103084,1,4,3:0:0:0:
320,192,103354,1,4,0:0:0:0:
192,192,103624,1,0,0:0:0:0:
64,192,103759,1,0,0:0:0:0:
448,192,103894,1,0,0:0:0:0:
320,192,104030,1,0,0:0:0:0:
64,192,104165,1,0,0:0:0:0:
192,192,104300,1,0,0:0:0:0:
448,192,104435,1,0,0:0:0:0:
320,192,104570,1,0,0:0:0:0:
192,192,104705,128,4,104975:3:0:0:0:
320,192,104975,128,4,105246:3:0:0:0:
64,192,105246,1,4,3:0:0:0:
448,192,105516,128,4,105786:3:0:0:0:
192,192,105786,1,8,0:0:0:0:
320,192,105989,1,8,0:0:0:0:
192,192,106192,1,8,0:0:0:0:
320,192,106394,1,8,0:0:0:0:
64,192,106597,128,8,106867:0:0:0:0:
448,192,106867,1,8,0:0:0:0:
192,192,107070,1,8,0:0:0:0:
320,192,107273,1,8,0:0:0:0:
64,192,107408,1,8,0:0:0:0:
320,192,107543,1,8,0:0:0:0:
448,192,107746,1,8,0:0:0:0:
192,192,107948,1,8,0:0:0:0:
320,192,108151,1,8,0:0:0:0:
64,192,108354,1,8,0:0:0:0:
448,192,108557,1,8,0:0:0:0:
320,192,108759,128,0,109030:0:0:0:0:
192,192,109030,1,0,0:0:0:0:
64,192,109300,1,0,0:0:0:0:
320,192,109570,1,4,0:0:0:0:
448,192,109840,1,4,0:0:0:0:
320,192,110111,1,8,0:0:0:0:
192,192,110313,1,8,0:0:0:0:
64,192,110516,1,8,0:0:0:0:
192,192,110719,1,8,0:0:0:0:
320,192,110921,128,8,111192:0:0:0:0:
448,192,111192,1,8,0:0:0:0:
64,192,111394,1,8,0:0:0:0:
192,192,111597,1,8,0:0:0:0:
320,192,111732,1,8,0:0:0:0:
448,192,111867,1,8,0:0:0:0:
320,192,112070,1,8,0:0:0:0:
64,192,112273,1,8,0:0:0:0:
192,192,112475,1,8,0:0:0:0:
448,192,112678,1,8,0:0:0:0:
64,192,112813,1,8,0:0:0:0:
320,192,113016,1,8,0:0:0:0:
192,192,113219,1,8,0:0:0:0:
64,192,113354,1,8,0:0:0:0:
192,192,113489,1,8,0:0:0:0:
320,192,113624,1,8,0:0:0:0:
448,192,113759,128,8,114165:0:0:0:0:
64,192,114165,1,8,0:0:0:0:
192,192,114165,1,0,0:0:0:0:
