osu file format v14

[General]
AudioFilename: Camellia - Werewolf howls..mp3
AudioLeadIn: 0
PreviewTime: 79299
Countdown: 0
SampleSet: Normal
StackLeniency: 0.7
Mode: 1
LetterboxInBreaks: 0
WidescreenStoryboard: 0

[Editor]
Bookmarks: 88488
DistanceSpacing: 2
BeatDivisor: 4
GridSize: 32
TimelineZoom: 3.099998

[Metadata]
Title:werewolf howls.
TitleUnicode:werewolf howls.
Artist:Camellia
ArtistUnicode:かめりあ
Creator:Nwolf
Version:Futsuu
Source:SOUND VOLTEX II -infinite infection-
Tags:Cametek Kagerou Imaizumi Lonesome th14 SDVX Touhou Project Double Dealing Character Remix Contest ZUN Team Shanghai Alice 東方Project
BeatmapID:745979
BeatmapSetID:309969

[Difficulty]
HPDrainRate:5
CircleSize:4
OverallDifficulty:4.5
ApproachRate:9.4
SliderMultiplier:1.2
SliderTickRate:1

[Events]
//Background and Video events
0,0,"BG1.jpg",0,-133
//Break Periods
//Storyboard Layer 0 (Background)
//Storyboard Layer 1 (Fail)
//Storyboard Layer 2 (Pass)
//Storyboard Layer 3 (Foreground)
//Storyboard Sound Samples

[TimingPoints]
2002,270.27027027027,4,1,0,50,1,0
9299,-100,4,1,0,60,0,0
18961,-100,4,1,0,70,0,0
19096,-100,4,1,0,77,0,0
19231,-100,4,1,0,85,0,0
36596,-100,4,1,0,85,0,1
45245,-100,4,1,0,85,0,0
45515,-100,4,1,0,35,0,0
52204,-100,4,1,0,45,0,0
52474,-100,4,1,0,55,0,0
52745,-100,4,1,0,75,0,0
53691,-100,4,1,0,85,0,0
62677,-100,4,1,0,100,0,0
62880,-100,4,1,0,85,0,0
64839,-100,4,1,0,100,0,0
65042,-100,4,1,0,85,0,0
67069,-100,4,1,0,100,0,0
67204,-100,4,1,0,85,0,0
68150,-100,4,1,0,100,0,0
68285,-100,4,1,0,85,0,0
69231,-100,4,1,0,100,0,0
69366,-100,4,1,0,85,0,0
71461,-100,4,1,0,35,0,0
77610,-100,4,1,0,55,0,0
78150,-100,4,1,0,65,0,0
79839,-100,4,1,0,85,0,1
96056,-100,4,1,0,85,0,0
105785,-100,4,1,0,85,0,1
114164,-100,4,1,0,85,0,0
114231,-100,4,1,0,40,0,0

[HitObjects]
224,224,2002,5,4,0:0:0:0:
288,224,3083,1,12,0:0:0:0:
288,224,5245,1,12,0:0:0:0:
288,224,7407,1,12,0:0:0:0:
288,160,9569,1,8,0:0:0:0:
224,160,9974,1,0,0:0:0:0:
288,160,10245,1,8,0:0:0:0:
224,224,10650,1,4,0:0:0:0:
224,224,12812,1,4,0:0:0:0:
224,224,13083,1,4,0:0:0:0:
288,160,14164,1,8,0:0:0:0:
224,224,14434,1,4,0:0:0:0:
224,224,14704,1,4,0:0:0:0:
224,224,15245,1,4,0:0:0:0:
224,224,15785,1,4,0:0:0:0:
224,224,16326,1,4,0:0:0:0:
224,224,16866,1,4,0:0:0:0:
224,224,17137,1,4,0:0:0:0:
224,224,17407,1,4,0:0:0:0:
224,224,17677,1,4,0:0:0:0:
288,224,18218,1,12,0:0:0:0:
288,160,19029,1,8,0:0:0:0:
224,224,19299,5,4,0:0:0:0:
288,160,19569,1,8,0:0:0:0:
288,160,19839,1,8,0:0:0:0:
224,160,20110,1,0,0:0:0:0:
288,160,20380,1,8,0:0:0:0:
224,160,20650,1,0,0:0:0:0:
288,160,20920,1,8,0:0:0:0:
224,160,21461,1,0,0:0:0:0:
288,160,21731,1,8,0:0:0:0:
288,160,22001,1,8,0:0:0:0:
224,160,22272,1,0,0:0:0:0:
288,160,22542,1,8,0:0:0:0:
288,160,22812,1,8,0:0:0:0:
224,160,23083,1,0,0:0:0:0:
224,160,23623,1,0,0:0:0:0:
288,160,23893,1,8,0:0:0:0:
288,160,24164,1,8,0:0:0:0:
224,160,24434,1,0,0:0:0:0:
288,160,24704,1,8,0:0:0:0:
224,160,24974,1,0,0:0:0:0:
288,160,25245,1,8,0:0:0:0:
224,160,25785,1,0,0:0:0:0:
288,160,26056,1,8,0:0:0:0:
288,160,26326,1,8,0:0:0:0:
224,160,26596,1,0,0:0:0:0:
288,160,26866,1,8,0:0:0:0:
288,160,27407,1,8,0:0:0:0:
288,160,27677,1,8,0:0:0:0:
224,224,27947,1,4,0:0:0:0:
288,160,28218,1,8,0:0:0:0:
288,160,28488,1,8,0:0:0:0:
288,160,28893,1,8,0:0:0:0:
288,160,29299,1,8,0:0:0:0:
288,160,29569,1,8,0:0:0:0:
224,160,30110,1,0,0:0:0:0:
288,160,30380,1,8,0:0:0:0:
288,160,30650,1,8,0:0:0:0:
288,160,31056,1,8,0:0:0:0:
288,160,31461,1,8,0:0:0:0:
288,160,31731,1,8,0:0:0:0:
288,160,32001,1,8,0:0:0:0:
224,160,32272,1,0,0:0:0:0:
288,160,32812,1,8,0:0:0:0:
224,160,33083,1,0,0:0:0:0:
224,160,33353,1,0,0:0:0:0:
288,160,33623,1,8,0:0:0:0:
224,160,33893,1,0,0:0:0:0:
224,160,34434,5,0,0:0:0:0:
224,160,34704,1,0,0:0:0:0:
224,160,34974,1,0,0:0:0:0:
224,160,35245,1,0,0:0:0:0:
224,160,35515,1,0,0:0:0:0:
224,160,35785,1,0,0:0:0:0:
288,160,36056,1,8,0:0:0:0:
288,224,36596,1,12,0:0:0:0:
288,224,37001,1,12,0:0:0:0:
288,224,37677,1,12,0:0:0:0:
288,224,38083,1,12,0:0:0:0:
224,160,38353,1,0,0:0:0:0:
288,224,38758,1,12,0:0:0:0:
288,224,39164,1,12,0:0:0:0:
224,160,39569,1,0,0:0:0:0:
224,160,40110,1,0,0:0:0:0:
288,160,40380,1,8,0:0:0:0:
288,224,40920,1,12,0:0:0:0:
288,224,41326,1,12,0:0:0:0:
288,224,42001,1,12,0:0:0:0:
288,224,42407,1,12,0:0:0:0:
288,224,42677,1,12,0:0:0:0:
288,224,43083,1,12,0:0:0:0:
288,224,43623,1,12,0:0:0:0:
288,224,44164,1,12,0:0:0:0:
288,224,44434,1,12,0:0:0:0:
288,160,44974,1,8,0:0:0:0:
224,224,45245,1,4,0:0:0:0:
288,160,49839,5,8,0:0:0:0:
288,160,50110,1,8,0:0:0:0:
288,160,50380,1,8,0:0:0:0:
288,160,50920,1,8,0:0:0:0:
224,160,51191,1,0,0:0:0:0:
224,160,51326,1,0,0:0:0:0:
288,160,52001,1,8,0:0:0:0:
288,160,52272,1,8,0:0:0:0:
288,160,52542,1,8,0:0:0:0:
224,160,52812,1,0,0:0:0:0:
224,224,53893,1,4,0:0:0:0:
288,160,54164,1,8,0:0:0:0:
224,160,54434,1,0,0:0:0:0:
224,160,54974,1,0,0:0:0:0:
224,160,55245,1,0,0:0:0:0:
288,160,55650,1,8,0:0:0:0:
224,160,55920,1,0,0:0:0:0:
224,160,56056,1,0,0:0:0:0:
288,160,56326,1,8,0:0:0:0:
224,160,56596,1,0,0:0:0:0:
288,160,57137,1,8,0:0:0:0:
288,160,57407,1,8,0:0:0:0:
288,160,57812,1,8,0:0:0:0:
224,160,58083,1,0,0:0:0:0:
224,160,58218,1,0,0:0:0:0:
288,160,58488,1,8,0:0:0:0:
224,160,58758,1,0,0:0:0:0:
224,160,59299,1,0,0:0:0:0:
224,160,59569,1,0,0:0:0:0:
288,160,59974,1,8,0:0:0:0:
224,160,60245,1,0,0:0:0:0:
224,160,60380,1,0,0:0:0:0:
288,160,60650,1,8,0:0:0:0:
224,160,60920,1,0,0:0:0:0:
224,160,61461,1,0,0:0:0:0:
288,160,61731,1,8,0:0:0:0:
288,160,62001,1,8,0:0:0:0:
224,160,62542,1,0,0:0:0:0:
288,224,62812,1,12,0:0:0:0:
224,160,63353,1,0,0:0:0:0:
288,160,63623,1,8,0:0:0:0:
288,160,63893,1,8,0:0:0:0:
224,160,64164,1,0,0:0:0:0:
224,160,64704,1,0,0:0:0:0:
288,224,64974,1,12,0:0:0:0:
288,160,65515,1,8,0:0:0:0:
224,160,65785,1,0,0:0:0:0:
288,160,66056,1,8,0:0:0:0:
288,160,66326,1,8,0:0:0:0:
224,160,66866,1,0,0:0:0:0:
288,224,67137,1,12,0:0:0:0:
288,160,67677,1,8,0:0:0:0:
224,160,67947,1,0,0:0:0:0:
288,224,68218,1,12,0:0:0:0:
288,160,68758,1,8,0:0:0:0:
224,160,69029,1,0,0:0:0:0:
288,224,69299,1,12,0:0:0:0:
288,224,69704,1,12,0:0:0:0:
288,224,69974,1,12,0:0:0:0:
224,224,71191,5,4,0:0:0:0:
288,160,74434,5,8,0:0:0:0:
224,160,75515,1,0,0:0:0:0:
288,160,76596,1,8,0:0:0:0:
224,160,77137,1,0,0:0:0:0:
224,160,77677,1,0,0:0:0:0:
224,160,77947,1,0,0:0:0:0:
224,160,78218,1,0,0:0:0:0:
224,160,78488,1,0,0:0:0:0:
224,160,78623,1,0,0:0:0:0:
224,160,79299,1,0,0:0:0:0:
288,160,79569,1,8,0:0:0:0:
288,224,79839,1,12,0:0:0:0:
224,160,80245,1,0,0:0:0:0:
288,160,80650,1,8,0:0:0:0:
288,160,81056,1,8,0:0:0:0:
288,160,81326,1,8,0:0:0:0:
288,160,81596,1,8,0:0:0:0:
224,160,81731,1,0,0:0:0:0:
288,160,82001,1,8,0:0:0:0:
288,160,82407,1,8,0:0:0:0:
288,160,82812,1,8,0:0:0:0:
288,160,82947,1,8,0:0:0:0:
288,160,83353,1,8,0:0:0:0:
224,160,83623,1,0,0:0:0:0:
288,160,83893,1,8,0:0:0:0:
224,160,84164,1,0,0:0:0:0:
224,160,84569,1,0,0:0:0:0:
224,160,84974,1,0,0:0:0:0:
288,160,85245,1,8,0:0:0:0:
288,160,85650,1,8,0:0:0:0:
288,160,86056,1,8,0:0:0:0:
224,160,86191,1,0,0:0:0:0:
224,160,86461,1,0,0:0:0:0:
224,160,86731,1,0,0:0:0:0:
288,160,87001,1,8,0:0:0:0:
224,160,87272,1,0,0:0:0:0:
224,160,87947,1,0,0:0:0:0:
224,160,88218,1,0,0:0:0:0:
288,224,88488,1,12,0:0:0:0:
224,160,88893,1,0,0:0:0:0:
288,160,89299,1,8,0:0:0:0:
288,160,89704,1,8,0:0:0:0:
288,160,89974,1,8,0:0:0:0:
288,160,90245,1,8,0:0:0:0:
224,160,90380,1,0,0:0:0:0:
288,160,90650,1,8,0:0:0:0:
288,160,91056,1,8,0:0:0:0:
224,160,91461,1,0,0:0:0:0:
224,160,91596,1,0,0:0:0:0:
288,160,92001,1,8,0:0:0:0:
224,160,92272,1,0,0:0:0:0:
288,160,92542,1,8,0:0:0:0:
224,160,92812,1,0,0:0:0:0:
224,160,93218,1,0,0:0:0:0:
288,160,93623,1,8,0:0:0:0:
288,160,93893,1,8,0:0:0:0:
288,160,94299,1,8,0:0:0:0:
224,160,94704,1,0,0:0:0:0:
288,160,95110,1,8,0:0:0:0:
288,160,95380,1,8,0:0:0:0:
288,160,95650,1,8,0:0:0:0:
224,160,95785,1,0,0:0:0:0:
288,224,96056,1,12,0:0:0:0:
288,160,96461,1,8,0:0:0:0:
288,160,97137,5,8,0:0:0:0:
288,160,97407,1,8,0:0:0:0:
288,160,97677,1,8,0:0:0:0:
224,160,98218,1,0,0:0:0:0:
288,160,98488,1,8,0:0:0:0:
288,160,98758,1,8,0:0:0:0:
224,160,99299,1,0,0:0:0:0:
224,160,99569,1,0,0:0:0:0:
288,160,99839,1,8,0:0:0:0:
224,160,100380,1,0,0:0:0:0:
224,160,100650,1,0,0:0:0:0:
224,160,100920,1,0,0:0:0:0:
224,160,101461,1,0,0:0:0:0:
288,160,101731,1,8,0:0:0:0:
224,160,102001,1,0,0:0:0:0:
224,160,102542,1,0,0:0:0:0:
288,160,102812,1,8,0:0:0:0:
288,160,103083,1,8,0:0:0:0:
288,160,103623,1,8,0:0:0:0:
288,160,103893,1,8,0:0:0:0:
288,160,104164,1,8,0:0:0:0:
224,160,104434,1,0,0:0:0:0:
224,160,104704,1,0,0:0:0:0:
224,160,104974,1,0,0:0:0:0:
288,160,105245,1,8,0:0:0:0:
288,224,105785,5,12,0:0:0:0:
288,224,106190,1,12,0:0:0:0:
288,224,106866,1,12,0:0:0:0:
288,224,107272,1,12,0:0:0:0:
224,160,107542,1,0,0:0:0:0:
288,224,107947,1,12,0:0:0:0:
288,224,108353,1,12,0:0:0:0:
224,160,109028,1,0,0:0:0:0:
288,160,109569,1,8,0:0:0:0:
288,224,110109,1,12,0:0:0:0:
288,224,110515,1,12,0:0:0:0:
288,224,111190,1,12,0:0:0:0:
288,224,111596,1,12,0:0:0:0:
288,224,111866,1,12,0:0:0:0:
288,224,112272,1,12,0:0:0:0:
288,224,112812,1,12,0:0:0:0:
288,224,113353,1,12,0:0:0:0:
288,224,113623,1,12,0:0:0:0:
224,160,113893,1,0,0:0:0:0:
224,224,114164,1,4,0:0:0:0:
256,192,114299,12,0,115245,0:0:0:0:
