osu file format v14

[General]
AudioFilename: 04 memoryleak.mp3
AudioLeadIn: 0
PreviewTime: 75034
Countdown: 0
SampleSet: Normal
StackLeniency: 0.3
Mode: 0
LetterboxInBreaks: 0
WidescreenStoryboard: 0

[Editor]
Bookmarks: 14097
DistanceSpacing: 1.1
BeatDivisor: 4
GridSize: 4
TimelineZoom: 1.4

[Metadata]
Title:memoryleak
TitleUnicode:memoryleak
Artist:Camellia
ArtistUnicode:かめりあ
Creator:Static Noise Bird
Version:.hyper
Source:
Tags:sudden shower edm asphyxia
BeatmapID:619543
BeatmapSetID:270733

[Difficulty]
HPDrainRate:5
CircleSize:4
OverallDifficulty:7
ApproachRate:7
SliderMultiplier:1.8
SliderTickRate:1

[Events]
//Background and Video events
0,0,"BeeGuh.jpg",0,0
//Break Periods
2,33750,42259
2,60234,66634
//Storyboard Layer 0 (Background)
//Storyboard Layer 1 (Fail)
//Storyboard Layer 2 (Pass)
//Storyboard Layer 3 (Foreground)
//Storyboard Sound Samples

[TimingPoints]
34.8571428571427,468.75,4,1,0,66,1,0
75034,-75.187969924812,4,1,0,75,0,1
105034,-100,4,1,0,75,0,1
120034,-100,4,1,0,75,0,0

[Colours]
Combo1 : 142,211,131
Combo2 : 128,0,0
Combo3 : 0,64,0
Combo4 : 255,159,113

[HitObjects]
84,96,14097,6,0,L|56:132,1,45,8|0,0:0|0:0,0:0:0:0:
108,144,14331,2,0,L|104:189,1,45,8|0,0:0|0:0,0:0:0:0:
156,172,14566,2,0,L|177:212,1,45,8|0,0:0|0:0,0:0:0:0:
209,169,14800,2,0,L|248:191,1,45,8|0,0:0|0:0,0:0:0:0:
252,136,15034,6,0,P|292:108|336:104,1,90,4|0,0:0|0:0,0:0:0:0:
384,112,15386,1,0,0:0:0:0:
404,164,15503,2,0,L|416:256,1,90,8|0,0:0|0:0,0:0:0:0:
424,308,15855,2,0,P|444:256|472:232,1,90
512,204,16206,1,0,0:0:0:0:
364,232,16441,1,8,0:0:0:0:
212,228,16675,2,0,L|152:220,1,45
116,232,16909,6,0,P|132:184|128:144,1,90
108,96,17261,1,0,0:0:0:0:
76,52,17378,2,0,P|136:60|184:48,1,90,8|0,0:0|0:0,0:0:0:0:
216,44,17730,2,0,L|332:64,1,90
356,68,18081,1,0,0:0:0:0:
404,60,18198,1,0,0:0:0:0:
444,28,18316,2,0,L|424:132,1,90,8|0,0:0|0:0,0:0:0:0:
392,276,18784,6,0,P|348:256|296:256,1,90
256,276,19136,1,0,0:0:0:0:
205,254,19253,2,0,P|160:256|120:276,1,90,8|0,0:0|0:0,0:0:0:0:
80,312,19605,1,0,0:0:0:0:
80,184,19839,2,0,L|4:160,2,45,0|0|0,0:0|0:0|0:0,0:0:0:0:
136,188,20191,2,0,B|180:180|180:180|224:148,1,90,8|0,0:0|0:0,0:0:0:0:
320,44,20659,6,0,P|320:92|344:136,1,90
372,172,21011,1,0,0:0:0:0:
408,212,21128,2,0,B|440:244|440:244|444:288,1,90,8|0,0:0|0:0,0:0:0:0:
444,344,21480,2,0,P|396:356|344:344,1,90
308,328,21831,1,0,0:0:0:0:
168,240,22066,1,8,0:0:0:0:
312,160,22300,1,8,0:0:0:0:
400,20,22534,6,0,P|336:48|268:40,1,135,4|0,0:0|0:0,0:0:0:0:
220,24,23003,2,0,P|220:72|192:136,1,90,8|0,0:0|0:0,0:0:0:0:
156,132,23355,2,0,P|120:128|96:132,1,45
200,160,23589,2,0,P|236:164|256:160,1,45
264,268,23941,2,0,P|244:324|204:348,1,90,8|0,0:0|0:0,0:0:0:0:
116,320,24409,6,0,P|136:264|176:240,1,90
200,212,24761,1,0,0:0:0:0:
200,160,24878,2,0,B|192:116|192:116|216:72,1,90,8|0,0:0|0:0,0:0:0:0:
260,48,25230,2,0,P|304:44|348:52,1,90
396,76,25581,1,0,0:0:0:0:
432,116,25698,1,0,0:0:0:0:
392,152,25816,2,0,P|368:196|368:240,1,90,8|0,0:0|0:0,0:0:0:0:
487,270,26284,6,0,P|511:226|511:182,1,90
480,144,26636,1,0,0:0:0:0:
432,116,26753,2,0,P|376:128|328:100,1,90,8|0,0:0|0:0,0:0:0:0:
308,80,27105,2,0,L|300:36,1,45
296,132,27339,2,0,L|260:168,1,45
176,228,27691,1,8,0:0:0:0:
72,264,27925,2,0,P|40:276|20:280,1,45
40,224,28159,6,0,P|60:172|52:124,1,90
36,88,28511,1,0,0:0:0:0:
4,44,28628,2,0,L|108:64,1,90,8|0,0:0|0:0,0:0:0:0:
140,84,28980,2,0,L|192:76,1,45
236,68,29214,1,0,0:0:0:0:
288,76,29331,2,0,L|332:84,1,45
376,120,29566,1,8,0:0:0:0:
432,264,29800,1,8,0:0:0:0:
280,236,30034,5,4,0:0:0:0:
256,192,30269,12,0,33550,0:0:0:0:
256,192,43159,12,0,44566,0:0:0:0:
344,332,45034,53,4,0:0:0:0:
280,124,45503,2,0,P|248:92|192:88,1,90
152,68,45855,2,0,P|164:112|156:156,1,90
84,296,46323,2,0,P|72:252|80:208,1,90
432,72,47378,6,0,P|400:104|340:108,1,90
304,100,47730,2,0,P|260:92|216:100,1,90
44,184,48198,2,0,P|88:192|132:184,1,90
304,100,48784,5,4,0:0:0:0:
452,260,49253,2,0,P|464:304|448:356,1,90
404,368,49605,2,0,P|360:356|300:368,1,90
160,288,50073,2,0,P|204:300|264:288,1,90
480,68,51128,6,0,B|436:56|436:56|392:64|392:64|348:56,1,135
296,44,51597,2,0,L|252:56,1,45
224,100,51831,2,0,L|180:92,1,45
132,116,52066,2,0,L|100:84,2,45
200,200,52534,5,4,0:0:0:0:
348,356,53003,2,0,P|392:352|428:320,1,90
460,284,53355,2,0,B|464:240|464:240|452:196,1,90
352,56,53823,2,0,B|348:100|348:100|360:144,1,90
260,336,54878,6,0,P|236:296|240:248,1,90
260,204,55230,2,0,P|204:220|172:216,1,90
0,152,55698,2,0,P|56:136|88:140,1,90
336,232,56284,5,4,0:0:0:0:
496,88,56753,2,0,P|452:108|396:108,1,90
368,76,57105,2,0,P|324:60|268:72,1,90
96,176,57573,2,0,P|140:192|196:180,1,90
340,152,58159,6,0,P|324:196|332:256,1,90
344,292,58511,1,0,0:0:0:0:
380,332,58628,2,0,P|312:324|276:336,1,90
240,344,58980,2,0,L|152:304,1,90
104,304,59331,2,0,L|92:248,1,45
48,232,59566,2,0,L|72:176,3,45,0|0|0|0,0:0|0:0|0:0|0:0,0:0:0:0:
104,160,60034,5,4,0:0:0:0:
256,192,67534,54,0,P|312:204|340:192,1,90
496,116,68003,2,0,P|440:104|412:116,1,90
256,192,68472,2,0,P|200:204|172:192,1,90
16,116,68941,2,0,P|72:104|100:116,1,90
256,192,69409,6,0,P|268:248|256:276,1,90
140,372,69878,2,0,P|128:316|140:288,1,90
256,192,70347,2,0,P|268:136|256:108,1,90
140,12,70816,2,0,P|128:68|140:96,1,90
256,192,71284,5,0,0:0:0:0:
315,277,71518,1,0,0:0:0:0:
418,267,71752,1,0,0:0:0:0:
465,175,71987,1,0,0:0:0:0:
413,85,72221,1,0,0:0:0:0:
312,49,72455,1,0,0:0:0:0:
208,72,72690,1,0,0:0:0:0:
134,148,72924,1,0,0:0:0:0:
117,253,73159,5,4,0:3:0:0:
117,253,74566,37,0,0:0:0:0:
412,212,75034,21,4,0:0:0:0:
272,236,75269,2,0,P|240:236|200:208,1,59.8499975342561
152,188,75503,2,0,P|192:240|148:316,1,119.699995068512,2|0,0:0|0:0,0:0:0:0:
120,324,75855,2,0,L|132:384,1,59.8499975342561,2|0,0:0|0:0,0:0:0:0:
54,296,76089,2,0,P|42:232|86:184,1,119.699995068512,2|2,0:0|0:0,0:0:0:0:
117,253,76441,1,8,0:0:0:0:
180,68,76675,1,0,0:0:0:0:
256,296,76909,6,0,P|308:328|364:316,1,119.699995068512
416,268,77261,1,0,0:0:0:0:
440,200,77378,1,10,0:0:0:0:
444,56,77612,2,0,L|376:96,1,59.8499975342561,0|2,0:0|0:0,0:0:0:0:
284,184,77964,2,0,L|296:248,2,59.8499975342561,2|0|2,0:0|0:0|0:0,0:0:0:0:
264,76,78316,2,0,B|228:124|228:124|184:128|156:144,1,119.699995068512,8|0,0:0|0:0,0:0:0:0:
28,164,78784,5,0,0:0:0:0:
132,264,79019,2,0,L|192:280,1,59.8499975342561
252,316,79253,2,0,P|308:292|368:296,1,119.699995068512,10|0,0:0|0:0,0:0:0:0:
424,340,79605,2,0,P|396:276|396:184,1,119.699995068512,2|2,0:0|0:0,0:0:0:0:
428,88,80073,1,2,0:0:0:0:
428,88,80191,1,8,0:0:0:0:
256,36,80425,1,0,0:0:0:0:
84,88,80659,5,0,0:0:0:0:
56,300,81011,1,0,0:0:0:0:
108,248,81128,2,0,P|160:220|216:240,1,119.699995068512,8|0,0:0|0:0,0:0:0:0:
272,280,81480,2,0,P|220:308|164:288,1,119.699995068512,0|0,0:0|0:0,0:0:0:0:
108,248,81831,1,0,0:0:0:0:
84,88,82066,1,8,0:0:0:0:
256,36,82300,1,8,0:0:0:0:
428,88,82534,5,0,0:0:0:0:
288,200,82769,2,0,P|248:216|216:216,1,59.8499975342561
164,196,83003,2,0,P|116:172|36:216,1,119.699995068512,10|0,0:0|0:0,0:0:0:0:
0,236,83355,2,0,P|32:160|8:76,1,119.699995068512,2|2,0:0|0:0,0:0:0:0:
132,24,83823,1,2,0:0:0:0:
196,60,83941,2,0,L|256:68,2,59.8499975342561,8|0|0,0:0|0:0|0:0,0:0:0:0:
29,124,84409,6,0,P|52:180|108:216,1,119.699995068512
164,244,84761,1,0,0:0:0:0:
232,272,84878,2,0,B|288:292|288:292|348:280,1,119.699995068512,10|0,0:0|0:0,0:0:0:0:
432,224,85230,2,0,B|376:204|376:204|316:216,1,119.699995068512,2|2,0:0|0:0,0:0:0:0:
232,272,85581,2,0,L|160:336,1,59.8499975342561,0|2,0:0|0:0,0:0:0:0:
132,358,85816,1,8,0:0:0:0:
124,120,86050,1,0,0:0:0:0:
244,352,86284,5,0,0:0:0:0:
324,176,86519,2,0,L|348:120,1,59.8499975342561
372,52,86753,2,0,L|424:184,1,119.699995068512,10|0,0:0|0:0,0:0:0:0:
444,232,87105,2,0,B|432:288|432:288|360:316,1,119.699995068512,2|2,0:0|0:0,0:0:0:0:
244,352,87573,1,2,0:0:0:0:
244,352,87691,1,8,0:0:0:0:
136,260,87925,1,0,0:0:0:0:
136,260,88042,1,0,0:0:0:0:
96,200,88159,6,0,P|88:164|92:128,1,59.8499975342561
160,76,88394,2,0,P|168:112|164:148,1,59.8499975342561
136,260,88628,2,0,P|176:256|204:256,1,59.8499975342561,8|0,0:0|0:0,0:0:0:0:
320,272,88862,2,0,L|384:236,1,59.8499975342561
448,128,89097,1,8,0:0:0:0:
416,64,89214,1,8,0:0:0:0:
348,40,89331,2,0,L|284:36,1,59.8499975342561,8|0,0:0|0:0,0:0:0:0:
213,50,89566,2,0,P|185:60|160:75,1,59.8499975342561,8|0,0:0|0:0,0:0:0:0:
96,200,89800,2,0,P|152:172|180:140,1,59.8499975342561,8|0,0:0|0:0,0:0:0:0:
236,184,90034,5,4,0:0:0:0:
376,228,90269,2,0,P|388:272|376:316,1,59.8499975342561
404,356,90503,2,0,P|360:324|296:324,1,119.699995068512,10|2,0:0|0:0,0:0:0:0:
228,352,90855,2,0,P|264:312|280:248,1,119.699995068512,2|2,0:0|0:0,0:0:0:0:
328,40,91441,1,8,0:0:0:0:
248,160,91675,1,0,0:0:0:0:
104,160,91909,5,0,0:0:0:0:
24,40,92144,2,0,L|84:28,1,59.8499975342561
152,16,92378,2,0,P|192:60|252:64,1,119.699995068512,10|2,0:0|0:0,0:0:0:0:
320,48,92730,2,0,P|328:108|360:156,1,119.699995068512,2|2,0:0|0:0,0:0:0:0:
428,176,93081,2,0,L|480:148,1,59.8499975342561,0|2,0:0|0:0,0:0:0:0:
376,224,93316,2,0,L|360:304,2,79.7999967123414,8|0|0,0:0|0:0|0:0,0:0:0:0:
408,108,93784,5,0,0:0:0:0:
264,200,94019,2,0,L|192:216,1,59.8499975342561
148,260,94253,2,0,P|176:200|172:140,1,119.699995068512,10|2,0:0|0:0,0:0:0:0:
156,76,94605,1,2,0:0:0:0:
24,16,94839,2,0,P|12:104|32:148,1,119.699995068512,2|2,0:0|0:0,0:0:0:0:
52,196,95191,1,8,0:0:0:0:
156,352,95425,1,0,0:0:0:0:
240,96,95659,6,0,B|260:152|312:192|312:192|296:187|269:189|252:200,1,179.549992602768
184,208,96128,2,0,L|316:272,1,119.699995068512,8|0,0:0|0:0,0:0:0:0:
360,284,96480,2,0,P|428:276|456:236,1,119.699995068512
476,168,96831,1,0,0:0:0:0:
332,40,97066,1,8,0:0:0:0:
296,228,97300,1,0,0:0:0:0:
124,312,97534,5,0,0:0:0:0:
52,236,97886,1,0,0:0:0:0:
52,236,98003,2,0,P|112:208|180:224,1,119.699995068512,14|0,0:0|0:0,0:0:0:0:
224,252,98355,2,0,L|268:192,1,59.8499975342561,2|0,0:0|0:0,0:0:0:0:
264,312,98589,2,0,P|312:352|380:344,1,119.699995068512,2|2,0:0|0:0,0:0:0:0:
432,316,98941,1,8,0:0:0:0:
460,252,99058,2,0,B|464:192|464:192|436:140,1,119.699995068512
296,96,99409,6,0,P|244:128|168:124,1,119.699995068512
120,104,99761,1,0,0:0:0:0:
76,44,99878,2,0,B|96:104|96:104|64:160,1,119.699995068512,10|0,0:0|0:0,0:0:0:0:
36,220,100230,2,0,P|56:284|104:296,1,119.699995068512,2|2,0:0|0:0,0:0:0:0:
164,260,100581,2,0,L|196:188,1,59.8499975342561,0|0,0:0|0:0,0:0:0:0:
164,332,100816,2,0,P|187:358|235:366,2,79.7999967123414,8|0|0,0:0|0:0|0:0,0:0:0:0:
164,260,101284,6,0,P|152:200|128:144,1,119.699995068512
84,92,101636,1,0,0:0:0:0:
32,44,101753,1,10,0:0:0:0:
168,84,101987,1,0,0:0:0:0:
240,100,102105,2,0,P|296:108|360:88,2,119.699995068512,2|2|2,0:0|0:0|0:0,0:0:0:0:
220,32,102691,1,8,0:0:0:0:
120,196,102925,1,0,0:0:0:0:
32,24,103159,5,4,0:0:0:0:
256,192,103394,12,4,105034,0:0:0:0:
120,144,105503,6,0,P|164:136|208:144,1,90,2|0,0:0|0:0,0:0:0:0:
248,180,105855,2,0,L|292:164,1,45,2|8,0:0|0:0,0:0:0:0:
328,128,106089,2,0,P|364:160|416:176,2,90,2|2|2,0:0|0:0|0:0,0:0:0:0:
300,84,106675,2,0,P|264:56|220:52,1,90
116,76,107144,5,0,0:0:0:0:
52,160,107378,2,0,P|36:204|48:264,1,90,2|0,0:0|0:0,0:0:0:0:
72,292,107730,2,0,L|124:284,1,45,2|8,0:0|0:0,0:0:0:0:
168,268,107964,2,0,L|232:284,2,45,2|0|0,0:0|0:0|0:0,0:0:0:0:
132,228,108316,1,0,0:0:0:0:
116,76,108550,1,0,0:0:0:0:
256,140,108784,6,0,P|300:152|352:144,1,90
404,56,109253,2,0,P|360:44|308:52,1,90,2|0,0:0|0:0,0:0:0:0:
264,60,109605,2,0,L|200:52,1,45,2|8,0:0|0:0,0:0:0:0:
168,44,109839,2,0,P|128:72|84:80,1,90,2|2,0:0|0:0,0:0:0:0:
32,80,110191,1,0,0:0:0:0:
112,152,110425,1,0,0:0:0:0:
148,252,110659,5,0,0:0:0:0:
136,360,110894,2,0,P|180:340|248:336,1,90
328,320,111362,2,0,L|384:296,1,45
420,280,111597,2,0,P|448:240|440:168,1,90,8|0,0:0|0:0,0:0:0:0:
368,64,112066,2,0,P|340:104|348:176,1,90
328,320,112534,5,0,0:0:0:0:
328,320,113003,1,2,0:0:0:0:
356,216,113237,1,0,0:0:0:0:
288,132,113472,1,8,0:0:0:0:
244,100,113589,2,0,B|212:88|184:108|152:96,2,90,2|2|2,0:0|0:0|0:0,0:0:0:0:
296,84,114175,2,0,L|328:32,2,45
244,212,114644,5,0,0:0:0:0:
120,272,114878,2,0,P|104:216|116:168,1,90,2|2,0:0|0:0,0:0:0:0:
152,152,115230,2,0,L|164:92,1,45,2|8,0:0|0:0,0:0:0:0:
208,84,115464,2,0,L|228:44,2,45,2|0|2,0:0|0:0|0:0,0:0:0:0:
232,132,115816,2,0,P|241:175|273:207,1,90
396,256,116284,6,0,B|410:213|398:170|398:170|386:162|386:162|374:119|347:92,1,180,0|2,0:0|0:0,0:0:0:0:
252,48,116987,1,0,0:0:0:0:
204,72,117105,2,0,L|120:48,1,45,2|10,0:0|0:0,0:0:0:0:
108,48,117339,2,0,P|112:104|88:164,1,90,2|2,0:0|0:0,0:0:0:0:
80,184,117691,1,0,0:0:0:0:
32,332,117925,1,0,0:0:0:0:
184,300,118159,5,4,0:0:0:0:
256,192,118394,12,4,120034,0:0:0:0:
