osu file format v14

[General]
AudioFilename: 04 memoryleak.mp3
AudioLeadIn: 0
PreviewTime: 75034
Countdown: 0
SampleSet: Normal
StackLeniency: 0.3
Mode: 0
LetterboxInBreaks: 0
WidescreenStoryboard: 0

[Editor]
Bookmarks: 14097
DistanceSpacing: 1
BeatDivisor: 4
GridSize: 4
TimelineZoom: 1

[Metadata]
Title:memoryleak
TitleUnicode:memoryleak
Artist:Camellia
ArtistUnicode:かめりあ
Creator:Static Noise Bird
Version:.another
Source:
Tags:sudden shower edm asphyxia
BeatmapID:615729
BeatmapSetID:270733

[Difficulty]
HPDrainRate:7
CircleSize:4
OverallDifficulty:8
ApproachRate:9
SliderMultiplier:2.2
SliderTickRate:1

[Events]
//Background and Video events
0,0,"BeeGuh.jpg",0,0
//Break Periods
2,33750,42559
//Storyboard Layer 0 (Background)
//Storyboard Layer 1 (Fail)
//Storyboard Layer 2 (Pass)
//Storyboard Layer 3 (Foreground)
//Storyboard Sound Samples

[TimingPoints]
34.8571428571427,468.75,4,1,0,66,1,0
74566,-200,4,1,0,66,0,0
75034,-75.187969924812,4,1,0,75,0,1
105034,-100,4,1,0,75,0,1
118394,-50,4,1,0,30,0,1
118511,-50,4,1,0,40,0,1
118628,-50,4,1,0,50,0,1
118745,-50,4,1,0,60,0,1
118862,-50,4,1,0,70,0,1
118980,-50,4,1,0,75,0,1
119097,-100,4,1,0,75,0,1
120034,-100,4,1,0,75,0,0

[Colours]
Combo1 : 142,211,131
Combo2 : 128,0,0
Combo3 : 0,64,0
Combo4 : 255,159,113

[HitObjects]
200,76,14097,5,8,0:0:0:0:
244,108,14214,2,8,L|224:136,2,27.5
296,124,14448,1,8,0:0:0:0:
352,128,14566,2,8,P|392:120|412:108,1,55
416,36,14800,2,8,P|376:44|356:56,1,55
476,84,15034,5,4,0:0:0:0:
388,204,15269,2,0,P|372:228|364:264,1,55
460,180,15503,2,0,P|424:136|352:136,1,110,8|0,0:0|0:0,0:0:0:0:
328,160,15855,2,0,L|292:220,1,55
276,96,16089,2,0,L|312:36,1,55
400,244,16441,1,8,0:0:0:0:
372,24,16675,1,0,0:0:0:0:
272,280,16909,6,0,P|228:316|168:308,1,110
132,284,17261,1,0,0:0:0:0:
100,240,17378,2,0,P|112:296|88:344,1,110,8|0,0:0|0:0,0:0:0:0:
40,368,17730,1,0,0:0:0:0:
164,200,17964,1,0,0:0:0:0:
176,148,18081,1,0,0:0:0:0:
168,92,18198,2,0,L|152:44,1,27.5
144,44,18316,2,0,P|192:84|252:72,1,110,8|0,0:0|0:0,0:0:0:0:
396,32,18784,5,0,0:0:0:0:
336,124,19019,2,0,P|320:148|320:184,1,55
284,216,19253,2,0,P|280:272|236:308,1,110,8|0,0:0|0:0,0:0:0:0:
119,236,19605,2,0,P|168:216|216:240,1,110
160,144,19956,1,0,0:0:0:0:
312,296,20191,2,0,P|360:320|420:292,1,110,8|0,0:0|0:0,0:0:0:0:
212,96,20659,6,0,P|164:72|104:100,1,110
92,140,21011,1,0,0:0:0:0:
108,192,21128,2,0,P|120:248|80:296,1,110,8|0,0:0|0:0,0:0:0:0:
55,234,21480,1,0,0:0:0:0:
212,96,21714,1,0,0:0:0:0:
212,96,21831,1,0,0:0:0:0:
288,324,22066,1,8,0:0:0:0:
384,84,22300,1,8,0:0:0:0:
140,280,22534,5,4,0:0:0:0:
72,100,22769,2,0,L|56:44,1,55
100,148,23003,2,0,P|140:188|204:180,1,110,8|0,0:0|0:0,0:0:0:0:
240,160,23355,2,0,L|257:104,1,55
237,215,23589,2,0,P|248:270|306:298,1,110
348,300,23941,1,8,0:0:0:0:
308,136,24175,2,0,P|276:96|236:92,1,55
228,64,24409,6,0,P|164:76|116:60,1,110
72,36,24761,1,0,0:0:0:0:
76,92,24878,2,0,L|60:216,1,110,8|0,0:0|0:0,0:0:0:0:
52,256,25230,1,0,0:0:0:0:
164,160,25464,1,0,0:0:0:0:
216,136,25581,1,0,0:0:0:0:
272,132,25698,2,0,L|308:136,1,27.5
324,148,25816,1,8,0:0:0:0:
168,100,26050,2,0,P|136:76|120:52,1,55
216,136,26284,6,0,P|248:180|248:236,1,110
224,284,26636,1,0,0:0:0:0:
188,324,26753,2,0,P|240:304|308:324,1,110,8|0,0:0|0:0,0:0:0:0:
340,284,27105,2,0,P|396:296|448:280,1,110
500,284,27456,2,0,L|516:232,1,55
468,332,27691,1,8,0:0:0:0:
376,172,27925,2,0,P|352:144|324:128,1,55
284,116,28159,5,0,0:0:0:0:
112,112,28394,1,0,0:0:0:0:
76,152,28511,1,0,0:0:0:0:
64,204,28628,1,8,0:0:0:0:
152,328,28862,1,0,0:0:0:0:
152,328,28980,2,0,P|104:300|48:304,1,110
148,236,29331,2,0,P|176:212|192:184,1,55
144,104,29566,2,0,P|116:128|100:156,1,55,8|0,0:0|0:0,0:0:0:0:
148,236,29800,2,0,P|180:256|232:256,1,55
300,240,30034,5,4,0:0:0:0:
256,192,30269,12,0,33550,0:0:0:0:
256,192,43159,12,0,44800,0:0:0:0:
140,216,45034,54,0,B|176:224|208:208|208:208|224:220|224:220|256:204|300:216,1,165,4|0,0:0|0:0,0:0:0:0:
348,232,45503,1,0,0:0:0:0:
448,184,45737,1,0,0:0:0:0:
480,140,45855,1,0,0:0:0:0:
460,340,46089,1,0,0:0:0:0:
297,215,46323,1,0,0:0:0:0:
108,276,46558,1,0,0:0:0:0:
108,276,47378,5,0,0:0:0:0:
232,112,47612,1,0,0:0:0:0:
288,100,47730,1,0,0:0:0:0:
436,236,47964,1,0,0:0:0:0:
188,264,48198,1,0,0:0:0:0:
412,128,48433,1,0,0:0:0:0:
256,96,48784,6,0,B|240:92|236:76|236:76|220:84|220:84|216:60|200:32|176:20|140:20|112:28,1,165,4|0,0:0|0:0,0:0:0:0:
80,44,49253,1,0,0:0:0:0:
28,192,49487,1,0,0:0:0:0:
68,232,49605,1,0,0:0:0:0:
236,352,49839,1,0,0:0:0:0:
256,148,50073,1,0,0:0:0:0:
64,56,50308,1,0,0:0:0:0:
64,56,50894,6,0,L|8:44,2,36.6666666666667
96,76,51128,2,0,P|152:64|216:72,1,110,8|0,0:0|0:0,0:0:0:0:
256,84,51480,1,0,0:0:0:0:
304,108,51597,2,0,L|332:68,2,36.6666666666667
344,144,51831,2,0,L|380:112,2,36.6666666666667
372,188,52066,2,0,L|428:164,2,36.6666666666667
384,240,52300,2,0,L|448:236,1,55
288,240,52534,6,0,P|204:236|160:308,1,165,4|0,0:0|0:0,0:0:0:0:
244,312,53003,1,0,0:0:0:0:
208,152,53237,2,0,P|176:136|128:136,1,55
0,64,53589,2,0,P|48:44|108:44,2,110,0|0|0,0:0|0:0|0:0,0:0:0:0:
0,64,54878,6,0,P|48:44|108:44,1,110
160,56,55230,1,0,0:0:0:0:
356,132,55464,1,0,0:0:0:0:
96,172,55698,1,0,0:0:0:0:
156,160,55816,1,8,0:3:0:0:
212,172,55932,1,0,0:0:0:0:
256,216,56050,2,0,L|316:204,1,55,0|0,3:3|0:0,0:0:0:0:
144,236,56284,6,0,P|64:248|12:172,1,165,4|0,0:0|0:0,0:0:0:0:
24,128,56753,1,0,0:0:0:0:
200,72,56987,2,0,L|256:80,1,55
420,144,57339,2,0,P|460:100|512:88,2,110
328,320,58159,6,0,L|320:360,2,36.6666666666667,8|0|0,0:0|0:0|0:0,0:0:0:0:
332,264,58394,1,0,0:0:0:0:
324,208,58511,1,8,0:0:0:0:
300,160,58628,2,0,P|280:132|252:112,1,55,8|0,0:0|0:0,0:0:0:0:
212,100,58862,1,0,0:0:0:0:
156,96,58980,6,0,P|116:100|80:116,1,55,8|0,0:0|0:0,0:0:0:0:
96,208,59214,2,0,P|136:204|172:188,1,55,8|0,0:0|0:0,0:0:0:0:
300,160,59448,2,0,P|260:164|224:180,1,55,8|0,0:0|0:0,0:0:0:0:
412,156,59683,2,0,P|444:156|472:164,2,55
212,100,60034,5,4,0:0:0:0:
256,192,60269,12,0,63550,0:0:0:0:
180,96,64253,21,0,0:0:0:0:
64,264,64487,2,0,L|132:244,1,55
244,212,64839,1,0,0:0:0:0:
424,216,65073,1,0,0:0:0:0:
332,372,65308,1,0,0:0:0:0:
332,372,66128,6,0,P|308:320|264:284,1,110
172,240,66480,2,0,P|252:256|320:244,1,110
488,168,66948,2,0,P|408:152|340:164,1,110
256,264,67534,6,0,B|204:244|204:244|168:200,1,110
164,32,68003,2,0,B|216:52|216:52|252:96,1,110
256,264,68472,2,0,B|298:300|298:300|353:311,1,110
508,252,68941,2,0,B|465:215|465:215|410:204,1,110
256,264,69409,6,0,B|213:300|213:300|158:311,1,110
4,252,69878,2,0,B|46:215|46:215|101:204,1,110
256,264,70347,2,0,B|308:244|308:244|344:200,1,110
348,32,70816,2,0,B|296:52|296:52|260:96,1,110
176,312,71284,6,0,L|112:343,1,55
115,261,71519,2,0,L|44:261,1,55
82,189,71753,2,0,L|18:158,1,55
87,111,71987,2,0,L|42:55,1,55
148,64,72222,2,0,L|190:7,1,55
225,82,72456,2,0,L|288:50,1,55
286,132,72691,2,0,L|356:131,1,55
315,205,72925,2,0,L|378:235,1,55
300,284,73159,5,4,0:3:0:0:
272,296,74566,6,0,B|256:304|238:301|238:301|232:308|232:308|212:304|192:312,1,82.5
300,284,75034,6,0,B|320:252|316:212|304:220|300:176|320:140,1,146.299993972626,4|0,0:0|0:0,0:0:0:0:
368,88,75386,1,0,0:0:0:0:
236,180,75503,2,0,P|164:204|100:172,1,146.299993972626,10|0,0:0|0:0,0:0:0:0:
36,52,75855,2,0,L|96:112,1,73.149996986313,2|0,0:0|0:0,0:0:0:0:
248,252,76089,2,0,L|236:180,1,73.149996986313
216,40,76323,1,2,0:0:0:0:
172,100,76441,1,8,0:0:0:0:
156,172,76558,2,0,P|152:216|156:248,2,73.149996986313,0|0|0,0:0|0:0|0:0,0:0:0:0:
216,40,76909,6,0,B|252:48|274:65|274:65|284:51|284:51|316:72|347:78,1,146.299993972626
484,116,77261,1,0,0:0:0:0:
392,160,77378,2,0,P|320:184|244:176,1,146.299993972626,10|0,0:0|0:0,0:0:0:0:
64,152,77730,2,0,P|108:168|136:216,1,73.149996986313,2|0,0:0|0:0,0:0:0:0:
192,364,77964,2,0,P|148:348|120:300,1,73.149996986313
52,244,78198,2,0,L|16:240,2,36.5749984931565,0|0|8,0:0|0:0|0:0,0:0:0:0:
392,160,78550,1,0,0:0:0:0:
128,52,78784,5,0,0:0:0:0:
88,328,79019,2,0,L|160:264,1,73.149996986313
284,156,79253,2,0,L|258:248,1,73.149996986313,10|0,0:0|0:0,0:0:0:0:
228,376,79487,1,0,0:0:0:0:
248,304,79605,2,0,P|292:248|364:240,2,146.299993972626,2|0|2,0:0|0:0|0:0,0:0:0:0:
340,332,80191,1,8,0:0:0:0:
480,144,80425,2,0,P|440:172|408:184,1,73.149996986313
248,304,80659,6,0,P|176:316|108:248,1,146.299993972626
96,204,81011,1,0,0:0:0:0:
120,136,81128,2,0,P|178:94|248:107,1,146.299993972626,8|0,0:0|0:0,0:0:0:0:
304,152,81480,2,0,L|316:264,1,73.149996986313
316,80,81714,1,0,0:0:0:0:
376,40,81831,2,0,P|404:32|448:40,1,73.149996986313
412,104,82066,1,8,0:0:0:0:
140,168,82300,1,8,0:0:0:0:
340,360,82534,6,0,B|316:330|316:290|329:296|328:252|305:218,1,146.299993972626,4|0,0:0|0:0,0:0:0:0:
256,128,82886,1,0,0:0:0:0:
180,64,83003,2,0,P|124:56|40:112,1,146.299993972626,10|0,0:0|0:0,0:0:0:0:
28,168,83355,2,0,P|24:200|32:260,1,73.149996986313,2|0,0:0|0:0,0:0:0:0:
160,348,83589,2,0,P|164:316|156:256,1,73.149996986313,2|0,0:0|0:0,0:0:0:0:
140,168,83823,1,2,0:0:0:0:
208,196,83941,1,8,0:0:0:0:
280,196,84058,1,2,0:0:0:0:
352,180,84175,2,0,L|368:268,1,73.149996986313
416,108,84409,6,0,P|368:84|264:140,1,146.299993972626
240,188,84761,1,0,0:0:0:0:
276,268,84878,2,0,P|312:273|349:269,2,73.149996986313,10|0|0,0:0|0:0|0:0,0:0:0:0:
140,252,85230,2,0,P|118:224|107:189,1,73.149996986313,2|0,0:0|0:0,0:0:0:0:
196,56,85464,2,0,P|219:85|230:120,1,73.149996986313
276,268,85698,2,0,L|264:300,3,24.383332328771,0|0|0|8,0:0|0:0|0:0|0:0,0:0:0:0:
332,92,86050,1,0,0:0:0:0:
488,288,86284,5,0,0:0:0:0:
244,148,86519,2,0,P|211:133|174:132,1,73.149996986313
80,164,86753,2,0,P|160:124|216:48,1,146.299993972626,10|0,0:0|0:0,0:0:0:0:
248,12,87105,2,0,P|258:46|285:82,1,73.149996986313,2|0,0:0|0:0,0:0:0:0:
448,192,87339,2,0,P|437:157|410:121,1,73.149996986313,2|0,0:0|0:0,0:0:0:0:
352,90,87573,1,0,0:0:0:0:
279,76,87691,1,10,0:0:0:0:
8,236,87925,2,0,P|52:244|104:268,1,73.149996986313
228,320,88159,5,0,0:0:0:0:
216,248,88277,1,0,0:0:0:0:
244,180,88394,1,0,0:0:0:0:
304,140,88511,1,0,0:0:0:0:
376,144,88628,2,0,L|368:64,1,73.149996986313,8|0,0:0|0:0,0:0:0:0:
143,71,88862,2,0,L|136:144,1,73.149996986313
140,228,89097,1,8,0:0:0:0:
156,300,89214,2,0,L|128:324,2,36.5749984931565,8|8|8,0:0|0:0|0:0,0:0:0:0:
228,320,89448,1,8,0:0:0:0:
292,284,89566,2,0,P|316:256|328:208,1,73.149996986313,8|8,0:0|0:0,0:0:0:0:
196,88,89800,2,0,P|172:116|160:164,1,73.149996986313,8|8,0:0|0:0,0:0:0:0:
228,320,90034,5,4,0:0:0:0:
436,240,90269,2,0,L|452:148,1,73.149996986313
464,76,90503,2,0,P|417:133|344:200,1,146.299993972626,10|2,0:0|0:0,0:0:0:0:
256,176,90855,2,0,P|272:124|320:88,1,73.149996986313,2|0,0:0|0:0,0:0:0:0:
365,183,91089,2,0,P|349:235|301:271,1,73.149996986313,2|0,0:0|0:0,0:0:0:0:
256,280,91323,1,2,0:0:0:0:
174,248,91441,2,0,P|154:218|147:183,1,73.149996986313,8|0,0:0|0:0,0:0:0:0:
128,56,91675,1,0,0:0:0:0:
80,312,91909,5,4,0:0:0:0:
328,244,92144,1,0,0:0:0:0:
365,183,92261,1,0,0:0:0:0:
376,112,92378,2,0,P|392:172|472:184,1,146.299993972626,10|2,0:0|0:0,0:0:0:0:
404,32,92730,2,0,P|360:28|324:44,1,73.149996986313,2|0,0:0|0:0,0:0:0:0:
208,160,92964,2,0,P|252:164|288:148,1,73.149996986313,2|0,0:0|0:0,0:0:0:0:
348,108,93198,2,0,L|364:68,1,36.5749984931565
352,188,93316,2,0,B|367:221|363:257|363:257|377:257|377:257|371:293|391:325,1,146.299993972626,8|0,0:0|0:0,0:0:0:0:
476,96,93784,6,0,P|432:48|344:64,1,146.299993972626
256,96,94136,1,0,0:0:0:0:
155,54,94253,2,0,P|85:45|36:96,1,146.299993972626,10|0,0:0|0:0,0:0:0:0:
48,180,94605,2,0,L|76:248,1,73.149996986313,2|0,0:0|0:0,0:0:0:0:
108,316,94839,1,2,0:0:0:0:
464,180,95191,2,0,L|436:248,1,73.149996986313,8|0,0:0|0:0,0:0:0:0:
404,316,95425,1,0,0:0:0:0:
256,96,95659,6,0,P|272:168|216:224,1,146.299993972626
156,240,96011,1,0,0:0:0:0:
76,252,96128,2,0,L|228:300,1,146.299993972626,8|0,0:0|0:0,0:0:0:0:
404,316,96480,2,0,L|484:360,1,73.149996986313
388,240,96714,1,0,0:0:0:0:
340,184,96831,1,0,0:0:0:0:
100,48,97066,1,8,0:0:0:0:
328,84,97300,1,8,0:0:0:0:
100,144,97534,5,4,0:0:0:0:
100,144,97886,1,0,0:0:0:0:
112,268,98003,2,0,B|116:308|140:332|140:332|156:320|156:320|180:344|232:348,1,146.299993972626,10|2,0:0|0:0,0:0:0:0:
332,336,98355,2,0,L|372:352,2,36.5749984931565,2|0|0,0:0|0:0|0:0,0:0:0:0:
256,236,98589,2,0,P|248:196|256:166,1,73.149996986313,2|0,0:0|0:0,0:0:0:0:
316,80,98823,1,2,0:0:0:0:
424,108,98941,2,0,P|408:145|385:166,1,73.149996986313,8|0,0:0|0:0,0:0:0:0:
184,240,99175,2,0,P|144:248|114:240,1,73.149996986313
4,160,99409,6,0,P|88:144|176:168,1,146.299993972626
256,236,99761,1,0,0:0:0:0:
365,155,99878,2,0,P|437:144|508:160,1,146.299993972626,10|2,0:0|0:0,0:0:0:0:
398,239,100230,2,0,P|363:248|328:240,1,73.149996986313,2|0,0:0|0:0,0:0:0:0:
113,144,100464,2,0,P|148:135|184:144,1,73.149996986313,2|0,0:0|0:0,0:0:0:0:
256,176,100698,2,0,L|272:216,1,36.5749984931565
296,108,100816,2,0,B|308:76|352:68|352:68|356:48|356:48|392:56|432:44,1,146.299993972626,8|0,0:0|0:0,0:0:0:0:
328,260,101284,6,0,B|256:272|256:272|184:260,1,146.299993972626
88,200,101636,1,0,0:0:0:0:
24,116,101753,2,0,B|84:132|108:84|168:104,1,146.299993972626,10|0,0:0|0:0,0:0:0:0:
232,136,102105,1,2,0:0:0:0:
304,144,102222,1,0,0:0:0:0:
376,124,102339,1,2,0:0:0:0:
428,76,102456,1,0,0:0:0:0:
444,220,102691,2,0,B|461:256|456:292|456:292|496:320|464:336|496:356,1,146.299993972626,8|0,0:0|0:0,0:0:0:0:
348,320,103159,5,4,0:0:0:0:
256,192,103394,12,0,104800,0:0:0:0:
300,188,105034,6,0,P|344:132|424:164,1,165,4|0,0:0|0:0,0:0:0:0:
436,244,105503,1,0,0:0:0:0:
297,335,105737,2,0,L|244:324,1,55
164,324,105972,1,8,0:0:0:0:
124,252,106089,2,0,P|108:208|120:152,1,55,2|0,0:0|0:0,0:0:0:0:
256,68,106323,2,0,L|256:128,1,55,2|0,0:0|0:0,0:0:0:0:
388,252,106558,2,0,P|404:208|392:152,2,55,2|0|0,0:0|0:0|0:0,0:0:0:0:
348,324,106909,5,0,0:0:0:0:
164,324,107144,1,0,0:0:0:0:
256,164,107378,2,0,P|308:132|368:144,1,110,2|0,0:0|0:0,0:0:0:0:
324,216,107730,1,2,0:0:0:0:
256,248,107847,1,8,0:0:0:0:
188,216,107964,1,2,0:0:0:0:
157,137,108081,2,0,L|116:176,1,55,0|2,0:0|0:0,0:0:0:0:
32,264,108316,1,0,0:0:0:0:
256,336,108550,1,0,0:0:0:0:
480,264,108784,5,0,0:0:0:0:
392,88,109019,2,0,P|368:68|328:48,1,55
256,32,109253,1,2,0:0:0:0:
120,128,109487,2,0,P|104:164|104:204,1,55
136,256,109722,1,8,0:0:0:0:
200,308,109839,2,0,P|216:272|216:232,1,55,2|0,0:0|0:0,0:0:0:0:
232,104,110073,2,0,P|216:140|216:180,2,55,2|0|0,0:0|0:0|0:0,0:0:0:0:
256,32,110425,1,0,0:0:0:0:
420,56,110659,6,0,P|416:124|344:168,1,110
92,328,111128,2,0,P|96:260|168:216,1,110
204,216,111480,1,0,0:0:0:0:
280,244,111597,2,0,P|332:260|400:240,1,110,8|0,0:0|0:0,0:0:0:0:
260,116,112066,2,0,P|208:100|140:120,1,110
8,224,112534,6,0,B|52:220|64:256|64:256|84:248|84:248|96:284|140:284,1,165
220,288,113003,1,0,0:0:0:0:
460,144,113237,1,0,0:0:0:0:
192,200,113472,1,8,0:0:0:0:
270,213,113589,2,0,P|291:231|304:256,1,55,2|0,0:0|0:0,0:0:0:0:
168,360,113823,2,0,P|147:341|134:317,1,55,2|0,0:0|0:0,0:0:0:0:
112,236,114058,1,2,0:0:0:0:
124,156,114175,2,0,P|156:124|200:120,2,55,0|0|0,0:0|0:0|0:0,0:0:0:0:
44,300,114644,5,0,0:0:0:0:
208,300,114878,1,2,0:0:0:0:
344,208,115112,2,0,P|368:180|384:148,1,55,0|2,0:0|0:0,0:0:0:0:
368,80,115347,1,8,0:0:0:0:
292,44,115464,2,0,B|264:40|264:40|232:44,2,55,2|0|0,0:0|0:0|0:0,0:0:0:0:
368,80,115816,1,0,0:0:0:0:
484,296,116050,1,0,0:0:0:0:
296,128,116284,5,0,0:0:0:0:
296,128,116753,2,0,L|240:152,1,55,2|2,0:0|0:0,0:0:0:0:
164,172,116987,1,0,0:0:0:0:
96,216,117105,1,2,0:0:0:0:
52,284,117222,1,8,0:0:0:0:
40,364,117339,2,0,P|80:360|116:340,1,55,2|0,0:0|0:0,0:0:0:0:
236,260,117573,2,0,P|196:264|160:284,1,55,2|0,0:0|0:0,0:0:0:0:
404,324,117925,1,0,0:0:0:0:
376,148,118159,5,4,0:0:0:0:
312,300,118394,2,0,L|300:328,20,27.5,2|2|2|2|2|2|2|2|2|2|2|2|2|2|2|2|2|2|2|2|2,0:0|0:0|0:0|0:0|0:0|0:0|0:0|0:0|0:0|0:0|0:0|0:0|0:0|0:0|0:0|0:0|0:0|0:0|0:0|0:0|0:0,0:0:0:0:
372,236,119097,2,0,P|404:236|460:200,2,73.3333333333333
288,220,119566,1,8,0:0:0:0:
232,184,119683,1,8,0:0:0:0:
196,128,119800,1,8,0:0:0:0:
164,188,119917,1,8,0:0:0:0:
108,224,120034,5,4,0:0:0:0:
