osu file format v14

[General]
AudioFilename: 04 memoryleak.mp3
AudioLeadIn: 0
PreviewTime: 75034
Countdown: 0
SampleSet: Normal
StackLeniency: 0.3
Mode: 0
LetterboxInBreaks: 0
WidescreenStoryboard: 0

[Editor]
Bookmarks: 14097
DistanceSpacing: 1.1
BeatDivisor: 4
GridSize: 4
TimelineZoom: 1.4

[Metadata]
Title:memoryleak
TitleUnicode:memoryleak
Artist:Camellia
ArtistUnicode:かめりあ
Creator:Static Noise Bird
Version:.advanced
Source:
Tags:sudden shower edm asphyxia
BeatmapID:615803
BeatmapSetID:270733

[Difficulty]
HPDrainRate:4
CircleSize:4
OverallDifficulty:5
ApproachRate:5.5
SliderMultiplier:1.4
SliderTickRate:1

[Events]
//Background and Video events
0,0,"BeeGuh.jpg",0,0
//Break Periods
2,33750,42034
2,60234,66409
//Storyboard Layer 0 (Background)
//Storyboard Layer 1 (Fail)
//Storyboard Layer 2 (Pass)
//Storyboard Layer 3 (Foreground)
//Storyboard Sound Samples

[TimingPoints]
34.8571428571427,468.75,4,1,0,66,1,0
75034,-75.187969924812,4,1,0,75,0,1
105034,-100,4,1,0,75,0,1
120034,-100,4,1,0,75,0,0

[Colours]
Combo1 : 142,211,131
Combo2 : 128,0,0
Combo3 : 0,64,0
Combo4 : 255,159,113

[HitObjects]
116,140,14097,6,0,L|76:152,2,35,8|0|8,0:0|0:0|0:0,0:0:0:0:
156,208,14566,2,0,L|112:240,2,35,8|0|8,0:0|0:0|0:0,0:0:0:0:
216,256,15034,6,0,P|264:272|308:264,1,70
352,240,15503,1,8,0:0:0:0:
276,152,15855,2,0,B|268:112|284:80|284:80|236:68,1,105
176,64,16441,1,8,0:0:0:0:
104,88,16675,1,0,0:0:0:0:
28,88,16909,6,0,B|72:104|80:132|80:132|72:168|88:216,1,140,0|8,0:0|0:0,0:0:0:0:
112,312,17730,2,0,B|144:328|180:320|180:320|200:356,1,105
256,300,18316,1,8,0:0:0:0:
284,228,18550,1,0,0:0:0:0:
280,152,18784,6,0,P|276:116|240:80,1,70
200,148,19253,1,8,0:0:0:0:
284,228,19605,2,0,B|320:228|341:198|341:198|372:228,1,105
376,300,20191,1,8,0:0:0:0:
440,256,20425,1,0,0:0:0:0:
424,180,20659,5,0,0:0:0:0:
440,104,20894,1,0,0:0:0:0:
376,60,21128,2,0,B|348:40|348:40|332:84|292:96,2,105,8|0|0,0:0|0:0|0:0,0:0:0:0:
440,104,22066,2,0,P|480:128|496:172,1,70,8|8,0:0|0:0,0:0:0:0:
424,180,22534,5,4,0:0:0:0:
352,208,22769,1,0,0:0:0:0:
276,204,23003,1,8,0:0:0:0:
176,148,23355,2,0,P|196:208|168:264,1,105
112,272,23941,2,0,P|140:308|188:316,1,70,8|0,0:0|0:0,0:0:0:0:
232,348,24409,6,0,P|276:324|324:312,1,70
372,308,24878,1,8,0:0:0:0:
488,296,25230,2,0,B|456:264|424:256|424:256|444:236|464:216,1,105
456,160,25816,1,8,0:0:0:0:
416,92,26050,1,0,0:0:0:0:
344,68,26284,5,0,0:0:0:0:
272,92,26519,1,0,0:0:0:0:
232,160,26753,1,8,0:0:0:0:
244,276,27105,2,0,B|272:304|304:312|304:312|272:344,1,105
204,344,27691,2,0,P|172:312|168:268,1,70,8|0,0:0|0:0,0:0:0:0:
180,216,28159,5,0,0:0:0:0:
232,160,28394,1,0,0:0:0:0:
304,132,28628,2,0,P|344:124|392:136,1,70,8|0,0:0|0:0,0:0:0:0:
444,156,29097,2,0,L|464:196,2,35
432,80,29566,2,0,L|448:40,2,35,8|0|8,0:0|0:0|0:0,0:0:0:0:
372,128,30034,5,4,0:0:0:0:
256,192,30269,12,0,33550,0:0:0:0:
256,192,43159,12,0,44566,0:0:0:0:
128,144,45034,53,4,0:0:0:0:
280,172,45503,2,0,P|316:176|360:164,1,70
380,188,45855,2,0,P|416:176|452:184,1,70
489,245,46323,2,0,P|453:257|417:249,1,70
156,196,47378,6,0,P|144:160|152:120,1,70
124,100,47730,2,0,L|192:60,1,70
260,76,48198,2,0,L|336:56,1,70
440,84,48784,5,4,0:0:0:0:
396,232,49253,2,0,P|368:264|320:284,1,70
312,296,49605,2,0,B|276:280|276:280|240:280,1,70
192,336,50073,2,0,B|228:352|228:352|264:352,1,70
460,176,51128,6,0,P|424:152|384:152,1,70
360,152,51480,2,0,L|272:120,2,70,0|0|0,0:0|0:0|0:0,0:0:0:0:
480,304,52534,5,4,0:0:0:0:
328,320,53003,2,0,P|292:324|256:320,1,70
232,292,53355,2,0,L|144:280,1,70
116,220,53823,2,0,L|204:208,1,70
452,160,54878,6,0,L|372:140,1,70
356,116,55230,2,0,P|320:128|280:120,1,70
246,59,55698,2,0,P|282:47|322:55,1,70
424,84,56284,5,4,0:0:0:0:
460,236,56753,2,0,L|408:300,1,70
404,328,57105,2,0,P|368:304|324:300,1,70
280,344,57573,2,0,P|316:368|360:372,1,70
256,192,58159,12,4,60034,0:0:0:0:
216,204,67534,22,0,P|276:192|360:212,1,140
456,320,68472,2,0,P|396:332|312:312,1,140
216,204,69409,6,0,P|200:144|128:100,1,140
76,244,70347,2,0,P|92:304|164:348,1,140
308,328,71284,6,0,L|396:308,1,70
452,324,71753,2,0,L|469:235,1,70
504,188,72222,2,0,L|430:135,1,70
396,88,72691,2,0,L|318:134,1,70
260,140,73159,5,4,0:3:0:0:
260,140,74566,5,0,0:0:0:0:
76,232,75034,5,4,0:0:0:0:
208,312,75386,1,0,0:0:0:0:
256,324,75503,2,0,P|304:328|352:312,1,93.0999961643983,8|0,0:0|0:0,0:0:0:0:
396,328,75855,2,0,P|368:272|372:220,1,93.0999961643983
368,140,76323,2,0,L|372:84,2,46.5499980821992,0|8|0,0:0|0:0|0:0,0:0:0:0:
256,244,76909,6,0,P|204:256|132:216,1,139.649994246598
108,172,77378,2,0,L|120:288,1,93.0999961643983,8|0,0:0|0:0,0:0:0:0:
140,312,77730,2,0,P|200:328|260:316,2,93.0999961643983
92,296,78316,1,8,0:0:0:0:
32,216,78550,1,0,0:0:0:0:
52,116,78784,5,0,0:0:0:0:
192,48,79136,1,0,0:0:0:0:
244,40,79253,2,0,P|288:68|344:68,1,93.0999961643983,8|0,0:0|0:0,0:0:0:0:
380,68,79605,2,0,P|372:120|392:180,1,93.0999961643983
428,248,80073,2,0,L|448:312,1,46.5499980821992,0|8,0:0|0:0,0:0:0:0:
352,340,80425,1,0,0:0:0:0:
256,312,80659,6,0,B|208:296|164:304|164:304|136:256,1,139.649994246598
120,216,81128,2,0,B|104:172|104:172|152:168|180:124,2,139.649994246598,8|0|0,0:0|0:0|0:0,0:0:0:0:
224,212,82066,1,8,0:0:0:0:
316,168,82300,1,8,0:0:0:0:
384,92,82534,6,0,P|392:152|436:220,1,139.649994246598
472,260,83003,2,0,B|432:232|432:232|388:236,1,93.0999961643983,8|0,0:0|0:0,0:0:0:0:
336,248,83355,2,0,P|272:240|240:192,1,93.0999961643983
188,144,83823,2,0,L|156:96,2,46.5499980821992,0|8|0,0:0|0:0|0:0,0:0:0:0:
212,300,84409,6,0,P|192:348|100:336,1,139.649994246598
88,304,84878,1,8,0:0:0:0:
64,204,85112,2,0,L|40:140,1,46.5499980821992
128,96,85464,2,0,L|136:44,1,46.5499980821992,0|0,0:0|0:0,0:0:0:0:
236,64,85816,1,8,0:0:0:0:
336,88,86050,1,0,0:0:0:0:
412,156,86284,5,0,0:0:0:0:
444,308,86636,1,0,0:0:0:0:
448,360,86753,2,0,P|400:328|336:328,1,93.0999961643983,8|0,0:0|0:0,0:0:0:0:
316,336,87105,2,0,P|268:360|228:352,2,93.0999961643983,0|0|0,0:0|0:0|0:0,0:0:0:0:
328,284,87691,2,0,L|288:176,1,93.0999961643983,8|0,0:0|0:0,0:0:0:0:
244,108,88159,6,0,B|204:84|204:84|160:96|160:96|120:72,2,139.649994246598
340,140,89097,2,0,L|416:120,2,46.5499980821992,8|0|8,0:0|0:0|0:0,0:0:0:0:
260,208,89566,2,0,L|248:264,2,46.5499980821992,8|0|8,0:0|0:0|0:0,0:0:0:0:
244,108,90034,6,0,P|208:64|104:92,1,139.649994246598,4|0,0:0|0:0,0:0:0:0:
88,92,90503,1,8,0:0:0:0:
48,188,90737,2,0,L|28:240,1,46.5499980821992
100,308,91089,2,0,P|120:352|172:360,1,93.0999961643983
212,352,91441,2,0,L|304:360,1,93.0999961643983,8|0,0:0|0:0,0:0:0:0:
400,320,91909,6,0,P|448:312|480:232,1,139.649994246598
456,188,92378,2,0,B|428:148|440:100|440:100|384:80,1,139.649994246598,8|0,0:0|0:0,0:0:0:0:
300,48,92964,2,0,P|256:36|212:48,1,93.0999961643983
164,72,93316,2,0,L|104:48,2,62.0666641095989,8|0|0,0:0|0:0|0:0,0:0:0:0:
216,116,93784,6,0,P|244:156|228:244,1,139.649994246598
180,272,94253,2,0,P|240:272|288:320,1,93.0999961643983,8|0,0:0|0:0,0:0:0:0:
308,320,94605,2,0,L|400:296,2,93.0999961643983,0|0|0,0:0|0:0|0:0,0:0:0:0:
260,336,95191,1,8,0:0:0:0:
160,364,95425,1,0,0:0:0:0:
88,292,95659,5,0,0:0:0:0:
56,140,96011,1,0,0:0:0:0:
44,88,96128,2,0,B|84:68|84:68|156:72,1,93.0999961643983,8|0,0:0|0:0,0:0:0:0:
176,96,96480,2,0,P|220:112|272:100,1,93.0999961643983
312,84,96831,1,0,0:0:0:0:
408,48,97066,2,0,B|392:92|392:92|400:140,1,93.0999961643983,8|8,0:0|0:0,0:0:0:0:
424,236,97534,5,0,0:0:0:0:
280,288,97886,2,0,L|228:308,1,46.5499980821992,0|4,0:0|0:0,0:0:0:0:
144,260,98237,1,0,0:0:0:0:
104,228,98355,2,0,P|60:224|24:188,2,93.0999961643983,0|0|0,0:0|0:0|0:0,0:0:0:0:
152,216,98941,1,8,0:0:0:0:
236,160,99175,1,0,0:0:0:0:
284,72,99409,6,0,P|312:124|404:136,1,139.649994246598
436,132,99878,2,0,P|412:180|428:232,1,93.0999961643983
440,264,100230,2,0,P|388:252|340:268,1,93.0999961643983
308,288,100581,1,0,0:0:0:0:
208,268,100816,2,0,L|144:320,2,62.0666641095989,8|0|0,0:0|0:0|0:0,0:0:0:0:
256,220,101284,6,0,P|276:172|216:104,1,139.649994246598
184,80,101753,2,0,B|140:100|93:92|93:92|104:140,1,139.649994246598
108,240,102339,1,0,0:0:0:0:
180,312,102573,2,0,L|220:344,1,46.5499980821992,0|8,0:0|0:0,0:0:0:0:
316,312,102925,1,0,0:0:0:0:
256,192,103159,12,4,105034,0:0:0:0:
280,93,105503,6,0,P|246:100|212:96,1,70
136,112,105972,2,0,P|100:104|24:116,2,105,8|0|0,0:0|0:0|0:0,0:0:0:0:
188,168,106909,5,0,0:0:0:0:
208,244,107144,2,0,P|168:284|140:296,2,70
264,188,107847,2,0,P|304:168|364:172,1,105,8|0,0:0|0:0,0:0:0:0:
400,184,108316,1,0,0:0:0:0:
452,240,108550,1,0,0:0:0:0:
424,312,108784,6,0,P|380:348|304:328,1,140
252,272,109487,1,0,0:0:0:0:
208,208,109722,2,0,L|188:180,1,35,8|0,0:0|0:0,0:0:0:0:
124,140,110073,2,0,L|136:104,1,35
204,72,110425,1,0,0:0:0:0:
280,80,110659,5,0,0:0:0:0:
356,92,110894,2,0,P|412:88|468:144,1,140
448,220,111597,2,0,P|472:276|516:308,2,105,8|0|0,0:0|0:0|0:0,0:0:0:0:
392,164,112534,6,0,B|332:176|332:176|276:216,1,105
268,228,113003,2,0,L|192:192,1,70
136,160,113472,2,0,B|99:171|99:171|112:208|84:244,2,105,8|0|0,0:0|0:0|0:0,0:0:0:0:
204,120,114409,5,0,0:0:0:0:
256,64,114644,2,0,P|288:92|332:96,2,70,0|0|0,0:0|0:0|0:0,0:0:0:0:
180,48,115347,2,0,B|144:44|144:44|108:104,1,105,8|0,0:0|0:0,0:0:0:0:
92,140,115816,1,0,0:0:0:0:
76,216,116050,1,0,0:0:0:0:
116,280,116284,6,0,P|172:308|232:268,1,140
260,196,116987,1,0,0:0:0:0:
288,124,117222,2,0,B|303:115|316:105|316:105|334:113|352:116|352:116|367:102|382:88,2,105,8|0|0,0:0|0:0|0:0,0:0:0:0:
212,136,118159,5,4,0:0:0:0:
256,192,118394,12,4,120034,0:0:0:0:
