osu file format v14

[General]
AudioFilename: dreamlesswanderer.mp3
AudioLeadIn: 1500
PreviewTime: 179685
Countdown: 0
SampleSet: Normal
StackLeniency: 0.7
Mode: 3
LetterboxInBreaks: 0
SpecialStyle: 0
WidescreenStoryboard: 0

[Editor]
DistanceSpacing: 1
BeatDivisor: 4
GridSize: 16
TimelineZoom: 1.4

[Metadata]
Title:dreamless wanderer
TitleUnicode:dreamless wanderer
Artist:Camellia
ArtistUnicode:かめりあ
Creator:Fullerene-
Version:Ethereal Shift
Source:
Tags:rCaliberGX cametek drumstep c87 KamelCamellia かめるかめりあ CTCD-010
BeatmapID:714878
BeatmapSetID:321347

[Difficulty]
HPDrainRate:8.8
CircleSize:4
OverallDifficulty:7.7
ApproachRate:9
SliderMultiplier:1.4
SliderTickRate:1

[Events]
//Background and Video events
0,0,"bg.png",0,0
//Break Periods
//Storyboard Layer 0 (Background)
//Storyboard Layer 1 (Fail)
//Storyboard Layer 2 (Pass)
//Storyboard Layer 3 (Foreground)
//Storyboard Sound Samples

[TimingPoints]
1064.11,344.828,4,2,1,10,1,0
28650,-100,4,2,1,15,0,0
34167,-100,4,2,1,20,0,0
39684,-100,4,2,1,25,0,0
44512,-100,4,1,1,30,0,0
67615,-100,4,2,1,30,0,0
78305,-100,4,1,1,30,0,0
100371,-100,4,1,1,25,0,0
105891,-100,4,1,1,30,0,0
108650,-100,4,2,1,35,0,0
110719,-100,4,1,1,30,0,0
155202,-100,4,2,1,30,0,0
155547,-100,4,1,1,20,0,0
166581,-100,4,1,1,25,0,0
172098,-100,4,1,1,30,0,0
177616,-100,4,2,1,30,0,0
179685,-100,4,1,1,30,0,0
180374,-100,4,1,1,30,0,1
191064,-100,4,1,1,30,0,0
191409,-100,4,1,1,30,0,1
202098,-100,4,1,1,30,0,1
213133,-100,4,1,1,30,0,0
213478,-100,4,1,1,30,0,1
224512,-100,4,1,1,30,0,0
243823,-100,4,2,1,30,0,0
246581,-100,4,1,1,30,0,0
268650,-100,4,2,1,30,0,0
274167,-100,4,2,1,25,0,0
279685,-100,4,2,1,20,0,0
285202,-100,4,2,1,15,0,0
290719,-100,4,2,1,10,0,0

[HitObjects]
192,0,1064,128,0,1753:0:0:0:0:
320,0,1710,1,0,0:0:0:0:
448,0,1753,1,0,0:0:0:0:
192,0,2098,128,0,6452:0:0:0:0:
320,0,6581,128,0,7271:0:0:0:0:
64,0,7184,1,0,0:0:0:0:
192,0,7227,1,0,0:0:0:0:
448,0,7314,1,0,0:0:0:0:
192,0,7615,128,0,11926:0:0:0:0:
192,0,12098,128,0,12788:0:0:0:0:
320,0,12745,1,0,0:0:0:0:
448,0,12788,1,0,0:0:0:0:
192,0,13133,128,0,17486:0:0:0:0:
320,0,17615,128,0,18305:0:0:0:0:
64,0,18219,1,0,0:0:0:0:
192,0,18262,1,0,0:0:0:0:
448,0,18348,1,0,0:0:0:0:
192,0,18650,128,0,22960:0:0:0:0:
64,0,23133,1,0,0:0:0:0:
192,0,23248,1,0,0:0:0:0:
64,0,23477,1,0,0:0:0:0:
192,0,23822,1,0,0:0:0:0:
320,0,23937,1,0,0:0:0:0:
192,0,24167,1,0,0:0:0:0:
320,0,24512,1,0,0:0:0:0:
448,0,24627,1,0,0:0:0:0:
320,0,24857,1,0,0:0:0:0:
192,0,25202,1,0,0:0:0:0:
320,0,25317,1,0,0:0:0:0:
192,0,25546,1,0,0:0:0:0:
448,0,25891,1,0,0:0:0:0:
320,0,26006,1,0,0:0:0:0:
448,0,26236,1,0,0:0:0:0:
320,0,26581,1,0,0:0:0:0:
192,0,26696,1,0,0:0:0:0:
320,0,26926,1,0,0:0:0:0:
192,0,27271,1,0,0:0:0:0:
64,0,27385,1,0,0:0:0:0:
192,0,27615,1,0,0:0:0:0:
320,0,27960,1,0,0:0:0:0:
192,0,28075,1,0,0:0:0:0:
320,0,28305,1,0,0:0:0:0:
64,0,28650,1,0,0:0:0:0:
64,0,28765,1,0,0:0:0:0:
192,0,28995,1,0,0:0:0:0:
192,0,29339,1,0,0:0:0:0:
192,0,29454,1,0,0:0:0:0:
320,0,29684,1,0,0:0:0:0:
320,0,30029,1,0,0:0:0:0:
320,0,30144,1,0,0:0:0:0:
448,0,30374,1,0,0:0:0:0:
448,0,30719,1,0,0:0:0:0:
448,0,30834,1,0,0:0:0:0:
320,0,31064,1,0,0:0:0:0:
320,192,31408,1,0,0:0:0:0:
320,192,31523,1,0,0:0:0:0:
192,0,31753,1,0,0:0:0:0:
192,0,32098,1,0,0:0:0:0:
192,0,32213,1,0,0:0:0:0:
320,0,32443,1,0,0:0:0:0:
320,0,32788,1,0,0:0:0:0:
320,0,32903,1,0,0:0:0:0:
448,0,33133,1,0,0:0:0:0:
448,0,33477,1,0,0:0:0:0:
448,0,33592,1,0,0:0:0:0:
64,0,33822,1,0,0:0:0:0:
64,0,34167,1,0,0:0:0:0:
192,0,34339,1,0,0:0:0:0:
320,0,34512,1,0,0:0:0:0:
448,0,34771,1,0,0:0:0:0:
192,0,35029,1,0,0:0:0:0:
448,0,35202,1,0,0:0:0:0:
320,0,35374,1,0,0:0:0:0:
64,0,35719,1,0,0:0:0:0:
192,0,35891,1,0,0:0:0:0:
320,0,36150,1,0,0:0:0:0:
448,0,36322,1,0,0:0:0:0:
192,0,36495,1,0,0:0:0:0:
320,0,36753,1,0,0:0:0:0:
64,0,37098,1,0,0:0:0:0:
192,0,37271,1,0,0:0:0:0:
448,0,37529,1,0,0:0:0:0:
64,0,37788,1,0,0:0:0:0:
192,0,37960,1,0,0:0:0:0:
320,0,38133,1,0,0:0:0:0:
192,0,38477,1,0,0:0:0:0:
64,0,38650,1,0,0:0:0:0:
320,0,38908,1,0,0:0:0:0:
448,0,39081,1,0,0:0:0:0:
192,0,39253,1,0,0:0:0:0:
320,0,39512,1,0,0:0:0:0:
64,0,39857,1,0,0:0:0:0:
320,0,40029,1,0,0:0:0:0:
448,0,40288,1,0,0:0:0:0:
192,0,40546,1,0,0:0:0:0:
448,0,40719,1,0,0:0:0:0:
320,0,40891,1,0,0:0:0:0:
64,0,41236,128,0,41294:0:0:0:0:
192,0,41408,128,0,41466:0:0:0:0:
320,0,41667,128,0,41753:0:0:0:0:
448,0,41840,128,0,41926:0:0:0:0:
192,0,42012,128,0,42127:0:0:0:0:
320,0,42271,128,0,42443:0:0:0:0:
64,0,42615,1,0,0:0:0:0:
192,0,42788,1,0,0:0:0:0:
448,0,43046,1,0,0:0:0:0:
64,192,43305,128,0,44469:0:0:0:0:
192,0,43477,1,0,0:0:0:0:
320,0,43650,1,0,0:0:0:0:
192,0,43995,1,0,0:0:0:0:
320,0,44512,1,0,0:0:0:0:
448,0,44512,1,0,0:0:0:0:
320,0,44598,1,0,0:0:0:0:
448,0,44598,1,0,0:0:0:0:
320,0,44684,1,0,0:0:0:0:
448,0,44684,1,0,0:0:0:0:
320,0,44771,1,0,0:0:0:0:
448,0,44771,1,0,0:0:0:0:
192,0,44857,1,0,0:0:0:0:
192,0,44943,1,0,0:0:0:0:
64,0,45029,1,0,0:0:0:0:
64,0,45115,1,0,0:0:0:0:
448,0,45202,128,0,45288:0:0:0:0:
320,0,45230,128,0,45316:0:0:0:0:
192,0,45259,128,0,45518:0:0:0:0:
64,0,45288,128,0,45546:0:0:0:0:
448,0,45374,1,0,0:0:0:0:
320,0,45546,1,0,0:0:0:0:
64,0,45719,1,0,0:0:0:0:
192,0,45805,1,0,0:0:0:0:
320,0,45862,1,0,0:0:0:0:
64,0,45891,1,0,0:0:0:0:
448,0,45891,1,0,0:0:0:0:
448,0,46064,128,0,46236:0:0:0:0:
320,0,46121,1,0,0:0:0:0:
192,0,46179,1,0,0:0:0:0:
320,0,46236,128,0,46581:0:0:0:0:
192,0,46293,1,0,0:0:0:0:
64,0,46351,1,0,0:0:0:0:
448,0,46408,1,0,0:0:0:0:
192,0,46466,1,0,0:0:0:0:
64,0,46523,1,0,0:0:0:0:
64,0,46926,1,0,0:0:0:0:
192,0,46926,1,0,0:0:0:0:
320,0,46969,1,0,0:0:0:0:
448,0,47012,1,0,0:0:0:0:
192,0,47055,1,0,0:0:0:0:
64,0,47098,1,0,0:0:0:0:
192,0,47184,1,0,0:0:0:0:
320,0,47271,1,0,0:0:0:0:
448,0,47271,1,0,0:0:0:0:
64,0,47443,128,0,47572:0:0:0:0:
192,0,47486,128,0,47572:0:0:0:0:
320,0,47529,128,0,47572:0:0:0:0:
64,0,47702,128,0,47831:0:0:0:0:
192,0,47745,128,0,47831:0:0:0:0:
320,0,47788,128,0,47831:0:0:0:0:
64,0,47960,1,0,0:0:0:0:
192,0,47960,1,0,0:0:0:0:
320,0,47960,1,0,0:0:0:0:
448,0,48003,1,0,0:0:0:0:
320,0,48046,1,0,0:0:0:0:
192,0,48089,1,0,0:0:0:0:
64,0,48133,1,0,0:0:0:0:
448,0,48176,1,0,0:0:0:0:
320,0,48219,1,0,0:0:0:0:
192,0,48262,1,0,0:0:0:0:
64,0,48305,1,0,0:0:0:0:
192,0,48362,1,0,0:0:0:0:
320,0,48420,1,0,0:0:0:0:
448,0,48477,1,0,0:0:0:0:
320,0,48564,1,0,0:0:0:0:
64,0,48650,1,0,0:0:0:0:
192,0,48650,1,0,0:0:0:0:
320,0,48822,128,0,48937:0:0:0:0:
64,0,48880,1,0,0:0:0:0:
192,0,48937,1,0,0:0:0:0:
320,0,48995,128,0,49110:0:0:0:0:
64,0,49052,1,0,0:0:0:0:
192,0,49110,1,0,0:0:0:0:
320,0,49167,128,0,49282:0:0:0:0:
64,0,49225,1,0,0:0:0:0:
192,0,49282,1,0,0:0:0:0:
448,192,49512,128,0,49555:0:0:0:0:
192,0,49684,1,0,0:0:0:0:
320,0,49684,1,0,0:0:0:0:
448,0,49742,1,0,0:0:0:0:
64,0,49771,1,0,0:0:0:0:
320,0,49799,1,0,0:0:0:0:
192,0,49857,1,0,0:0:0:0:
320,0,49914,1,0,0:0:0:0:
64,0,49943,1,0,0:0:0:0:
448,0,49972,1,0,0:0:0:0:
192,0,50029,1,0,0:0:0:0:
320,0,50029,1,0,0:0:0:0:
192,0,50158,1,0,0:0:0:0:
320,0,50202,1,0,0:0:0:0:
448,0,50245,1,0,0:0:0:0:
64,0,50288,1,0,0:0:0:0:
64,0,50374,1,0,0:0:0:0:
192,0,50460,1,0,0:0:0:0:
192,0,50546,128,0,50719:0:0:0:0:
320,0,50633,1,0,0:0:0:0:
64,0,50719,128,0,51150:0:0:0:0:
320,0,50719,128,0,51021:0:0:0:0:
448,0,50719,128,0,50891:0:0:0:0:
192,0,50891,1,0,0:0:0:0:
448,0,51064,1,0,0:0:0:0:
320,0,51236,1,0,0:0:0:0:
64,0,51293,1,0,0:0:0:0:
192,0,51351,1,0,0:0:0:0:
64,0,51408,1,0,0:0:0:0:
320,0,51408,1,0,0:0:0:0:
448,0,51437,1,0,0:0:0:0:
448,0,51667,1,0,0:0:0:0:
320,0,51696,1,0,0:0:0:0:
192,0,51725,1,0,0:0:0:0:
64,0,51753,1,0,0:0:0:0:
448,0,51782,1,0,0:0:0:0:
320,0,51811,1,0,0:0:0:0:
192,0,51839,1,0,0:0:0:0:
64,0,51868,1,0,0:0:0:0:
448,0,51897,1,0,0:0:0:0:
320,0,51926,1,0,0:0:0:0:
192,0,51954,1,0,0:0:0:0:
64,0,51983,1,0,0:0:0:0:
448,0,52012,1,0,0:0:0:0:
320,0,52041,1,0,0:0:0:0:
192,0,52069,1,0,0:0:0:0:
64,0,52098,128,0,52702:0:0:0:0:
192,0,52443,128,0,52529:0:0:0:0:
320,0,52443,1,0,0:0:0:0:
192,0,52615,128,0,52702:0:0:0:0:
64,0,52788,1,0,0:0:0:0:
192,0,52788,1,0,0:0:0:0:
448,0,52788,1,0,0:0:0:0:
320,0,52960,128,0,53089:0:0:0:0:
192,0,53003,128,0,53089:0:0:0:0:
64,0,53046,128,0,53089:0:0:0:0:
64,0,53305,128,0,53434:0:0:0:0:
192,0,53348,128,0,53434:0:0:0:0:
320,0,53391,128,0,53434:0:0:0:0:
64,0,53477,1,0,0:0:0:0:
192,0,53477,1,0,0:0:0:0:
320,0,53535,1,0,0:0:0:0:
448,0,53564,1,0,0:0:0:0:
64,0,53592,1,0,0:0:0:0:
192,0,53650,1,0,0:0:0:0:
448,0,53707,1,0,0:0:0:0:
320,0,53736,1,0,0:0:0:0:
192,0,53765,1,0,0:0:0:0:
64,0,53822,128,0,53995:0:0:0:0:
320,0,53995,1,0,0:0:0:0:
64,0,54167,1,0,0:0:0:0:
320,0,54167,1,0,0:0:0:0:
192,0,54339,128,0,54454:0:0:0:0:
448,0,54397,1,0,0:0:0:0:
320,0,54454,1,0,0:0:0:0:
192,0,54512,128,0,54684:0:0:0:0:
448,0,54569,1,0,0:0:0:0:
320,0,54627,1,0,0:0:0:0:
448,0,54742,1,0,0:0:0:0:
192,0,54771,128,0,54857:0:0:0:0:
320,0,54799,1,0,0:0:0:0:
64,0,54857,1,0,0:0:0:0:
448,0,54914,1,0,0:0:0:0:
320,0,54972,1,0,0:0:0:0:
192,0,55029,1,0,0:0:0:0:
448,0,55087,1,0,0:0:0:0:
320,0,55144,1,0,0:0:0:0:
64,0,55202,1,0,0:0:0:0:
192,0,55202,1,0,0:0:0:0:
448,0,55259,1,0,0:0:0:0:
320,0,55316,1,0,0:0:0:0:
64,0,55374,1,0,0:0:0:0:
192,0,55431,1,0,0:0:0:0:
448,0,55489,1,0,0:0:0:0:
64,0,55546,1,0,0:0:0:0:
320,0,55546,1,0,0:0:0:0:
192,0,55604,1,0,0:0:0:0:
448,0,55661,1,0,0:0:0:0:
64,0,55719,1,0,0:0:0:0:
192,0,55762,1,0,0:0:0:0:
320,0,55805,1,0,0:0:0:0:
448,0,55848,1,0,0:0:0:0:
64,0,55891,1,0,0:0:0:0:
192,0,55934,1,0,0:0:0:0:
320,0,55977,1,0,0:0:0:0:
448,0,56021,1,0,0:0:0:0:
64,0,56064,1,0,0:0:0:0:
192,0,56107,1,0,0:0:0:0:
320,0,56150,1,0,0:0:0:0:
448,0,56193,1,0,0:0:0:0:
64,0,56236,128,0,56581:0:0:0:0:
192,0,56265,128,0,56495:0:0:0:0:
320,0,56293,128,0,56408:0:0:0:0:
448,0,56408,1,0,0:0:0:0:
320,0,56581,1,0,0:0:0:0:
64,0,56753,1,0,0:0:0:0:
192,0,56839,1,0,0:0:0:0:
320,0,56897,1,0,0:0:0:0:
64,0,56926,1,0,0:0:0:0:
448,0,56926,1,0,0:0:0:0:
320,0,57098,128,0,57271:0:0:0:0:
192,0,57156,1,0,0:0:0:0:
64,0,57213,1,0,0:0:0:0:
192,0,57271,128,0,57615:0:0:0:0:
448,0,57328,1,0,0:0:0:0:
320,0,57385,1,0,0:0:0:0:
64,0,57443,1,0,0:0:0:0:
320,0,57500,1,0,0:0:0:0:
448,0,57558,1,0,0:0:0:0:
64,0,57960,128,0,58003:0:0:0:0:
448,0,57960,1,0,0:0:0:0:
320,0,57982,1,0,0:0:0:0:
192,0,58003,1,0,0:0:0:0:
192,0,58133,128,0,58176:0:0:0:0:
320,0,58154,1,0,0:0:0:0:
448,0,58176,1,0,0:0:0:0:
64,0,58305,1,0,0:0:0:0:
192,0,58305,1,0,0:0:0:0:
320,0,58305,1,0,0:0:0:0:
192,0,58477,128,0,58592:0:0:0:0:
448,0,58535,1,0,0:0:0:0:
320,0,58592,1,0,0:0:0:0:
192,0,58650,128,0,58765:0:0:0:0:
320,0,58707,1,0,0:0:0:0:
448,0,58765,1,0,0:0:0:0:
192,0,58822,128,0,58937:0:0:0:0:
448,0,58880,1,0,0:0:0:0:
320,0,58937,1,0,0:0:0:0:
192,0,58995,1,0,0:0:0:0:
448,0,58995,1,0,0:0:0:0:
320,0,59038,1,0,0:0:0:0:
64,0,59081,1,0,0:0:0:0:
192,0,59124,1,0,0:0:0:0:
320,0,59167,1,0,0:0:0:0:
448,0,59210,1,0,0:0:0:0:
64,0,59253,1,0,0:0:0:0:
192,0,59296,1,0,0:0:0:0:
320,0,59339,1,0,0:0:0:0:
448,0,59397,1,0,0:0:0:0:
320,0,59454,1,0,0:0:0:0:
192,0,59512,1,0,0:0:0:0:
64,0,59598,1,0,0:0:0:0:
320,0,59684,1,0,0:0:0:0:
448,0,59684,1,0,0:0:0:0:
320,0,59857,128,0,59972:0:0:0:0:
192,0,59914,1,0,0:0:0:0:
64,0,59972,1,0,0:0:0:0:
320,0,60029,128,0,60144:0:0:0:0:
64,0,60087,1,0,0:0:0:0:
192,0,60144,1,0,0:0:0:0:
320,0,60202,1,0,0:0:0:0:
320,0,60374,1,0,0:0:0:0:
448,0,60546,128,0,60590:0:0:0:0:
64,0,60719,128,0,60805:0:0:0:0:
192,0,60719,1,0,0:0:0:0:
320,0,60762,1,0,0:0:0:0:
448,0,60805,1,0,0:0:0:0:
64,0,60891,128,0,60977:0:0:0:0:
192,0,60934,1,0,0:0:0:0:
320,0,60977,1,0,0:0:0:0:
64,0,61064,1,0,0:0:0:0:
448,0,61064,1,0,0:0:0:0:
192,0,61193,1,0,0:0:0:0:
320,0,61236,1,0,0:0:0:0:
448,0,61279,1,0,0:0:0:0:
64,0,61322,1,0,0:0:0:0:
64,0,61408,1,0,0:0:0:0:
192,0,61495,1,0,0:0:0:0:
192,0,61581,128,0,61753:0:0:0:0:
320,0,61667,1,0,0:0:0:0:
64,0,61753,128,0,62184:0:0:0:0:
320,0,61753,128,0,62055:0:0:0:0:
448,0,61753,128,0,61926:0:0:0:0:
192,0,61926,128,0,62120:0:0:0:0:
448,0,62098,1,0,0:0:0:0:
320,0,62271,128,0,62314:0:0:0:0:
64,0,62357,1,0,0:0:0:0:
192,0,62400,1,0,0:0:0:0:
64,0,62443,1,0,0:0:0:0:
320,0,62443,1,0,0:0:0:0:
448,0,62472,1,0,0:0:0:0:
192,0,62702,1,0,0:0:0:0:
64,0,62730,1,0,0:0:0:0:
448,0,62759,1,0,0:0:0:0:
320,0,62788,1,0,0:0:0:0:
192,0,62816,1,0,0:0:0:0:
64,0,62845,1,0,0:0:0:0:
448,0,62874,1,0,0:0:0:0:
320,0,62903,1,0,0:0:0:0:
192,0,62931,1,0,0:0:0:0:
64,0,62960,1,0,0:0:0:0:
448,0,62989,1,0,0:0:0:0:
320,0,63018,1,0,0:0:0:0:
192,0,63046,1,0,0:0:0:0:
64,0,63075,1,0,0:0:0:0:
448,0,63104,1,0,0:0:0:0:
320,0,63133,128,0,63736:0:0:0:0:
64,0,63477,1,0,0:0:0:0:
448,0,63477,128,0,63564:0:0:0:0:
448,0,63650,128,0,63736:0:0:0:0:
192,0,63822,1,0,0:0:0:0:
320,0,63822,1,0,0:0:0:0:
448,0,63822,1,0,0:0:0:0:
64,0,63908,1,0,0:0:0:0:
192,0,63952,1,0,0:0:0:0:
320,0,63995,1,0,0:0:0:0:
448,0,64038,1,0,0:0:0:0:
64,0,64081,1,0,0:0:0:0:
192,0,64167,1,0,0:0:0:0:
448,0,64339,1,0,0:0:0:0:
320,0,64383,1,0,0:0:0:0:
192,0,64426,1,0,0:0:0:0:
64,0,64469,1,0,0:0:0:0:
320,0,64512,1,0,0:0:0:0:
448,0,64512,1,0,0:0:0:0:
64,0,64555,1,0,0:0:0:0:
192,0,64598,1,0,0:0:0:0:
320,0,64641,1,0,0:0:0:0:
448,0,64684,1,0,0:0:0:0:
64,0,64727,1,0,0:0:0:0:
192,0,64771,1,0,0:0:0:0:
320,0,64814,1,0,0:0:0:0:
448,0,64857,1,0,0:0:0:0:
320,0,64914,1,0,0:0:0:0:
192,0,64972,1,0,0:0:0:0:
64,0,65029,128,0,65115:0:0:0:0:
192,0,65202,1,0,0:0:0:0:
448,0,65202,1,0,0:0:0:0:
320,0,65374,128,0,65489:0:0:0:0:
64,0,65431,1,0,0:0:0:0:
192,0,65489,1,0,0:0:0:0:
320,0,65546,128,0,65661:0:0:0:0:
64,0,65604,1,0,0:0:0:0:
192,0,65661,1,0,0:0:0:0:
320,0,65719,128,0,65834:0:0:0:0:
64,0,65776,1,0,0:0:0:0:
192,0,65834,1,0,0:0:0:0:
320,0,65891,1,0,0:0:0:0:
448,0,65949,1,0,0:0:0:0:
192,0,66006,1,0,0:0:0:0:
320,0,66064,1,0,0:0:0:0:
448,0,66121,1,0,0:0:0:0:
192,0,66179,1,0,0:0:0:0:
64,0,66236,1,0,0:0:0:0:
320,0,66236,1,0,0:0:0:0:
448,0,66293,1,0,0:0:0:0:
192,0,66351,1,0,0:0:0:0:
64,0,66408,1,0,0:0:0:0:
448,0,66466,1,0,0:0:0:0:
320,0,66523,1,0,0:0:0:0:
64,0,66581,1,0,0:0:0:0:
192,0,66581,1,0,0:0:0:0:
448,0,66624,1,0,0:0:0:0:
320,0,66667,1,0,0:0:0:0:
192,0,66710,1,0,0:0:0:0:
448,0,66753,1,0,0:0:0:0:
320,0,66796,1,0,0:0:0:0:
192,0,66839,1,0,0:0:0:0:
64,0,66883,1,0,0:0:0:0:
320,0,66926,1,0,0:0:0:0:
448,0,66969,1,0,0:0:0:0:
64,0,67012,1,0,0:0:0:0:
192,0,67055,1,0,0:0:0:0:
320,0,67098,1,0,0:0:0:0:
448,0,67141,1,0,0:0:0:0:
64,0,67184,1,0,0:0:0:0:
192,0,67227,1,0,0:0:0:0:
320,0,67271,128,0,67615:0:0:0:0:
448,0,67271,128,0,67702:0:0:0:0:
64,0,67615,1,0,0:0:0:0:
192,0,67702,1,0,0:0:0:0:
320,0,67788,1,0,0:0:0:0:
448,0,67960,1,0,0:0:0:0:
448,0,69167,1,0,0:0:0:0:
64,0,70029,1,0,0:0:0:0:
192,0,70546,1,0,0:0:0:0:
448,0,71926,1,0,0:0:0:0:
320,0,72443,1,0,0:0:0:0:
192,0,72788,1,0,0:0:0:0:
64,0,73305,1,0,0:0:0:0:
320,0,74684,1,0,0:0:0:0:
64,0,75546,1,0,0:0:0:0:
192,0,76064,1,0,0:0:0:0:
192,0,78305,1,0,0:0:0:0:
448,0,78650,1,0,0:0:0:0:
64,0,78908,1,0,0:0:0:0:
448,0,79339,1,0,0:0:0:0:
192,0,79684,1,0,0:0:0:0:
448,0,80029,1,0,0:0:0:0:
64,0,80288,1,0,0:0:0:0:
64,0,80546,1,0,0:0:0:0:
448,0,80719,1,0,0:0:0:0:
192,0,81064,1,0,0:0:0:0:
448,0,81408,1,0,0:0:0:0:
64,0,81667,1,0,0:0:0:0:
448,0,82098,1,0,0:0:0:0:
192,0,82443,1,0,0:0:0:0:
448,0,82788,1,0,0:0:0:0:
64,0,83046,1,0,0:0:0:0:
64,0,83305,1,0,0:0:0:0:
448,0,83477,1,0,0:0:0:0:
192,0,83822,1,0,0:0:0:0:
448,0,84167,1,0,0:0:0:0:
64,0,84426,1,0,0:0:0:0:
448,0,84857,1,0,0:0:0:0:
64,0,85202,1,0,0:0:0:0:
448,0,85546,1,0,0:0:0:0:
64,0,85805,1,0,0:0:0:0:
192,0,86064,1,0,0:0:0:0:
448,0,86236,1,0,0:0:0:0:
64,0,86581,1,0,0:0:0:0:
448,0,86926,1,0,0:0:0:0:
192,0,87184,1,0,0:0:0:0:
448,0,87615,1,0,0:0:0:0:
64,0,87960,1,0,0:0:0:0:
448,0,88305,1,0,0:0:0:0:
64,0,88564,1,0,0:0:0:0:
64,0,89339,1,0,0:0:0:0:
192,0,89339,1,0,0:0:0:0:
320,0,89339,1,0,0:0:0:0:
448,0,89339,1,0,0:0:0:0:
64,0,89684,1,0,0:0:0:0:
192,0,89857,1,0,0:0:0:0:
320,0,89857,1,0,0:0:0:0:
64,0,90029,1,0,0:0:0:0:
64,0,90374,1,0,0:0:0:0:
320,0,90374,1,0,0:0:0:0:
448,0,90374,1,0,0:0:0:0:
64,0,90719,1,0,0:0:0:0:
320,0,90719,1,0,0:0:0:0:
448,0,90719,1,0,0:0:0:0:
64,0,91064,1,0,0:0:0:0:
192,0,91236,1,0,0:0:0:0:
320,0,91236,1,0,0:0:0:0:
64,0,91408,1,0,0:0:0:0:
64,0,91753,1,0,0:0:0:0:
320,0,91753,1,0,0:0:0:0:
448,0,91753,1,0,0:0:0:0:
64,0,92098,1,0,0:0:0:0:
320,0,92098,1,0,0:0:0:0:
448,0,92098,1,0,0:0:0:0:
64,0,92443,1,0,0:0:0:0:
192,0,92615,1,0,0:0:0:0:
320,0,92615,1,0,0:0:0:0:
64,0,92788,1,0,0:0:0:0:
64,0,93133,1,0,0:0:0:0:
320,0,93133,1,0,0:0:0:0:
448,0,93133,1,0,0:0:0:0:
64,0,93477,1,0,0:0:0:0:
320,0,93477,1,0,0:0:0:0:
448,0,93477,1,0,0:0:0:0:
64,0,93822,1,0,0:0:0:0:
192,0,93995,1,0,0:0:0:0:
320,0,93995,1,0,0:0:0:0:
64,0,94167,1,0,0:0:0:0:
64,0,94512,1,0,0:0:0:0:
320,0,94512,1,0,0:0:0:0:
448,0,94512,1,0,0:0:0:0:
64,0,94857,1,0,0:0:0:0:
192,0,94857,1,0,0:0:0:0:
448,0,94857,1,0,0:0:0:0:
64,0,95202,1,0,0:0:0:0:
192,0,95374,1,0,0:0:0:0:
320,0,95374,1,0,0:0:0:0:
64,0,95546,1,0,0:0:0:0:
64,0,95891,1,0,0:0:0:0:
192,0,95891,1,0,0:0:0:0:
448,0,95891,1,0,0:0:0:0:
64,0,96236,1,0,0:0:0:0:
192,0,96236,1,0,0:0:0:0:
448,0,96236,1,0,0:0:0:0:
64,0,96581,1,0,0:0:0:0:
192,0,96753,1,0,0:0:0:0:
320,0,96753,1,0,0:0:0:0:
64,0,96926,1,0,0:0:0:0:
64,0,97271,1,0,0:0:0:0:
192,0,97271,1,0,0:0:0:0:
448,0,97271,1,0,0:0:0:0:
64,0,97615,1,0,0:0:0:0:
192,0,97615,1,0,0:0:0:0:
448,0,97615,1,0,0:0:0:0:
64,0,97960,1,0,0:0:0:0:
192,0,98133,1,0,0:0:0:0:
320,0,98133,1,0,0:0:0:0:
64,0,98305,1,0,0:0:0:0:
64,0,98650,1,0,0:0:0:0:
192,0,98650,1,0,0:0:0:0:
448,0,98650,1,0,0:0:0:0:
64,0,98995,1,0,0:0:0:0:
192,0,98995,1,0,0:0:0:0:
448,0,98995,1,0,0:0:0:0:
64,0,99339,1,0,0:0:0:0:
192,0,99512,1,0,0:0:0:0:
320,0,99512,1,0,0:0:0:0:
64,0,99684,1,0,0:0:0:0:
64,0,100029,1,0,0:0:0:0:
192,0,100029,1,0,0:0:0:0:
448,0,100029,1,0,0:0:0:0:
64,0,100374,1,0,0:0:0:0:
192,0,100374,1,0,0:0:0:0:
320,0,100374,1,0,0:0:0:0:
448,0,100374,1,0,0:0:0:0:
64,0,100546,1,0,0:0:0:0:
320,0,100546,1,0,0:0:0:0:
64,0,100719,1,0,0:0:0:0:
192,0,100719,1,0,0:0:0:0:
448,0,100719,1,0,0:0:0:0:
192,0,100891,1,0,0:0:0:0:
320,0,100891,1,0,0:0:0:0:
64,0,101064,1,0,0:0:0:0:
192,0,101064,1,0,0:0:0:0:
448,0,101064,1,0,0:0:0:0:
64,0,101236,1,0,0:0:0:0:
320,0,101236,1,0,0:0:0:0:
64,0,101408,1,0,0:0:0:0:
192,0,101408,1,0,0:0:0:0:
448,0,101408,1,0,0:0:0:0:
192,0,101581,1,0,0:0:0:0:
320,0,101581,1,0,0:0:0:0:
64,0,101753,1,0,0:0:0:0:
320,0,101753,1,0,0:0:0:0:
448,0,101753,1,0,0:0:0:0:
192,0,101926,1,0,0:0:0:0:
448,0,101926,1,0,0:0:0:0:
64,0,102098,1,0,0:0:0:0:
320,0,102098,1,0,0:0:0:0:
448,0,102098,1,0,0:0:0:0:
192,0,102271,1,0,0:0:0:0:
320,0,102271,1,0,0:0:0:0:
64,0,102443,1,0,0:0:0:0:
320,0,102443,1,0,0:0:0:0:
448,0,102443,1,0,0:0:0:0:
192,0,102615,1,0,0:0:0:0:
448,0,102615,1,0,0:0:0:0:
64,0,102788,1,0,0:0:0:0:
320,0,102788,1,0,0:0:0:0:
448,0,102788,1,0,0:0:0:0:
192,0,102960,1,0,0:0:0:0:
320,0,102960,1,0,0:0:0:0:
64,0,103133,1,0,0:0:0:0:
192,0,103133,1,0,0:0:0:0:
448,0,103133,1,0,0:0:0:0:
64,0,103305,1,0,0:0:0:0:
320,0,103305,1,0,0:0:0:0:
64,0,103477,1,0,0:0:0:0:
192,0,103477,1,0,0:0:0:0:
448,0,103477,1,0,0:0:0:0:
192,0,103650,1,0,0:0:0:0:
320,0,103650,1,0,0:0:0:0:
64,0,103822,1,0,0:0:0:0:
192,0,103822,1,0,0:0:0:0:
448,0,103822,1,0,0:0:0:0:
64,0,103995,1,0,0:0:0:0:
320,0,103995,1,0,0:0:0:0:
64,0,104167,1,0,0:0:0:0:
192,0,104167,1,0,0:0:0:0:
448,0,104167,1,0,0:0:0:0:
192,0,104339,1,0,0:0:0:0:
320,0,104339,1,0,0:0:0:0:
64,0,104512,1,0,0:0:0:0:
320,0,104512,1,0,0:0:0:0:
448,0,104512,1,0,0:0:0:0:
192,0,104684,1,0,0:0:0:0:
448,0,104684,1,0,0:0:0:0:
64,0,104857,1,0,0:0:0:0:
320,0,104857,1,0,0:0:0:0:
448,0,104857,1,0,0:0:0:0:
192,0,105029,1,0,0:0:0:0:
320,0,105029,1,0,0:0:0:0:
64,0,105202,1,0,0:0:0:0:
320,0,105202,1,0,0:0:0:0:
448,0,105202,1,0,0:0:0:0:
192,0,105374,1,0,0:0:0:0:
448,0,105374,1,0,0:0:0:0:
64,0,105546,1,0,0:0:0:0:
320,0,105546,1,0,0:0:0:0:
448,0,105546,1,0,0:0:0:0:
192,0,105719,1,0,0:0:0:0:
320,0,105719,1,0,0:0:0:0:
64,0,105891,1,0,0:0:0:0:
192,0,105891,1,0,0:0:0:0:
448,0,105977,1,0,0:0:0:0:
64,0,106064,1,0,0:0:0:0:
448,0,106150,1,0,0:0:0:0:
64,0,106236,1,0,0:0:0:0:
192,0,106236,1,0,0:0:0:0:
448,0,106322,1,0,0:0:0:0:
192,0,106408,1,0,0:0:0:0:
448,0,106495,1,0,0:0:0:0:
64,0,106581,1,0,0:0:0:0:
192,0,106581,1,0,0:0:0:0:
320,0,106667,1,0,0:0:0:0:
64,0,106753,1,0,0:0:0:0:
320,0,106839,1,0,0:0:0:0:
64,0,106926,1,0,0:0:0:0:
192,0,106926,1,0,0:0:0:0:
320,0,107012,1,0,0:0:0:0:
192,0,107098,1,0,0:0:0:0:
320,0,107184,1,0,0:0:0:0:
64,0,107271,1,0,0:0:0:0:
192,0,107271,1,0,0:0:0:0:
448,0,107357,1,0,0:0:0:0:
64,0,107443,1,0,0:0:0:0:
448,0,107529,1,0,0:0:0:0:
64,0,107615,1,0,0:0:0:0:
192,0,107615,1,0,0:0:0:0:
448,0,107702,1,0,0:0:0:0:
192,0,107788,1,0,0:0:0:0:
448,0,107874,1,0,0:0:0:0:
64,0,107960,1,0,0:0:0:0:
192,0,107960,1,0,0:0:0:0:
320,0,108046,1,0,0:0:0:0:
64,0,108133,1,0,0:0:0:0:
320,0,108219,1,0,0:0:0:0:
64,0,108305,1,0,0:0:0:0:
192,0,108305,1,0,0:0:0:0:
320,0,108391,1,0,0:0:0:0:
192,0,108477,1,0,0:0:0:0:
320,0,108564,1,0,0:0:0:0:
64,0,108650,1,0,0:0:0:0:
192,0,108736,1,0,0:0:0:0:
64,0,108822,1,0,0:0:0:0:
192,0,108908,1,0,0:0:0:0:
64,0,108995,1,0,0:0:0:0:
448,0,109167,1,0,0:0:0:0:
320,0,109253,1,0,0:0:0:0:
448,0,109339,1,0,0:0:0:0:
320,0,109426,1,0,0:0:0:0:
448,0,109512,1,0,0:0:0:0:
64,0,109684,1,0,0:0:0:0:
192,0,109771,1,0,0:0:0:0:
64,0,109857,1,0,0:0:0:0:
192,0,109943,1,0,0:0:0:0:
64,0,110029,1,0,0:0:0:0:
448,0,110202,1,0,0:0:0:0:
320,0,110288,1,0,0:0:0:0:
448,0,110374,1,0,0:0:0:0:
320,0,110460,1,0,0:0:0:0:
448,0,110546,1,0,0:0:0:0:
64,0,110719,1,0,0:0:0:0:
448,0,110719,128,0,110977:0:0:0:0:
192,0,110805,1,0,0:0:0:0:
320,0,110805,1,0,0:0:0:0:
64,0,110891,1,0,0:0:0:0:
192,0,110977,1,0,0:0:0:0:
320,0,110977,1,0,0:0:0:0:
448,0,111064,1,0,0:0:0:0:
448,0,111150,1,0,0:0:0:0:
320,0,111236,1,0,0:0:0:0:
320,0,111322,1,0,0:0:0:0:
64,0,111408,1,0,0:0:0:0:
192,0,111408,1,0,0:0:0:0:
448,0,111408,1,0,0:0:0:0:
320,0,111452,1,0,0:0:0:0:
192,0,111495,1,0,0:0:0:0:
320,0,111538,1,0,0:0:0:0:
64,0,111581,1,0,0:0:0:0:
192,0,111624,1,0,0:0:0:0:
320,0,111667,1,0,0:0:0:0:
448,0,111710,1,0,0:0:0:0:
64,0,111753,1,0,0:0:0:0:
192,0,111753,1,0,0:0:0:0:
320,0,111926,1,0,0:0:0:0:
320,0,112012,1,0,0:0:0:0:
448,0,112012,1,0,0:0:0:0:
192,0,112055,1,0,0:0:0:0:
64,0,112098,1,0,0:0:0:0:
320,0,112184,1,0,0:0:0:0:
64,0,112271,1,0,0:0:0:0:
192,0,112314,1,0,0:0:0:0:
320,0,112357,1,0,0:0:0:0:
64,0,112443,1,0,0:0:0:0:
448,0,112443,1,0,0:0:0:0:
192,0,112615,1,0,0:0:0:0:
320,0,112788,1,0,0:0:0:0:
448,0,112788,1,0,0:0:0:0:
192,0,112816,1,0,0:0:0:0:
64,0,112845,1,0,0:0:0:0:
448,0,112874,1,0,0:0:0:0:
320,0,112917,1,0,0:0:0:0:
192,0,112960,1,0,0:0:0:0:
64,0,113018,1,0,0:0:0:0:
448,0,113075,1,0,0:0:0:0:
192,0,113133,1,0,0:0:0:0:
320,0,113133,1,0,0:0:0:0:
64,0,113176,1,0,0:0:0:0:
192,0,113219,1,0,0:0:0:0:
320,0,113262,1,0,0:0:0:0:
448,0,113305,1,0,0:0:0:0:
192,0,113348,1,0,0:0:0:0:
64,0,113391,1,0,0:0:0:0:
320,0,113391,1,0,0:0:0:0:
448,0,113434,1,0,0:0:0:0:
192,0,113477,1,0,0:0:0:0:
64,0,113535,1,0,0:0:0:0:
320,0,113592,1,0,0:0:0:0:
192,0,113650,1,0,0:0:0:0:
448,0,113650,1,0,0:0:0:0:
64,0,113736,1,0,0:0:0:0:
320,0,113822,1,0,0:0:0:0:
448,0,113822,1,0,0:0:0:0:
64,0,113865,1,0,0:0:0:0:
192,0,113908,1,0,0:0:0:0:
320,0,113952,1,0,0:0:0:0:
448,0,113995,1,0,0:0:0:0:
192,0,114081,1,0,0:0:0:0:
64,0,114167,1,0,0:0:0:0:
320,0,114167,1,0,0:0:0:0:
192,0,114210,1,0,0:0:0:0:
192,0,114339,1,0,0:0:0:0:
320,0,114383,1,0,0:0:0:0:
192,0,114512,1,0,0:0:0:0:
448,0,114512,1,0,0:0:0:0:
64,0,114684,1,0,0:0:0:0:
64,0,114771,1,0,0:0:0:0:
192,0,114771,1,0,0:0:0:0:
320,0,114814,1,0,0:0:0:0:
448,0,114857,1,0,0:0:0:0:
192,0,114943,1,0,0:0:0:0:
448,0,115029,1,0,0:0:0:0:
320,0,115072,1,0,0:0:0:0:
192,0,115115,1,0,0:0:0:0:
64,0,115202,1,0,0:0:0:0:
448,0,115202,1,0,0:0:0:0:
320,0,115245,1,0,0:0:0:0:
192,0,115288,1,0,0:0:0:0:
64,0,115331,1,0,0:0:0:0:
448,0,115374,1,0,0:0:0:0:
320,0,115417,1,0,0:0:0:0:
192,0,115460,1,0,0:0:0:0:
64,0,115503,1,0,0:0:0:0:
320,0,115546,128,0,115661:0:0:0:0:
448,0,115546,1,0,0:0:0:0:
192,0,115604,1,0,0:0:0:0:
64,0,115661,1,0,0:0:0:0:
320,0,115719,128,0,115834:0:0:0:0:
192,0,115776,1,0,0:0:0:0:
64,0,115834,1,0,0:0:0:0:
192,0,115891,1,0,0:0:0:0:
448,0,115891,1,0,0:0:0:0:
320,0,115934,1,0,0:0:0:0:
64,0,115977,1,0,0:0:0:0:
192,0,116021,1,0,0:0:0:0:
320,0,116064,1,0,0:0:0:0:
64,0,116150,1,0,0:0:0:0:
448,0,116150,1,0,0:0:0:0:
64,0,116236,1,0,0:0:0:0:
192,0,116322,1,0,0:0:0:0:
64,0,116408,1,0,0:0:0:0:
320,0,116408,1,0,0:0:0:0:
448,0,116495,1,0,0:0:0:0:
64,0,116581,128,0,116667:0:0:0:0:
192,0,116581,128,0,116753:0:0:0:0:
320,0,116581,128,0,116839:0:0:0:0:
448,0,116581,128,0,116926:0:0:0:0:
64,0,116926,1,0,0:0:0:0:
192,0,116926,1,0,0:0:0:0:
320,0,116969,1,0,0:0:0:0:
448,0,117012,1,0,0:0:0:0:
320,0,117055,1,0,0:0:0:0:
192,0,117098,1,0,0:0:0:0:
64,0,117141,1,0,0:0:0:0:
448,0,117184,1,0,0:0:0:0:
320,0,117227,1,0,0:0:0:0:
64,0,117271,1,0,0:0:0:0:
192,0,117271,1,0,0:0:0:0:
448,0,117443,1,0,0:0:0:0:
64,0,117529,1,0,0:0:0:0:
448,0,117529,1,0,0:0:0:0:
320,0,117572,1,0,0:0:0:0:
192,0,117615,1,0,0:0:0:0:
448,0,117702,1,0,0:0:0:0:
320,0,117788,1,0,0:0:0:0:
192,0,117831,1,0,0:0:0:0:
64,0,117874,1,0,0:0:0:0:
192,0,117960,1,0,0:0:0:0:
320,0,117960,1,0,0:0:0:0:
320,0,118133,1,0,0:0:0:0:
320,0,118305,1,0,0:0:0:0:
448,0,118305,1,0,0:0:0:0:
64,0,118334,1,0,0:0:0:0:
192,0,118362,1,0,0:0:0:0:
448,0,118391,1,0,0:0:0:0:
320,0,118434,1,0,0:0:0:0:
64,0,118477,1,0,0:0:0:0:
192,0,118535,1,0,0:0:0:0:
320,0,118592,1,0,0:0:0:0:
64,0,118650,1,0,0:0:0:0:
448,0,118650,1,0,0:0:0:0:
320,0,118693,1,0,0:0:0:0:
192,0,118736,1,0,0:0:0:0:
64,0,118779,1,0,0:0:0:0:
320,0,118822,1,0,0:0:0:0:
192,0,118865,1,0,0:0:0:0:
64,0,118908,1,0,0:0:0:0:
448,0,118908,1,0,0:0:0:0:
320,0,118952,1,0,0:0:0:0:
192,0,118995,1,0,0:0:0:0:
320,0,119052,1,0,0:0:0:0:
192,0,119110,1,0,0:0:0:0:
64,0,119167,1,0,0:0:0:0:
448,0,119167,1,0,0:0:0:0:
192,0,119253,1,0,0:0:0:0:
320,0,119339,1,0,0:0:0:0:
448,0,119339,1,0,0:0:0:0:
192,0,119383,1,0,0:0:0:0:
64,0,119426,1,0,0:0:0:0:
448,0,119469,1,0,0:0:0:0:
320,0,119512,1,0,0:0:0:0:
192,0,119598,1,0,0:0:0:0:
64,0,119684,1,0,0:0:0:0:
448,0,119684,1,0,0:0:0:0:
320,0,119771,1,0,0:0:0:0:
64,0,119814,1,0,0:0:0:0:
192,0,119857,1,0,0:0:0:0:
448,0,119900,1,0,0:0:0:0:
320,0,119943,1,0,0:0:0:0:
192,0,120029,1,0,0:0:0:0:
448,0,120029,1,0,0:0:0:0:
192,0,120115,1,0,0:0:0:0:
320,0,120202,1,0,0:0:0:0:
64,0,120288,1,0,0:0:0:0:
448,0,120288,1,0,0:0:0:0:
192,0,120331,1,0,0:0:0:0:
320,0,120374,1,0,0:0:0:0:
448,0,120460,128,0,120676:0:0:0:0:
320,0,120546,1,0,0:0:0:0:
192,0,120633,1,0,0:0:0:0:
64,0,120719,1,0,0:0:0:0:
320,0,120719,1,0,0:0:0:0:
448,0,120762,1,0,0:0:0:0:
64,0,120891,1,0,0:0:0:0:
192,0,120949,1,0,0:0:0:0:
320,0,121006,1,0,0:0:0:0:
64,0,121064,1,0,0:0:0:0:
448,0,121064,1,0,0:0:0:0:
320,0,121121,1,0,0:0:0:0:
192,0,121179,1,0,0:0:0:0:
64,0,121236,1,0,0:0:0:0:
192,0,121293,1,0,0:0:0:0:
320,0,121351,1,0,0:0:0:0:
64,0,121408,1,0,0:0:0:0:
448,0,121408,1,0,0:0:0:0:
192,0,121495,1,0,0:0:0:0:
192,0,121581,1,0,0:0:0:0:
192,0,121667,1,0,0:0:0:0:
320,0,121667,1,0,0:0:0:0:
448,0,121753,1,0,0:0:0:0:
320,0,121811,1,0,0:0:0:0:
192,0,121868,1,0,0:0:0:0:
64,0,121926,1,0,0:0:0:0:
448,0,121926,1,0,0:0:0:0:
192,0,121983,1,0,0:0:0:0:
320,0,122041,1,0,0:0:0:0:
64,0,122098,1,0,0:0:0:0:
448,0,122098,1,0,0:0:0:0:
448,0,122184,1,0,0:0:0:0:
192,0,122271,1,0,0:0:0:0:
192,0,122357,1,0,0:0:0:0:
64,0,122443,1,0,0:0:0:0:
320,0,122443,1,0,0:0:0:0:
448,0,122443,1,0,0:0:0:0:
192,0,122486,1,0,0:0:0:0:
320,0,122529,1,0,0:0:0:0:
192,0,122572,1,0,0:0:0:0:
448,0,122615,1,0,0:0:0:0:
320,0,122658,1,0,0:0:0:0:
192,0,122702,1,0,0:0:0:0:
64,0,122745,1,0,0:0:0:0:
320,0,122788,1,0,0:0:0:0:
448,0,122788,1,0,0:0:0:0:
64,0,122960,1,0,0:0:0:0:
64,0,123046,1,0,0:0:0:0:
448,0,123046,1,0,0:0:0:0:
192,0,123089,1,0,0:0:0:0:
320,0,123133,1,0,0:0:0:0:
64,0,123219,1,0,0:0:0:0:
192,0,123305,1,0,0:0:0:0:
320,0,123348,1,0,0:0:0:0:
448,0,123391,1,0,0:0:0:0:
64,0,123477,1,0,0:0:0:0:
192,0,123477,1,0,0:0:0:0:
320,0,123650,1,0,0:0:0:0:
192,0,123822,1,0,0:0:0:0:
448,0,123822,1,0,0:0:0:0:
320,0,123851,1,0,0:0:0:0:
64,0,123880,1,0,0:0:0:0:
192,0,123908,1,0,0:0:0:0:
448,0,123952,1,0,0:0:0:0:
320,0,123995,1,0,0:0:0:0:
64,0,124052,1,0,0:0:0:0:
192,0,124110,1,0,0:0:0:0:
320,0,124167,1,0,0:0:0:0:
448,0,124167,1,0,0:0:0:0:
64,0,124210,1,0,0:0:0:0:
192,0,124253,1,0,0:0:0:0:
448,0,124296,1,0,0:0:0:0:
320,0,124339,1,0,0:0:0:0:
64,0,124383,1,0,0:0:0:0:
192,0,124426,1,0,0:0:0:0:
448,0,124426,1,0,0:0:0:0:
320,0,124469,1,0,0:0:0:0:
64,0,124512,1,0,0:0:0:0:
192,0,124569,1,0,0:0:0:0:
448,0,124627,1,0,0:0:0:0:
64,0,124684,1,0,0:0:0:0:
320,0,124684,1,0,0:0:0:0:
192,0,124771,1,0,0:0:0:0:
320,0,124857,1,0,0:0:0:0:
448,0,124857,1,0,0:0:0:0:
64,0,124900,1,0,0:0:0:0:
192,0,124943,1,0,0:0:0:0:
320,0,124986,1,0,0:0:0:0:
448,0,125029,1,0,0:0:0:0:
64,0,125115,1,0,0:0:0:0:
192,0,125202,1,0,0:0:0:0:
320,0,125202,1,0,0:0:0:0:
448,0,125245,1,0,0:0:0:0:
448,0,125374,1,0,0:0:0:0:
320,0,125417,1,0,0:0:0:0:
64,0,125546,1,0,0:0:0:0:
192,0,125546,1,0,0:0:0:0:
448,0,125719,1,0,0:0:0:0:
192,0,125805,1,0,0:0:0:0:
448,0,125805,1,0,0:0:0:0:
320,0,125848,1,0,0:0:0:0:
64,0,125891,1,0,0:0:0:0:
64,0,126064,1,0,0:0:0:0:
320,0,126107,1,0,0:0:0:0:
192,0,126150,1,0,0:0:0:0:
320,0,126236,1,0,0:0:0:0:
448,0,126236,1,0,0:0:0:0:
192,0,126279,1,0,0:0:0:0:
64,0,126322,1,0,0:0:0:0:
320,0,126365,1,0,0:0:0:0:
448,0,126408,1,0,0:0:0:0:
64,0,126452,1,0,0:0:0:0:
192,0,126495,1,0,0:0:0:0:
320,0,126538,1,0,0:0:0:0:
64,0,126581,128,0,126696:0:0:0:0:
448,0,126581,1,0,0:0:0:0:
320,0,126638,1,0,0:0:0:0:
192,0,126696,1,0,0:0:0:0:
64,0,126753,128,0,126868:0:0:0:0:
320,0,126811,1,0,0:0:0:0:
192,0,126868,1,0,0:0:0:0:
320,0,126926,1,0,0:0:0:0:
448,0,126926,1,0,0:0:0:0:
64,0,126969,1,0,0:0:0:0:
192,0,127012,1,0,0:0:0:0:
320,0,127055,1,0,0:0:0:0:
64,0,127098,1,0,0:0:0:0:
192,0,127184,1,0,0:0:0:0:
448,0,127184,1,0,0:0:0:0:
448,0,127271,1,0,0:0:0:0:
320,0,127357,1,0,0:0:0:0:
64,0,127443,1,0,0:0:0:0:
192,0,127443,1,0,0:0:0:0:
320,0,127529,1,0,0:0:0:0:
192,0,127615,128,0,127874:0:0:0:0:
320,0,127615,128,0,127788:0:0:0:0:
448,0,127615,128,0,127702:0:0:0:0:
64,0,127615,128,0,127960:0:0:0:0:
320,0,127960,1,0,0:0:0:0:
448,0,127960,1,0,0:0:0:0:
192,0,128003,1,0,0:0:0:0:
64,0,128046,1,0,0:0:0:0:
192,0,128089,1,0,0:0:0:0:
320,0,128133,1,0,0:0:0:0:
448,0,128176,1,0,0:0:0:0:
64,0,128219,1,0,0:0:0:0:
192,0,128262,1,0,0:0:0:0:
320,0,128305,1,0,0:0:0:0:
448,0,128305,1,0,0:0:0:0:
192,0,128477,1,0,0:0:0:0:
64,0,128564,1,0,0:0:0:0:
192,0,128564,1,0,0:0:0:0:
448,0,128607,1,0,0:0:0:0:
320,0,128650,1,0,0:0:0:0:
192,0,128736,1,0,0:0:0:0:
320,0,128822,1,0,0:0:0:0:
448,0,128865,1,0,0:0:0:0:
192,0,128908,1,0,0:0:0:0:
64,0,128995,1,0,0:0:0:0:
320,0,128995,1,0,0:0:0:0:
320,0,129167,1,0,0:0:0:0:
64,0,129339,1,0,0:0:0:0:
192,0,129339,1,0,0:0:0:0:
448,0,129368,1,0,0:0:0:0:
320,0,129397,1,0,0:0:0:0:
64,0,129426,1,0,0:0:0:0:
192,0,129469,1,0,0:0:0:0:
448,0,129512,1,0,0:0:0:0:
320,0,129569,1,0,0:0:0:0:
192,0,129627,1,0,0:0:0:0:
64,0,129684,1,0,0:0:0:0:
448,0,129684,1,0,0:0:0:0:
320,0,129727,1,0,0:0:0:0:
192,0,129771,1,0,0:0:0:0:
448,0,129814,1,0,0:0:0:0:
64,0,129857,1,0,0:0:0:0:
320,0,129900,1,0,0:0:0:0:
192,0,129943,1,0,0:0:0:0:
448,0,129943,1,0,0:0:0:0:
64,0,129986,1,0,0:0:0:0:
320,0,130029,1,0,0:0:0:0:
192,0,130087,1,0,0:0:0:0:
320,0,130144,1,0,0:0:0:0:
64,0,130202,1,0,0:0:0:0:
448,0,130202,1,0,0:0:0:0:
192,0,130288,1,0,0:0:0:0:
320,0,130374,1,0,0:0:0:0:
448,0,130374,1,0,0:0:0:0:
64,0,130417,1,0,0:0:0:0:
192,0,130460,1,0,0:0:0:0:
448,0,130503,1,0,0:0:0:0:
320,0,130546,1,0,0:0:0:0:
192,0,130633,1,0,0:0:0:0:
64,0,130719,1,0,0:0:0:0:
448,0,130719,1,0,0:0:0:0:
320,0,130805,1,0,0:0:0:0:
192,0,130848,1,0,0:0:0:0:
448,0,130891,1,0,0:0:0:0:
64,0,130934,1,0,0:0:0:0:
192,0,130977,1,0,0:0:0:0:
320,0,131064,1,0,0:0:0:0:
448,0,131064,1,0,0:0:0:0:
192,0,131150,1,0,0:0:0:0:
320,0,131236,1,0,0:0:0:0:
64,0,131322,1,0,0:0:0:0:
192,0,131322,1,0,0:0:0:0:
448,192,131322,1,0,0:0:0:0:
192,0,131408,1,0,0:0:0:0:
320,0,131408,1,0,0:0:0:0:
448,0,131408,1,0,0:0:0:0:
64,0,131581,1,0,0:0:0:0:
192,0,131581,1,0,0:0:0:0:
448,0,131581,1,0,0:0:0:0:
192,0,131753,1,0,0:0:0:0:
320,0,131753,1,0,0:0:0:0:
448,0,131753,1,0,0:0:0:0:
64,0,131926,128,0,132012:0:0:0:0:
192,0,131926,128,0,132012:0:0:0:0:
320,0,131926,128,0,132012:0:0:0:0:
448,0,131926,128,0,132012:0:0:0:0:
192,0,132098,128,0,132184:0:0:0:0:
320,0,132098,128,0,132184:0:0:0:0:
448,0,132098,128,0,132184:0:0:0:0:
320,0,132271,128,0,132357:0:0:0:0:
448,0,132271,128,0,132357:0:0:0:0:
64,0,132443,1,0,0:0:0:0:
448,0,132443,128,0,132529:0:0:0:0:
64,0,132615,1,0,0:0:0:0:
192,0,132615,1,0,0:0:0:0:
64,0,132788,1,0,0:0:0:0:
192,0,132788,1,0,0:0:0:0:
320,0,132788,1,0,0:0:0:0:
64,0,132960,1,0,0:0:0:0:
192,0,132960,1,0,0:0:0:0:
320,0,132960,1,0,0:0:0:0:
448,0,132960,1,0,0:0:0:0:
64,0,133133,1,0,0:0:0:0:
448,0,133133,1,0,0:0:0:0:
192,0,133219,1,0,0:0:0:0:
320,0,133305,1,0,0:0:0:0:
192,0,133391,1,0,0:0:0:0:
64,0,133477,1,0,0:0:0:0:
320,0,133477,1,0,0:0:0:0:
448,0,133477,1,0,0:0:0:0:
192,0,133521,1,0,0:0:0:0:
448,0,133564,1,0,0:0:0:0:
320,0,133607,1,0,0:0:0:0:
192,0,133650,1,0,0:0:0:0:
64,0,133693,1,0,0:0:0:0:
320,0,133736,1,0,0:0:0:0:
192,0,133779,1,0,0:0:0:0:
320,0,133822,1,0,0:0:0:0:
448,0,133822,1,0,0:0:0:0:
448,0,133995,1,0,0:0:0:0:
64,0,134081,1,0,0:0:0:0:
320,0,134081,1,0,0:0:0:0:
64,0,134167,1,0,0:0:0:0:
192,0,134253,1,0,0:0:0:0:
320,0,134282,1,0,0:0:0:0:
448,0,134339,1,0,0:0:0:0:
320,0,134426,1,0,0:0:0:0:
192,0,134512,1,0,0:0:0:0:
64,0,134512,128,0,134857:0:0:0:0:
320,0,134598,1,0,0:0:0:0:
192,0,134684,1,0,0:0:0:0:
320,0,134771,1,0,0:0:0:0:
192,0,134857,1,0,0:0:0:0:
448,0,134857,1,0,0:0:0:0:
192,0,135029,1,0,0:0:0:0:
320,0,135072,1,0,0:0:0:0:
64,0,135115,1,0,0:0:0:0:
192,0,135158,1,0,0:0:0:0:
320,0,135202,1,0,0:0:0:0:
448,0,135202,1,0,0:0:0:0:
192,0,135288,1,0,0:0:0:0:
320,0,135331,1,0,0:0:0:0:
64,0,135374,1,0,0:0:0:0:
192,0,135417,1,0,0:0:0:0:
320,0,135460,1,0,0:0:0:0:
448,0,135460,1,0,0:0:0:0:
192,0,135546,1,0,0:0:0:0:
320,0,135589,1,0,0:0:0:0:
64,0,135633,1,0,0:0:0:0:
192,0,135676,1,0,0:0:0:0:
320,0,135719,1,0,0:0:0:0:
448,0,135719,1,0,0:0:0:0:
192,0,135805,1,0,0:0:0:0:
320,0,135848,1,0,0:0:0:0:
64,0,135891,128,0,136193:0:0:0:0:
448,0,135891,1,0,0:0:0:0:
192,0,135977,128,0,136193:0:0:0:0:
320,0,136064,128,0,136193:0:0:0:0:
448,0,136150,128,0,136193:0:0:0:0:
64,0,136236,128,0,136466:0:0:0:0:
192,0,136236,128,0,136408:0:0:0:0:
320,0,136236,128,0,136351:0:0:0:0:
448,0,136236,128,0,136293:0:0:0:0:
320,0,136581,1,0,0:0:0:0:
448,0,136581,1,0,0:0:0:0:
192,0,136753,1,0,0:0:0:0:
192,0,136839,1,0,0:0:0:0:
320,0,136839,1,0,0:0:0:0:
448,0,136926,1,0,0:0:0:0:
320,0,136954,1,0,0:0:0:0:
192,0,136983,1,0,0:0:0:0:
64,0,137012,1,0,0:0:0:0:
320,0,137098,1,0,0:0:0:0:
64,0,137184,1,0,0:0:0:0:
64,0,137271,1,0,0:0:0:0:
192,0,137271,1,0,0:0:0:0:
320,0,137314,1,0,0:0:0:0:
448,0,137357,1,0,0:0:0:0:
192,0,137400,1,0,0:0:0:0:
64,0,137443,1,0,0:0:0:0:
320,0,137529,1,0,0:0:0:0:
192,0,137615,1,0,0:0:0:0:
448,0,137615,1,0,0:0:0:0:
320,0,137788,128,0,137960:0:0:0:0:
64,0,137960,1,0,0:0:0:0:
192,0,137960,1,0,0:0:0:0:
448,0,138003,1,0,0:0:0:0:
320,0,138046,1,0,0:0:0:0:
192,0,138089,1,0,0:0:0:0:
448,0,138133,1,0,0:0:0:0:
64,0,138219,1,0,0:0:0:0:
320,0,138219,1,0,0:0:0:0:
192,0,138262,1,0,0:0:0:0:
448,0,138305,1,0,0:0:0:0:
320,0,138348,1,0,0:0:0:0:
192,0,138391,1,0,0:0:0:0:
64,0,138477,1,0,0:0:0:0:
448,0,138477,128,0,138564:0:0:0:0:
192,0,138564,1,0,0:0:0:0:
64,0,138650,128,0,138736:0:0:0:0:
320,0,138650,1,0,0:0:0:0:
448,0,138736,1,0,0:0:0:0:
192,0,138822,128,0,138908:0:0:0:0:
448,0,138908,1,0,0:0:0:0:
64,0,138995,1,0,0:0:0:0:
192,0,138995,1,0,0:0:0:0:
320,0,138995,1,0,0:0:0:0:
448,0,139038,1,0,0:0:0:0:
320,0,139081,1,0,0:0:0:0:
64,0,139124,1,0,0:0:0:0:
192,0,139167,1,0,0:0:0:0:
448,0,139210,1,0,0:0:0:0:
320,0,139253,1,0,0:0:0:0:
64,0,139296,1,0,0:0:0:0:
192,0,139339,1,0,0:0:0:0:
448,0,139339,1,0,0:0:0:0:
320,0,139512,1,0,0:0:0:0:
64,0,139598,1,0,0:0:0:0:
192,0,139598,1,0,0:0:0:0:
64,0,139684,1,0,0:0:0:0:
192,0,139771,1,0,0:0:0:0:
320,0,139799,1,0,0:0:0:0:
64,0,139857,1,0,0:0:0:0:
192,0,139943,1,0,0:0:0:0:
320,0,140029,1,0,0:0:0:0:
448,0,140029,128,0,140374:0:0:0:0:
192,0,140115,1,0,0:0:0:0:
320,0,140202,1,0,0:0:0:0:
192,0,140288,1,0,0:0:0:0:
64,0,140374,1,0,0:0:0:0:
320,0,140374,1,0,0:0:0:0:
192,0,140546,128,0,140719:0:0:0:0:
320,0,140719,1,0,0:0:0:0:
448,0,140719,1,0,0:0:0:0:
64,0,140762,1,0,0:0:0:0:
192,0,140805,1,0,0:0:0:0:
320,0,140848,1,0,0:0:0:0:
448,0,140891,1,0,0:0:0:0:
192,0,140977,1,0,0:0:0:0:
320,0,140977,1,0,0:0:0:0:
448,0,141064,1,0,0:0:0:0:
64,0,141107,1,0,0:0:0:0:
192,0,141150,1,0,0:0:0:0:
320,0,141193,1,0,0:0:0:0:
64,0,141236,1,0,0:0:0:0:
448,0,141236,1,0,0:0:0:0:
320,0,141322,1,0,0:0:0:0:
192,0,141408,1,0,0:0:0:0:
448,0,141408,128,0,141710:0:0:0:0:
320,0,141495,128,0,141710:0:0:0:0:
64,0,141581,128,0,141710:0:0:0:0:
192,0,141667,128,0,141710:0:0:0:0:
64,0,141753,128,0,141983:0:0:0:0:
192,0,141753,128,0,141926:0:0:0:0:
320,0,141753,128,0,141811:0:0:0:0:
448,0,141753,128,0,141868:0:0:0:0:
320,0,142098,1,0,0:0:0:0:
448,0,142098,1,0,0:0:0:0:
192,0,142271,1,0,0:0:0:0:
192,0,142357,1,0,0:0:0:0:
320,0,142357,1,0,0:0:0:0:
64,0,142443,1,0,0:0:0:0:
320,0,142472,1,0,0:0:0:0:
192,0,142500,1,0,0:0:0:0:
448,0,142529,1,0,0:0:0:0:
64,0,142615,1,0,0:0:0:0:
320,0,142702,1,0,0:0:0:0:
192,0,142788,1,0,0:0:0:0:
448,0,142788,128,0,142960:0:0:0:0:
320,0,142874,1,0,0:0:0:0:
64,0,142960,1,0,0:0:0:0:
192,0,143003,1,0,0:0:0:0:
320,0,143046,1,0,0:0:0:0:
448,0,143089,1,0,0:0:0:0:
64,0,143133,1,0,0:0:0:0:
192,0,143176,1,0,0:0:0:0:
448,0,143219,1,0,0:0:0:0:
320,0,143262,1,0,0:0:0:0:
64,0,143305,1,0,0:0:0:0:
448,0,143348,1,0,0:0:0:0:
320,0,143391,1,0,0:0:0:0:
192,0,143434,1,0,0:0:0:0:
64,0,143477,1,0,0:0:0:0:
320,0,143521,1,0,0:0:0:0:
448,0,143564,1,0,0:0:0:0:
192,0,143607,1,0,0:0:0:0:
320,0,143650,1,0,0:0:0:0:
64,0,143693,1,0,0:0:0:0:
192,0,143736,1,0,0:0:0:0:
448,0,143779,1,0,0:0:0:0:
320,0,143822,1,0,0:0:0:0:
64,0,143865,1,0,0:0:0:0:
192,0,143908,1,0,0:0:0:0:
448,0,143952,1,0,0:0:0:0:
320,0,143995,1,0,0:0:0:0:
64,0,144038,1,0,0:0:0:0:
192,0,144081,1,0,0:0:0:0:
448,0,144124,1,0,0:0:0:0:
320,0,144167,1,0,0:0:0:0:
64,0,144196,1,0,0:0:0:0:
192,0,144225,1,0,0:0:0:0:
320,0,144253,1,0,0:0:0:0:
448,0,144282,1,0,0:0:0:0:
64,0,144311,1,0,0:0:0:0:
192,0,144339,1,0,0:0:0:0:
320,0,144368,1,0,0:0:0:0:
448,0,144397,1,0,0:0:0:0:
64,0,144426,1,0,0:0:0:0:
192,0,144454,1,0,0:0:0:0:
320,0,144483,1,0,0:0:0:0:
448,0,144512,1,0,0:0:0:0:
320,0,144684,128,0,144857:0:0:0:0:
64,0,144857,1,0,0:0:0:0:
192,0,144857,1,0,0:0:0:0:
448,0,144857,1,0,0:0:0:0:
320,0,144900,1,0,0:0:0:0:
192,0,144943,1,0,0:0:0:0:
64,0,144986,1,0,0:0:0:0:
320,0,145029,1,0,0:0:0:0:
192,0,145072,1,0,0:0:0:0:
64,0,145115,1,0,0:0:0:0:
448,0,145115,1,0,0:0:0:0:
320,0,145158,1,0,0:0:0:0:
448,0,145202,1,0,0:0:0:0:
320,0,145288,1,0,0:0:0:0:
192,0,145316,1,0,0:0:0:0:
64,0,145374,1,0,0:0:0:0:
192,0,145460,1,0,0:0:0:0:
320,0,145546,1,0,0:0:0:0:
448,0,145546,128,0,145891:0:0:0:0:
192,0,145633,1,0,0:0:0:0:
320,0,145719,1,0,0:0:0:0:
192,0,145805,1,0,0:0:0:0:
64,0,145891,1,0,0:0:0:0:
320,0,145891,1,0,0:0:0:0:
64,0,146064,1,0,0:0:0:0:
192,0,146107,1,0,0:0:0:0:
320,0,146150,1,0,0:0:0:0:
448,0,146193,1,0,0:0:0:0:
64,0,146236,1,0,0:0:0:0:
192,0,146236,1,0,0:0:0:0:
448,0,146322,1,0,0:0:0:0:
320,0,146365,1,0,0:0:0:0:
192,0,146408,1,0,0:0:0:0:
64,0,146452,1,0,0:0:0:0:
320,0,146495,1,0,0:0:0:0:
448,0,146495,1,0,0:0:0:0:
64,0,146581,1,0,0:0:0:0:
192,0,146624,1,0,0:0:0:0:
320,0,146667,1,0,0:0:0:0:
448,0,146710,1,0,0:0:0:0:
64,0,146753,1,0,0:0:0:0:
192,0,146753,1,0,0:0:0:0:
320,0,146839,1,0,0:0:0:0:
192,0,146883,1,0,0:0:0:0:
64,0,146926,1,0,0:0:0:0:
448,0,146926,128,0,147227:0:0:0:0:
320,0,147012,128,0,147227:0:0:0:0:
192,0,147098,128,0,147227:0:0:0:0:
64,0,147184,128,0,147227:0:0:0:0:
64,0,147271,128,0,147328:0:0:0:0:
192,0,147271,128,0,147385:0:0:0:0:
320,0,147271,128,0,147443:0:0:0:0:
448,0,147271,128,0,147500:0:0:0:0:
64,0,147615,1,0,0:0:0:0:
192,0,147615,1,0,0:0:0:0:
320,0,147788,1,0,0:0:0:0:
192,0,147874,1,0,0:0:0:0:
320,0,147874,1,0,0:0:0:0:
64,0,147960,1,0,0:0:0:0:
192,0,147989,1,0,0:0:0:0:
320,0,148018,1,0,0:0:0:0:
448,0,148046,1,0,0:0:0:0:
192,0,148133,1,0,0:0:0:0:
448,0,148219,1,0,0:0:0:0:
320,0,148305,1,0,0:0:0:0:
448,0,148305,1,0,0:0:0:0:
192,0,148348,1,0,0:0:0:0:
64,0,148391,1,0,0:0:0:0:
320,0,148434,1,0,0:0:0:0:
448,0,148477,1,0,0:0:0:0:
192,0,148564,1,0,0:0:0:0:
64,0,148650,1,0,0:0:0:0:
320,0,148650,1,0,0:0:0:0:
192,0,148822,128,0,148995:0:0:0:0:
320,0,148995,1,0,0:0:0:0:
448,0,148995,1,0,0:0:0:0:
64,0,149038,1,0,0:0:0:0:
192,0,149081,1,0,0:0:0:0:
320,0,149124,1,0,0:0:0:0:
448,0,149167,1,0,0:0:0:0:
64,0,149253,1,0,0:0:0:0:
192,0,149253,1,0,0:0:0:0:
448,0,149296,1,0,0:0:0:0:
320,0,149339,1,0,0:0:0:0:
192,0,149383,1,0,0:0:0:0:
64,0,149426,1,0,0:0:0:0:
320,0,149512,128,0,149598:0:0:0:0:
448,0,149512,1,0,0:0:0:0:
64,0,149598,1,0,0:0:0:0:
192,0,149684,1,0,0:0:0:0:
448,0,149684,128,0,149771:0:0:0:0:
320,0,149771,1,0,0:0:0:0:
192,0,149857,128,0,149943:0:0:0:0:
64,0,149943,1,0,0:0:0:0:
64,0,150029,1,0,0:0:0:0:
192,0,150029,1,0,0:0:0:0:
320,0,150029,1,0,0:0:0:0:
448,0,150072,1,0,0:0:0:0:
320,0,150115,1,0,0:0:0:0:
192,0,150158,1,0,0:0:0:0:
64,0,150202,1,0,0:0:0:0:
448,0,150245,1,0,0:0:0:0:
320,0,150288,1,0,0:0:0:0:
192,0,150331,1,0,0:0:0:0:
64,0,150374,1,0,0:0:0:0:
448,0,150374,1,0,0:0:0:0:
448,0,150460,1,0,0:0:0:0:
320,0,150546,1,0,0:0:0:0:
192,0,150633,1,0,0:0:0:0:
64,0,150719,1,0,0:0:0:0:
448,0,150719,1,0,0:0:0:0:
192,0,150776,1,0,0:0:0:0:
320,0,150834,1,0,0:0:0:0:
448,0,150891,1,0,0:0:0:0:
320,0,150949,1,0,0:0:0:0:
192,0,151006,1,0,0:0:0:0:
64,0,151064,1,0,0:0:0:0:
448,0,151064,128,0,151408:0:0:0:0:
320,0,151150,1,0,0:0:0:0:
192,0,151236,1,0,0:0:0:0:
320,0,151322,1,0,0:0:0:0:
64,0,151408,1,0,0:0:0:0:
192,0,151408,1,0,0:0:0:0:
64,0,151581,1,0,0:0:0:0:
192,0,151581,1,0,0:0:0:0:
320,0,151753,1,0,0:0:0:0:
448,0,151753,1,0,0:0:0:0:
64,0,151926,1,0,0:0:0:0:
192,0,151926,1,0,0:0:0:0:
64,0,152098,1,0,0:0:0:0:
192,0,152098,1,0,0:0:0:0:
64,0,152184,1,0,0:0:0:0:
192,0,152184,1,0,0:0:0:0:
64,0,152271,1,0,0:0:0:0:
192,0,152271,1,0,0:0:0:0:
64,0,152357,1,0,0:0:0:0:
192,0,152357,1,0,0:0:0:0:
320,0,152443,1,0,0:0:0:0:
448,0,152443,1,0,0:0:0:0:
64,0,152615,1,0,0:0:0:0:
192,0,152615,1,0,0:0:0:0:
64,0,152702,1,0,0:0:0:0:
192,0,152702,1,0,0:0:0:0:
320,0,152788,1,0,0:0:0:0:
448,0,152788,1,0,0:0:0:0:
64,0,152845,1,0,0:0:0:0:
448,0,152903,1,0,0:0:0:0:
64,0,152960,1,0,0:0:0:0:
448,0,153018,1,0,0:0:0:0:
64,0,153075,1,0,0:0:0:0:
448,0,153133,1,0,0:0:0:0:
64,0,153219,1,0,0:0:0:0:
320,0,153305,1,0,0:0:0:0:
192,0,153362,1,0,0:0:0:0:
320,0,153420,1,0,0:0:0:0:
192,0,153477,1,0,0:0:0:0:
320,0,153535,1,0,0:0:0:0:
192,0,153592,1,0,0:0:0:0:
320,0,153650,1,0,0:0:0:0:
192,0,153736,1,0,0:0:0:0:
448,0,153822,1,0,0:0:0:0:
64,0,153880,1,0,0:0:0:0:
448,0,153937,1,0,0:0:0:0:
64,0,153995,1,0,0:0:0:0:
448,0,154052,1,0,0:0:0:0:
64,0,154110,1,0,0:0:0:0:
448,0,154167,1,0,0:0:0:0:
64,0,154253,1,0,0:0:0:0:
320,0,154339,1,0,0:0:0:0:
192,0,154397,1,0,0:0:0:0:
320,0,154454,1,0,0:0:0:0:
192,0,154512,1,0,0:0:0:0:
320,0,154569,1,0,0:0:0:0:
192,0,154627,1,0,0:0:0:0:
320,0,154684,1,0,0:0:0:0:
192,0,154771,1,0,0:0:0:0:
448,0,155202,128,0,155259:0:0:0:0:
320,0,155288,128,0,155345:0:0:0:0:
192,0,155374,128,0,155431:0:0:0:0:
448,0,155460,128,0,155518:0:0:0:0:
64,0,155546,1,0,0:0:0:0:
192,0,155546,1,0,0:0:0:0:
320,0,155546,128,0,155604:0:0:0:0:
448,0,156064,128,0,156107:0:0:0:0:
320,0,156107,128,0,156150:0:0:0:0:
192,0,156150,128,0,156193:0:0:0:0:
64,0,156236,128,0,156279:0:0:0:0:
192,0,156581,1,0,0:0:0:0:
320,0,156753,1,0,0:0:0:0:
448,0,157098,1,0,0:0:0:0:
64,0,158075,128,0,158133:0:0:0:0:
192,0,158190,128,0,158248:0:0:0:0:
320,0,158305,128,0,158362:0:0:0:0:
448,0,158822,128,0,158865:0:0:0:0:
192,0,158865,128,0,158908:0:0:0:0:
320,0,158908,128,0,158952:0:0:0:0:
64,0,158995,128,0,159038:0:0:0:0:
192,0,159225,1,0,0:0:0:0:
320,0,159282,1,0,0:0:0:0:
448,0,159339,1,0,0:0:0:0:
320,0,159512,1,0,0:0:0:0:
192,0,159684,1,0,0:0:0:0:
320,0,159857,1,0,0:0:0:0:
64,0,159972,128,0,160029:0:0:0:0:
448,0,160029,1,0,0:0:0:0:
192,0,160087,128,0,160144:0:0:0:0:
320,0,160202,128,0,160259:0:0:0:0:
192,0,160374,128,0,160431:0:0:0:0:
320,0,160546,128,0,160604:0:0:0:0:
448,0,160719,128,0,160776:0:0:0:0:
320,0,160805,128,0,160862:0:0:0:0:
192,0,160891,128,0,160949:0:0:0:0:
64,0,160977,128,0,161035:0:0:0:0:
320,0,161064,128,0,161121:0:0:0:0:
320,0,161581,128,0,161624:0:0:0:0:
448,0,161624,128,0,161667:0:0:0:0:
192,0,161667,128,0,161710:0:0:0:0:
64,0,161753,128,0,161796:0:0:0:0:
192,0,162098,1,0,0:0:0:0:
320,0,162271,1,0,0:0:0:0:
448,0,162615,1,0,0:0:0:0:
64,0,163305,128,0,163362:0:0:0:0:
192,0,163391,128,0,163449:0:0:0:0:
320,0,163477,128,0,163535:0:0:0:0:
64,0,163564,128,0,163621:0:0:0:0:
192,0,163650,128,0,163707:0:0:0:0:
320,0,163736,128,0,163793:0:0:0:0:
448,0,163822,128,0,163880:0:0:0:0:
320,0,164253,128,0,164296:0:0:0:0:
192,0,164383,128,0,164426:0:0:0:0:
320,0,164512,128,0,164555:0:0:0:0:
64,0,164742,1,0,0:0:0:0:
192,0,164799,1,0,0:0:0:0:
448,0,164857,1,0,0:0:0:0:
320,0,165029,1,0,0:0:0:0:
192,0,165202,1,0,0:0:0:0:
64,0,165374,1,0,0:0:0:0:
192,0,165546,1,0,0:0:0:0:
320,0,165719,1,0,0:0:0:0:
448,0,165891,1,0,0:0:0:0:
448,0,166236,128,0,166279:0:0:0:0:
192,0,166322,128,0,166365:0:0:0:0:
320,0,166408,128,0,166452:0:0:0:0:
64,0,166495,128,0,166538:0:0:0:0:
192,0,166581,128,0,166753:0:0:0:0:
320,0,166581,1,0,0:0:0:0:
448,0,166581,1,0,0:0:0:0:
448,0,166926,1,0,0:0:0:0:
64,0,167098,128,0,167271:0:0:0:0:
192,0,167098,1,0,0:0:0:0:
448,0,167271,1,0,0:0:0:0:
320,0,167615,128,0,167788:0:0:0:0:
448,0,167615,1,0,0:0:0:0:
448,0,167960,1,0,0:0:0:0:
448,0,168305,1,0,0:0:0:0:
192,0,168477,1,0,0:0:0:0:
448,0,168650,1,0,0:0:0:0:
448,0,168995,1,0,0:0:0:0:
64,0,169339,1,0,0:0:0:0:
192,0,169339,128,0,169512:0:0:0:0:
64,0,169684,1,0,0:0:0:0:
192,0,169857,1,0,0:0:0:0:
320,0,169857,128,0,170029:0:0:0:0:
64,0,170029,1,0,0:0:0:0:
64,0,170374,1,0,0:0:0:0:
448,0,170374,128,0,170546:0:0:0:0:
64,0,170719,1,0,0:0:0:0:
64,0,171064,1,0,0:0:0:0:
320,0,171236,1,0,0:0:0:0:
64,0,171408,1,0,0:0:0:0:
64,0,171753,1,0,0:0:0:0:
64,0,172098,1,0,0:0:0:0:
320,0,172098,1,0,0:0:0:0:
448,0,172098,1,0,0:0:0:0:
192,0,172357,1,0,0:0:0:0:
448,0,172357,1,0,0:0:0:0:
320,0,172615,1,0,0:0:0:0:
448,0,172615,1,0,0:0:0:0:
64,0,172788,1,0,0:0:0:0:
192,0,172788,1,0,0:0:0:0:
64,0,173046,1,0,0:0:0:0:
320,0,173046,1,0,0:0:0:0:
64,0,173305,1,0,0:0:0:0:
192,0,173305,1,0,0:0:0:0:
320,0,173477,1,0,0:0:0:0:
448,0,173477,1,0,0:0:0:0:
192,0,173736,1,0,0:0:0:0:
448,0,173736,1,0,0:0:0:0:
64,0,173995,1,0,0:0:0:0:
320,0,173995,1,0,0:0:0:0:
64,0,174167,1,0,0:0:0:0:
192,0,174167,1,0,0:0:0:0:
192,0,174426,1,0,0:0:0:0:
320,0,174426,1,0,0:0:0:0:
320,0,174684,1,0,0:0:0:0:
448,0,174684,1,0,0:0:0:0:
192,0,174857,1,0,0:0:0:0:
448,0,174857,1,0,0:0:0:0:
64,0,175029,1,0,0:0:0:0:
320,0,175029,1,0,0:0:0:0:
64,0,175202,1,0,0:0:0:0:
192,0,175202,1,0,0:0:0:0:
64,0,175374,1,0,0:0:0:0:
320,0,175374,1,0,0:0:0:0:
192,0,175546,1,0,0:0:0:0:
448,0,175546,1,0,0:0:0:0:
320,0,175719,1,0,0:0:0:0:
448,0,175719,1,0,0:0:0:0:
192,0,175891,1,0,0:0:0:0:
320,0,175891,1,0,0:0:0:0:
64,0,176064,1,0,0:0:0:0:
192,0,176064,1,0,0:0:0:0:
320,0,176236,1,0,0:0:0:0:
448,0,176236,1,0,0:0:0:0:
64,0,176322,1,0,0:0:0:0:
192,0,176322,1,0,0:0:0:0:
320,0,176408,1,0,0:0:0:0:
448,0,176408,1,0,0:0:0:0:
64,0,176495,1,0,0:0:0:0:
192,0,176495,1,0,0:0:0:0:
320,0,176581,1,0,0:0:0:0:
448,0,176581,1,0,0:0:0:0:
64,0,176667,1,0,0:0:0:0:
192,0,176667,1,0,0:0:0:0:
320,0,176753,1,0,0:0:0:0:
448,0,176753,1,0,0:0:0:0:
64,0,176839,1,0,0:0:0:0:
192,0,176839,1,0,0:0:0:0:
320,0,176926,1,0,0:0:0:0:
448,0,176926,1,0,0:0:0:0:
64,0,177012,1,0,0:0:0:0:
192,0,177012,1,0,0:0:0:0:
320,0,177098,1,0,0:0:0:0:
448,0,177098,1,0,0:0:0:0:
64,0,177184,1,0,0:0:0:0:
192,0,177184,1,0,0:0:0:0:
320,0,177271,1,0,0:0:0:0:
448,0,177271,1,0,0:0:0:0:
64,0,177357,1,0,0:0:0:0:
192,0,177357,1,0,0:0:0:0:
320,0,177443,1,0,0:0:0:0:
448,0,177443,1,0,0:0:0:0:
64,0,177529,1,0,0:0:0:0:
192,0,177529,1,0,0:0:0:0:
448,0,177616,128,0,177702:0:0:0:0:
64,0,177702,1,0,0:0:0:0:
320,0,177788,128,0,177874:0:0:0:0:
64,0,177874,1,0,0:0:0:0:
192,0,177960,128,0,178047:0:0:0:0:
64,0,178133,128,0,178219:0:0:0:0:
192,0,178219,1,0,0:0:0:0:
448,0,178305,128,0,178391:0:0:0:0:
192,0,178391,1,0,0:0:0:0:
320,0,178478,128,0,178564:0:0:0:0:
192,0,178650,128,0,178736:0:0:0:0:
320,0,178736,1,0,0:0:0:0:
64,0,178822,128,0,178909:0:0:0:0:
320,0,178908,1,0,0:0:0:0:
448,0,178995,128,0,179081:0:0:0:0:
320,0,179167,128,0,179253:0:0:0:0:
448,0,179253,1,0,0:0:0:0:
192,0,179340,128,0,179426:0:0:0:0:
448,0,179426,1,0,0:0:0:0:
64,0,179512,128,0,179598:0:0:0:0:
320,0,179684,1,0,0:0:0:0:
448,0,179684,128,0,179943:0:0:0:0:
64,0,179771,1,0,0:0:0:0:
192,0,179771,1,0,0:0:0:0:
320,0,179857,1,0,0:0:0:0:
64,0,179943,1,0,0:0:0:0:
192,0,179943,1,0,0:0:0:0:
320,0,180029,128,0,180072:0:0:0:0:
448,0,180029,1,0,0:0:0:0:
64,0,180115,1,0,0:0:0:0:
192,0,180202,128,0,180245:0:0:0:0:
320,0,180288,1,0,0:0:0:0:
64,0,180374,1,0,0:0:0:0:
192,0,180374,1,0,0:0:0:0:
448,0,180374,1,0,0:0:0:0:
320,0,180431,1,0,0:0:0:0:
448,0,180489,1,0,0:0:0:0:
320,0,180546,1,0,0:0:0:0:
192,0,180604,1,0,0:0:0:0:
64,0,180661,1,0,0:0:0:0:
320,0,180719,1,0,0:0:0:0:
448,0,180719,1,0,0:0:0:0:
192,0,180891,1,0,0:0:0:0:
192,0,180977,1,0,0:0:0:0:
320,0,180977,1,0,0:0:0:0:
448,0,181021,1,0,0:0:0:0:
64,0,181064,1,0,0:0:0:0:
192,0,181121,1,0,0:0:0:0:
448,0,181179,1,0,0:0:0:0:
320,0,181236,1,0,0:0:0:0:
64,0,181408,1,0,0:0:0:0:
448,0,181408,1,0,0:0:0:0:
192,0,181452,1,0,0:0:0:0:
320,0,181495,1,0,0:0:0:0:
448,0,181538,1,0,0:0:0:0:
64,0,181581,1,0,0:0:0:0:
192,0,181624,1,0,0:0:0:0:
320,0,181667,1,0,0:0:0:0:
448,0,181710,1,0,0:0:0:0:
64,0,181753,1,0,0:0:0:0:
192,0,181753,1,0,0:0:0:0:
320,0,181839,1,0,0:0:0:0:
320,0,181926,1,0,0:0:0:0:
320,0,182012,1,0,0:0:0:0:
64,0,182098,1,0,0:0:0:0:
448,0,182098,1,0,0:0:0:0:
320,0,182141,1,0,0:0:0:0:
192,0,182184,1,0,0:0:0:0:
64,0,182227,1,0,0:0:0:0:
448,0,182271,1,0,0:0:0:0:
320,0,182357,1,0,0:0:0:0:
448,0,182357,1,0,0:0:0:0:
64,0,182443,1,0,0:0:0:0:
192,0,182486,1,0,0:0:0:0:
320,0,182529,1,0,0:0:0:0:
448,0,182572,1,0,0:0:0:0:
64,0,182615,1,0,0:0:0:0:
192,0,182615,1,0,0:0:0:0:
64,0,182702,1,0,0:0:0:0:
192,0,182788,1,0,0:0:0:0:
448,0,182788,1,0,0:0:0:0:
320,0,182845,1,0,0:0:0:0:
64,0,182903,1,0,0:0:0:0:
192,0,182960,1,0,0:0:0:0:
320,0,183018,1,0,0:0:0:0:
448,0,183075,1,0,0:0:0:0:
64,0,183133,1,0,0:0:0:0:
192,0,183133,1,0,0:0:0:0:
448,0,183190,1,0,0:0:0:0:
320,0,183248,1,0,0:0:0:0:
192,0,183305,1,0,0:0:0:0:
64,0,183391,1,0,0:0:0:0:
320,0,183477,1,0,0:0:0:0:
448,0,183477,1,0,0:0:0:0:
320,0,183650,1,0,0:0:0:0:
192,0,183736,1,0,0:0:0:0:
320,0,183736,1,0,0:0:0:0:
64,0,183822,1,0,0:0:0:0:
192,0,183865,1,0,0:0:0:0:
448,0,183908,1,0,0:0:0:0:
320,0,183952,1,0,0:0:0:0:
192,0,183995,1,0,0:0:0:0:
64,0,184081,1,0,0:0:0:0:
320,0,184167,1,0,0:0:0:0:
448,0,184167,1,0,0:0:0:0:
64,0,184225,1,0,0:0:0:0:
192,0,184282,1,0,0:0:0:0:
320,0,184339,1,0,0:0:0:0:
448,0,184397,1,0,0:0:0:0:
192,0,184454,1,0,0:0:0:0:
64,0,184512,1,0,0:0:0:0:
320,0,184512,1,0,0:0:0:0:
448,0,184598,1,0,0:0:0:0:
320,0,184684,1,0,0:0:0:0:
192,0,184727,1,0,0:0:0:0:
64,0,184771,1,0,0:0:0:0:
320,0,184857,1,0,0:0:0:0:
448,0,184857,1,0,0:0:0:0:
64,0,184900,1,0,0:0:0:0:
192,0,184943,1,0,0:0:0:0:
320,0,184986,1,0,0:0:0:0:
448,0,185029,1,0,0:0:0:0:
64,0,185115,1,0,0:0:0:0:
192,0,185115,1,0,0:0:0:0:
448,0,185202,1,0,0:0:0:0:
320,0,185259,1,0,0:0:0:0:
192,0,185316,1,0,0:0:0:0:
64,0,185374,1,0,0:0:0:0:
448,0,185374,1,0,0:0:0:0:
64,0,185546,1,0,0:0:0:0:
192,0,185546,1,0,0:0:0:0:
448,0,185589,1,0,0:0:0:0:
320,0,185633,1,0,0:0:0:0:
192,0,185676,1,0,0:0:0:0:
64,0,185719,1,0,0:0:0:0:
448,0,185762,1,0,0:0:0:0:
320,0,185805,1,0,0:0:0:0:
192,0,185848,1,0,0:0:0:0:
64,0,185891,1,0,0:0:0:0:
448,0,185891,1,0,0:0:0:0:
320,0,185949,1,0,0:0:0:0:
192,0,186006,1,0,0:0:0:0:
64,0,186064,1,0,0:0:0:0:
320,0,186121,1,0,0:0:0:0:
448,0,186179,1,0,0:0:0:0:
64,0,186236,1,0,0:0:0:0:
192,0,186236,1,0,0:0:0:0:
320,0,186293,1,0,0:0:0:0:
448,0,186351,1,0,0:0:0:0:
64,0,186408,1,0,0:0:0:0:
192,0,186466,1,0,0:0:0:0:
320,0,186495,1,0,0:0:0:0:
448,0,186495,1,0,0:0:0:0:
64,0,186523,1,0,0:0:0:0:
192,0,186581,1,0,0:0:0:0:
448,0,186638,1,0,0:0:0:0:
320,0,186696,1,0,0:0:0:0:
192,0,186753,1,0,0:0:0:0:
64,0,186811,1,0,0:0:0:0:
320,0,186868,1,0,0:0:0:0:
192,0,186926,1,0,0:0:0:0:
448,0,186926,1,0,0:0:0:0:
64,0,186969,1,0,0:0:0:0:
320,0,187012,1,0,0:0:0:0:
192,0,187055,1,0,0:0:0:0:
448,0,187098,1,0,0:0:0:0:
64,0,187271,1,0,0:0:0:0:
320,0,187271,1,0,0:0:0:0:
448,0,187314,1,0,0:0:0:0:
192,0,187357,1,0,0:0:0:0:
64,0,187400,1,0,0:0:0:0:
320,0,187443,1,0,0:0:0:0:
448,0,187486,1,0,0:0:0:0:
192,0,187529,1,0,0:0:0:0:
64,0,187572,1,0,0:0:0:0:
320,0,187615,1,0,0:0:0:0:
448,0,187615,1,0,0:0:0:0:
192,0,187673,1,0,0:0:0:0:
64,0,187730,1,0,0:0:0:0:
448,0,187788,1,0,0:0:0:0:
320,0,187845,1,0,0:0:0:0:
64,0,187874,1,0,0:0:0:0:
192,0,187874,1,0,0:0:0:0:
448,0,187903,1,0,0:0:0:0:
320,0,187960,1,0,0:0:0:0:
192,0,188018,1,0,0:0:0:0:
64,0,188075,1,0,0:0:0:0:
320,0,188133,1,0,0:0:0:0:
448,0,188133,1,0,0:0:0:0:
64,0,188190,1,0,0:0:0:0:
192,0,188248,1,0,0:0:0:0:
448,0,188305,1,0,0:0:0:0:
320,0,188305,128,0,188650:0:0:0:0:
64,0,188650,1,0,0:0:0:0:
192,0,188650,1,0,0:0:0:0:
448,0,188707,1,0,0:0:0:0:
320,0,188736,1,0,0:0:0:0:
64,0,188765,1,0,0:0:0:0:
192,0,188822,1,0,0:0:0:0:
448,0,188880,1,0,0:0:0:0:
320,0,188908,1,0,0:0:0:0:
64,0,188937,1,0,0:0:0:0:
192,0,188995,1,0,0:0:0:0:
448,0,188995,1,0,0:0:0:0:
320,0,189081,1,0,0:0:0:0:
448,0,189167,1,0,0:0:0:0:
64,0,189253,1,0,0:0:0:0:
448,0,189253,128,0,189339:0:0:0:0:
320,0,189339,1,0,0:0:0:0:
320,0,189426,128,0,189512:0:0:0:0:
192,0,189512,1,0,0:0:0:0:
192,0,189598,128,0,189684:0:0:0:0:
64,0,189684,1,0,0:0:0:0:
448,0,189684,1,0,0:0:0:0:
64,0,189771,128,0,189857:0:0:0:0:
448,0,189857,1,0,0:0:0:0:
320,0,189914,1,0,0:0:0:0:
448,0,189972,1,0,0:0:0:0:
64,0,190029,1,0,0:0:0:0:
320,0,190029,1,0,0:0:0:0:
192,0,190115,1,0,0:0:0:0:
64,0,190144,1,0,0:0:0:0:
320,0,190202,1,0,0:0:0:0:
64,0,190259,1,0,0:0:0:0:
192,0,190374,1,0,0:0:0:0:
448,0,190374,1,0,0:0:0:0:
320,0,190417,1,0,0:0:0:0:
64,0,190460,1,0,0:0:0:0:
192,0,190503,1,0,0:0:0:0:
320,0,190546,1,0,0:0:0:0:
64,0,190633,1,0,0:0:0:0:
192,0,190633,1,0,0:0:0:0:
448,0,190719,1,0,0:0:0:0:
320,0,190762,1,0,0:0:0:0:
192,0,190805,1,0,0:0:0:0:
64,0,190848,1,0,0:0:0:0:
320,0,190891,1,0,0:0:0:0:
448,0,190891,1,0,0:0:0:0:
192,0,191064,1,0,0:0:0:0:
64,0,191092,1,0,0:0:0:0:
448,0,191121,1,0,0:0:0:0:
320,0,191150,1,0,0:0:0:0:
192,0,191179,1,0,0:0:0:0:
64,0,191207,1,0,0:0:0:0:
448,0,191236,1,0,0:0:0:0:
320,0,191265,1,0,0:0:0:0:
192,0,191293,1,0,0:0:0:0:
64,0,191322,1,0,0:0:0:0:
448,0,191351,1,0,0:0:0:0:
320,0,191380,1,0,0:0:0:0:
64,0,191408,1,0,0:0:0:0:
192,0,191408,1,0,0:0:0:0:
448,0,191466,1,0,0:0:0:0:
320,0,191523,1,0,0:0:0:0:
192,0,191581,1,0,0:0:0:0:
320,0,191753,1,0,0:0:0:0:
448,0,191753,1,0,0:0:0:0:
64,0,191926,1,0,0:0:0:0:
192,0,191969,1,0,0:0:0:0:
64,0,192012,1,0,0:0:0:0:
320,0,192012,1,0,0:0:0:0:
448,0,192055,1,0,0:0:0:0:
192,0,192098,1,0,0:0:0:0:
64,0,192156,1,0,0:0:0:0:
448,0,192213,1,0,0:0:0:0:
320,0,192271,1,0,0:0:0:0:
64,0,192443,1,0,0:0:0:0:
320,0,192443,1,0,0:0:0:0:
448,0,192486,1,0,0:0:0:0:
192,0,192529,1,0,0:0:0:0:
320,0,192572,1,0,0:0:0:0:
64,0,192615,1,0,0:0:0:0:
448,0,192658,1,0,0:0:0:0:
192,0,192702,1,0,0:0:0:0:
320,0,192745,1,0,0:0:0:0:
64,0,192788,1,0,0:0:0:0:
448,0,192788,1,0,0:0:0:0:
192,0,192874,1,0,0:0:0:0:
192,0,192960,1,0,0:0:0:0:
192,0,193046,1,0,0:0:0:0:
320,0,193133,1,0,0:0:0:0:
448,0,193133,1,0,0:0:0:0:
64,0,193176,1,0,0:0:0:0:
192,0,193219,1,0,0:0:0:0:
320,0,193262,1,0,0:0:0:0:
448,0,193305,1,0,0:0:0:0:
64,0,193391,1,0,0:0:0:0:
192,0,193391,1,0,0:0:0:0:
448,0,193477,1,0,0:0:0:0:
320,0,193521,1,0,0:0:0:0:
192,0,193564,1,0,0:0:0:0:
64,0,193607,1,0,0:0:0:0:
320,0,193650,1,0,0:0:0:0:
448,0,193650,1,0,0:0:0:0:
64,0,193822,1,0,0:0:0:0:
448,0,193822,1,0,0:0:0:0:
192,0,193880,1,0,0:0:0:0:
320,0,193937,1,0,0:0:0:0:
448,0,193995,1,0,0:0:0:0:
192,0,194052,1,0,0:0:0:0:
320,0,194110,1,0,0:0:0:0:
64,0,194167,1,0,0:0:0:0:
448,0,194167,1,0,0:0:0:0:
320,0,194225,1,0,0:0:0:0:
192,0,194282,1,0,0:0:0:0:
64,0,194339,1,0,0:0:0:0:
320,0,194426,1,0,0:0:0:0:
64,0,194512,1,0,0:0:0:0:
192,0,194512,1,0,0:0:0:0:
448,0,194684,1,0,0:0:0:0:
64,0,194771,1,0,0:0:0:0:
448,0,194771,1,0,0:0:0:0:
320,0,194857,1,0,0:0:0:0:
192,0,194900,1,0,0:0:0:0:
64,0,194943,1,0,0:0:0:0:
448,0,194986,1,0,0:0:0:0:
320,0,195029,1,0,0:0:0:0:
192,0,195087,1,0,0:0:0:0:
64,0,195144,1,0,0:0:0:0:
320,0,195202,1,0,0:0:0:0:
448,0,195202,1,0,0:0:0:0:
64,0,195259,1,0,0:0:0:0:
192,0,195316,1,0,0:0:0:0:
320,0,195374,1,0,0:0:0:0:
448,0,195431,1,0,0:0:0:0:
192,0,195489,1,0,0:0:0:0:
64,0,195546,1,0,0:0:0:0:
320,0,195546,1,0,0:0:0:0:
192,0,195719,1,0,0:0:0:0:
64,0,195762,1,0,0:0:0:0:
320,0,195805,1,0,0:0:0:0:
192,0,195891,1,0,0:0:0:0:
448,0,195891,1,0,0:0:0:0:
64,0,195934,1,0,0:0:0:0:
320,0,195977,1,0,0:0:0:0:
448,0,196021,1,0,0:0:0:0:
192,0,196064,1,0,0:0:0:0:
64,0,196150,1,0,0:0:0:0:
320,0,196150,1,0,0:0:0:0:
448,0,196236,1,0,0:0:0:0:
320,0,196293,1,0,0:0:0:0:
192,0,196351,1,0,0:0:0:0:
64,0,196408,1,0,0:0:0:0:
448,0,196408,1,0,0:0:0:0:
64,0,196581,1,0,0:0:0:0:
192,0,196581,1,0,0:0:0:0:
448,0,196624,1,0,0:0:0:0:
320,0,196667,1,0,0:0:0:0:
192,0,196710,1,0,0:0:0:0:
64,0,196753,1,0,0:0:0:0:
448,0,196796,1,0,0:0:0:0:
320,0,196839,1,0,0:0:0:0:
192,0,196883,1,0,0:0:0:0:
64,0,196926,1,0,0:0:0:0:
448,0,196926,1,0,0:0:0:0:
320,0,196983,1,0,0:0:0:0:
192,0,197041,1,0,0:0:0:0:
64,0,197098,1,0,0:0:0:0:
448,0,197156,1,0,0:0:0:0:
320,0,197213,1,0,0:0:0:0:
64,0,197271,1,0,0:0:0:0:
192,0,197271,1,0,0:0:0:0:
448,0,197328,1,0,0:0:0:0:
320,0,197385,1,0,0:0:0:0:
64,0,197443,1,0,0:0:0:0:
192,0,197500,1,0,0:0:0:0:
320,0,197529,1,0,0:0:0:0:
448,0,197529,1,0,0:0:0:0:
64,0,197558,1,0,0:0:0:0:
192,0,197615,1,0,0:0:0:0:
320,0,197673,1,0,0:0:0:0:
448,0,197730,1,0,0:0:0:0:
192,0,197788,1,0,0:0:0:0:
64,0,197845,1,0,0:0:0:0:
448,0,197903,1,0,0:0:0:0:
192,0,197960,1,0,0:0:0:0:
320,0,197960,1,0,0:0:0:0:
64,0,198003,1,0,0:0:0:0:
448,0,198046,1,0,0:0:0:0:
320,0,198089,1,0,0:0:0:0:
192,0,198133,1,0,0:0:0:0:
64,0,198219,1,0,0:0:0:0:
192,0,198305,1,0,0:0:0:0:
448,0,198305,1,0,0:0:0:0:
320,0,198348,1,0,0:0:0:0:
64,0,198391,1,0,0:0:0:0:
192,0,198434,1,0,0:0:0:0:
448,0,198477,1,0,0:0:0:0:
320,0,198521,1,0,0:0:0:0:
64,0,198564,1,0,0:0:0:0:
192,0,198607,1,0,0:0:0:0:
320,0,198650,1,0,0:0:0:0:
448,0,198650,1,0,0:0:0:0:
64,0,198707,1,0,0:0:0:0:
192,0,198765,1,0,0:0:0:0:
448,0,198822,1,0,0:0:0:0:
320,0,198880,1,0,0:0:0:0:
64,0,198908,1,0,0:0:0:0:
192,0,198908,1,0,0:0:0:0:
448,0,198937,1,0,0:0:0:0:
320,0,198995,1,0,0:0:0:0:
192,0,199052,1,0,0:0:0:0:
64,0,199110,1,0,0:0:0:0:
192,0,199167,1,0,0:0:0:0:
320,0,199167,1,0,0:0:0:0:
448,0,199225,1,0,0:0:0:0:
320,0,199282,1,0,0:0:0:0:
64,0,199339,1,0,0:0:0:0:
192,0,199339,128,0,199684:0:0:0:0:
64,0,199684,1,0,0:0:0:0:
448,0,199684,1,0,0:0:0:0:
320,0,199727,1,0,0:0:0:0:
320,0,199857,1,0,0:0:0:0:
448,0,199857,1,0,0:0:0:0:
64,0,200029,1,0,0:0:0:0:
448,0,200029,1,0,0:0:0:0:
192,0,200072,1,0,0:0:0:0:
64,0,200202,1,0,0:0:0:0:
192,0,200202,1,0,0:0:0:0:
64,0,200374,1,0,0:0:0:0:
448,0,200374,1,0,0:0:0:0:
320,0,200417,1,0,0:0:0:0:
320,0,200546,1,0,0:0:0:0:
448,0,200546,1,0,0:0:0:0:
64,0,200719,1,0,0:0:0:0:
448,0,200719,1,0,0:0:0:0:
192,0,200762,1,0,0:0:0:0:
64,0,200891,1,0,0:0:0:0:
192,0,200891,1,0,0:0:0:0:
320,0,201064,1,0,0:0:0:0:
448,0,201064,1,0,0:0:0:0:
64,0,201150,1,0,0:0:0:0:
192,0,201150,1,0,0:0:0:0:
64,0,201236,1,0,0:0:0:0:
192,0,201236,1,0,0:0:0:0:
64,0,201322,1,0,0:0:0:0:
192,0,201322,1,0,0:0:0:0:
320,0,201408,1,0,0:0:0:0:
448,0,201408,1,0,0:0:0:0:
64,0,201495,1,0,0:0:0:0:
192,0,201495,1,0,0:0:0:0:
64,0,201581,1,0,0:0:0:0:
192,0,201581,1,0,0:0:0:0:
64,0,201667,1,0,0:0:0:0:
192,0,201667,1,0,0:0:0:0:
320,0,201753,1,0,0:0:0:0:
448,0,201753,1,0,0:0:0:0:
64,0,201839,1,0,0:0:0:0:
192,0,201839,1,0,0:0:0:0:
64,0,201926,1,0,0:0:0:0:
192,0,201926,1,0,0:0:0:0:
64,0,202012,1,0,0:0:0:0:
192,0,202012,1,0,0:0:0:0:
448,0,202098,128,0,202271:0:0:0:0:
320,0,202098,128,0,202443:0:0:0:0:
64,0,202443,1,0,0:0:0:0:
192,0,202443,1,0,0:0:0:0:
448,0,202443,1,0,0:0:0:0:
320,0,202500,1,0,0:0:0:0:
448,0,202558,1,0,0:0:0:0:
320,0,202615,128,0,202658:0:0:0:0:
192,0,202673,1,0,0:0:0:0:
64,0,202730,1,0,0:0:0:0:
320,0,202788,1,0,0:0:0:0:
448,0,202788,128,0,202831:0:0:0:0:
192,0,202960,128,0,203003:0:0:0:0:
192,0,203046,1,0,0:0:0:0:
320,0,203046,1,0,0:0:0:0:
64,0,203089,1,0,0:0:0:0:
448,0,203133,1,0,0:0:0:0:
320,0,203190,1,0,0:0:0:0:
64,0,203248,1,0,0:0:0:0:
192,0,203305,128,0,203348:0:0:0:0:
64,0,203477,128,0,203521:0:0:0:0:
448,0,203477,1,0,0:0:0:0:
320,0,203521,1,0,0:0:0:0:
192,0,203564,1,0,0:0:0:0:
64,0,203607,1,0,0:0:0:0:
320,0,203650,128,0,203693:0:0:0:0:
448,0,203693,1,0,0:0:0:0:
192,0,203736,1,0,0:0:0:0:
64,0,203779,1,0,0:0:0:0:
320,0,203822,1,0,0:0:0:0:
448,0,203822,1,0,0:0:0:0:
192,0,203908,1,0,0:0:0:0:
192,0,203995,128,0,204038:0:0:0:0:
192,0,204081,1,0,0:0:0:0:
64,0,204167,1,0,0:0:0:0:
448,0,204167,128,0,204210:0:0:0:0:
192,0,204210,1,0,0:0:0:0:
320,0,204253,1,0,0:0:0:0:
448,0,204296,1,0,0:0:0:0:
64,0,204339,128,0,204383:0:0:0:0:
64,0,204426,1,0,0:0:0:0:
192,0,204426,1,0,0:0:0:0:
448,0,204512,1,0,0:0:0:0:
320,0,204555,1,0,0:0:0:0:
192,0,204598,1,0,0:0:0:0:
64,0,204641,1,0,0:0:0:0:
320,0,204684,128,0,204727:0:0:0:0:
448,0,204684,1,0,0:0:0:0:
448,0,204771,1,0,0:0:0:0:
64,0,204857,128,0,204900:0:0:0:0:
320,0,204857,1,0,0:0:0:0:
192,0,204914,1,0,0:0:0:0:
448,0,204972,1,0,0:0:0:0:
320,0,205029,128,0,205072:0:0:0:0:
192,0,205087,1,0,0:0:0:0:
64,0,205144,1,0,0:0:0:0:
320,0,205202,1,0,0:0:0:0:
448,0,205202,1,0,0:0:0:0:
64,0,205259,1,0,0:0:0:0:
192,0,205316,1,0,0:0:0:0:
320,0,205374,128,0,205417:0:0:0:0:
448,0,205460,1,0,0:0:0:0:
64,0,205546,128,0,205589:0:0:0:0:
192,0,205546,1,0,0:0:0:0:
192,0,205719,128,0,205762:0:0:0:0:
192,0,205805,128,0,205848:0:0:0:0:
320,0,205805,1,0,0:0:0:0:
448,0,205891,1,0,0:0:0:0:
320,0,205934,1,0,0:0:0:0:
64,0,205977,1,0,0:0:0:0:
192,0,206021,1,0,0:0:0:0:
320,0,206064,128,0,206107:0:0:0:0:
448,0,206150,1,0,0:0:0:0:
64,0,206236,128,0,206279:0:0:0:0:
192,0,206236,1,0,0:0:0:0:
448,0,206293,1,0,0:0:0:0:
320,0,206351,1,0,0:0:0:0:
192,0,206408,128,0,206452:0:0:0:0:
64,0,206466,1,0,0:0:0:0:
320,0,206523,1,0,0:0:0:0:
192,0,206581,1,0,0:0:0:0:
448,0,206581,1,0,0:0:0:0:
64,0,206667,1,0,0:0:0:0:
192,0,206753,128,0,206796:0:0:0:0:
320,0,206796,1,0,0:0:0:0:
448,0,206839,1,0,0:0:0:0:
64,0,206926,1,0,0:0:0:0:
192,0,206926,128,0,206969:0:0:0:0:
448,0,206969,1,0,0:0:0:0:
320,0,207012,1,0,0:0:0:0:
192,0,207055,1,0,0:0:0:0:
64,0,207098,128,0,207141:0:0:0:0:
320,0,207184,1,0,0:0:0:0:
448,0,207184,1,0,0:0:0:0:
64,0,207271,1,0,0:0:0:0:
192,0,207328,1,0,0:0:0:0:
320,0,207385,1,0,0:0:0:0:
64,0,207443,128,0,207486:0:0:0:0:
448,0,207443,1,0,0:0:0:0:
320,0,207615,128,0,207658:0:0:0:0:
448,0,207615,1,0,0:0:0:0:
64,0,207658,1,0,0:0:0:0:
192,0,207702,1,0,0:0:0:0:
320,0,207745,1,0,0:0:0:0:
448,0,207788,128,0,207831:0:0:0:0:
64,0,207831,1,0,0:0:0:0:
192,0,207874,1,0,0:0:0:0:
320,0,207917,1,0,0:0:0:0:
64,0,207960,128,0,208003:0:0:0:0:
448,0,207960,1,0,0:0:0:0:
192,0,208018,1,0,0:0:0:0:
320,0,208075,1,0,0:0:0:0:
448,0,208133,128,0,208176:0:0:0:0:
192,0,208190,1,0,0:0:0:0:
64,0,208248,1,0,0:0:0:0:
320,0,208305,128,0,208348:0:0:0:0:
448,0,208305,1,0,0:0:0:0:
192,0,208362,1,0,0:0:0:0:
64,0,208420,1,0,0:0:0:0:
448,0,208477,128,0,208521:0:0:0:0:
320,0,208535,1,0,0:0:0:0:
64,0,208564,1,0,0:0:0:0:
192,0,208564,1,0,0:0:0:0:
448,0,208592,1,0,0:0:0:0:
320,0,208650,1,0,0:0:0:0:
64,0,208707,1,0,0:0:0:0:
192,0,208765,1,0,0:0:0:0:
320,0,208822,128,0,208865:0:0:0:0:
448,0,208880,1,0,0:0:0:0:
192,0,208937,1,0,0:0:0:0:
64,0,208995,128,0,209038:0:0:0:0:
320,0,208995,1,0,0:0:0:0:
448,0,209038,1,0,0:0:0:0:
192,0,209081,1,0,0:0:0:0:
320,0,209124,1,0,0:0:0:0:
64,0,209167,128,0,209210:0:0:0:0:
192,0,209339,1,0,0:0:0:0:
448,0,209339,128,0,209383:0:0:0:0:
64,0,209383,1,0,0:0:0:0:
320,0,209426,1,0,0:0:0:0:
448,0,209469,1,0,0:0:0:0:
192,0,209512,128,0,209555:0:0:0:0:
64,0,209555,1,0,0:0:0:0:
320,0,209598,1,0,0:0:0:0:
448,0,209641,1,0,0:0:0:0:
64,0,209684,128,0,209727:0:0:0:0:
192,0,209684,1,0,0:0:0:0:
320,0,209742,1,0,0:0:0:0:
448,0,209799,1,0,0:0:0:0:
192,0,209857,128,0,209900:0:0:0:0:
320,0,209914,1,0,0:0:0:0:
64,0,209943,1,0,0:0:0:0:
448,0,209943,1,0,0:0:0:0:
192,0,209972,1,0,0:0:0:0:
320,0,210029,1,0,0:0:0:0:
64,0,210087,1,0,0:0:0:0:
448,0,210144,1,0,0:0:0:0:
64,0,210202,1,0,0:0:0:0:
192,0,210202,128,0,210245:0:0:0:0:
448,0,210259,1,0,0:0:0:0:
320,0,210316,1,0,0:0:0:0:
64,0,210374,128,0,210417:0:0:0:0:
192,0,210374,128,0,210719:0:0:0:0:
320,0,210546,128,0,210589:0:0:0:0:
320,0,210719,1,0,0:0:0:0:
448,0,210719,128,0,210776:0:0:0:0:
64,0,210776,1,0,0:0:0:0:
192,0,210805,1,0,0:0:0:0:
448,0,210834,1,0,0:0:0:0:
320,0,210891,1,0,0:0:0:0:
64,0,210949,128,0,211006:0:0:0:0:
192,0,210977,1,0,0:0:0:0:
448,0,211006,1,0,0:0:0:0:
64,0,211064,1,0,0:0:0:0:
320,0,211064,1,0,0:0:0:0:
192,0,211150,1,0,0:0:0:0:
448,0,211179,128,0,211236:0:0:0:0:
64,0,211236,1,0,0:0:0:0:
320,0,211322,1,0,0:0:0:0:
448,0,211322,1,0,0:0:0:0:
64,0,211408,128,0,211466:0:0:0:0:
192,0,211466,1,0,0:0:0:0:
320,0,211523,1,0,0:0:0:0:
448,0,211581,1,0,0:0:0:0:
320,0,211638,128,0,211696:0:0:0:0:
192,0,211696,1,0,0:0:0:0:
64,0,211753,1,0,0:0:0:0:
448,0,211753,1,0,0:0:0:0:
192,0,211868,128,0,211926:0:0:0:0:
64,0,211926,1,0,0:0:0:0:
320,0,211983,1,0,0:0:0:0:
192,0,212041,1,0,0:0:0:0:
64,0,212098,128,0,212156:0:0:0:0:
448,0,212098,1,0,0:0:0:0:
320,0,212184,1,0,0:0:0:0:
448,0,212213,1,0,0:0:0:0:
192,0,212271,1,0,0:0:0:0:
448,0,212328,1,0,0:0:0:0:
64,0,212443,1,0,0:0:0:0:
320,0,212443,1,0,0:0:0:0:
192,0,212486,1,0,0:0:0:0:
448,0,212529,128,0,212572:0:0:0:0:
320,0,212572,1,0,0:0:0:0:
192,0,212615,1,0,0:0:0:0:
64,0,212658,128,0,212702:0:0:0:0:
320,0,212702,1,0,0:0:0:0:
448,0,212702,1,0,0:0:0:0:
64,0,212788,128,0,212831:0:0:0:0:
192,0,212831,1,0,0:0:0:0:
320,0,212874,1,0,0:0:0:0:
448,0,212917,1,0,0:0:0:0:
64,0,212960,1,0,0:0:0:0:
192,0,212960,1,0,0:0:0:0:
320,0,213133,128,0,213176:0:0:0:0:
448,0,213161,1,0,0:0:0:0:
64,0,213190,1,0,0:0:0:0:
192,0,213219,1,0,0:0:0:0:
320,0,213248,1,0,0:0:0:0:
448,0,213276,1,0,0:0:0:0:
64,0,213305,1,0,0:0:0:0:
192,0,213334,1,0,0:0:0:0:
320,0,213362,1,0,0:0:0:0:
448,0,213391,1,0,0:0:0:0:
64,0,213420,1,0,0:0:0:0:
192,0,213449,1,0,0:0:0:0:
320,0,213477,1,0,0:0:0:0:
448,0,213477,1,0,0:0:0:0:
64,0,213535,1,0,0:0:0:0:
192,0,213592,1,0,0:0:0:0:
320,0,213650,128,0,213693:0:0:0:0:
64,0,213822,1,0,0:0:0:0:
192,0,213822,128,0,213865:0:0:0:0:
448,0,213995,128,0,214038:0:0:0:0:
320,0,214038,1,0,0:0:0:0:
192,0,214081,1,0,0:0:0:0:
448,0,214081,1,0,0:0:0:0:
64,0,214124,1,0,0:0:0:0:
320,0,214167,1,0,0:0:0:0:
448,0,214225,1,0,0:0:0:0:
64,0,214282,1,0,0:0:0:0:
192,0,214339,128,0,214383:0:0:0:0:
192,0,214512,1,0,0:0:0:0:
448,0,214512,128,0,214555:0:0:0:0:
64,0,214555,1,0,0:0:0:0:
320,0,214598,1,0,0:0:0:0:
192,0,214641,1,0,0:0:0:0:
448,0,214684,128,0,214727:0:0:0:0:
64,0,214727,1,0,0:0:0:0:
320,0,214771,1,0,0:0:0:0:
192,0,214814,1,0,0:0:0:0:
64,0,214857,1,0,0:0:0:0:
448,0,214857,1,0,0:0:0:0:
320,0,214943,1,0,0:0:0:0:
320,0,215029,128,0,215072:0:0:0:0:
320,0,215115,1,0,0:0:0:0:
64,0,215202,1,0,0:0:0:0:
192,0,215202,128,0,215245:0:0:0:0:
448,0,215245,1,0,0:0:0:0:
320,0,215288,1,0,0:0:0:0:
192,0,215331,1,0,0:0:0:0:
64,0,215374,128,0,215417:0:0:0:0:
320,0,215460,1,0,0:0:0:0:
448,0,215460,1,0,0:0:0:0:
64,0,215546,1,0,0:0:0:0:
192,0,215589,1,0,0:0:0:0:
320,0,215633,1,0,0:0:0:0:
448,0,215676,1,0,0:0:0:0:
64,0,215719,1,0,0:0:0:0:
192,0,215719,128,0,215762:0:0:0:0:
64,0,215891,1,0,0:0:0:0:
448,0,215891,128,0,215934:0:0:0:0:
320,0,215949,1,0,0:0:0:0:
192,0,216006,1,0,0:0:0:0:
64,0,216064,128,0,216107:0:0:0:0:
320,0,216121,1,0,0:0:0:0:
192,0,216179,1,0,0:0:0:0:
64,0,216236,1,0,0:0:0:0:
448,0,216236,1,0,0:0:0:0:
192,0,216293,1,0,0:0:0:0:
320,0,216351,1,0,0:0:0:0:
448,0,216408,128,0,216452:0:0:0:0:
192,0,216495,1,0,0:0:0:0:
320,0,216581,128,0,216624:0:0:0:0:
448,0,216581,1,0,0:0:0:0:
64,0,216753,128,0,216796:0:0:0:0:
64,0,216839,1,0,0:0:0:0:
448,0,216839,1,0,0:0:0:0:
192,0,216926,1,0,0:0:0:0:
320,0,216969,1,0,0:0:0:0:
448,0,217012,1,0,0:0:0:0:
64,0,217055,1,0,0:0:0:0:
192,0,217098,128,0,217141:0:0:0:0:
320,0,217156,1,0,0:0:0:0:
448,0,217213,1,0,0:0:0:0:
64,0,217271,128,0,217314:0:0:0:0:
192,0,217271,1,0,0:0:0:0:
448,0,217328,1,0,0:0:0:0:
320,0,217385,1,0,0:0:0:0:
192,0,217443,128,0,217486:0:0:0:0:
64,0,217500,1,0,0:0:0:0:
320,0,217558,1,0,0:0:0:0:
192,0,217615,1,0,0:0:0:0:
448,0,217615,1,0,0:0:0:0:
320,0,217788,128,0,217831:0:0:0:0:
448,0,217831,1,0,0:0:0:0:
192,0,217874,1,0,0:0:0:0:
64,0,217960,128,0,218003:0:0:0:0:
320,0,217960,1,0,0:0:0:0:
448,0,218003,1,0,0:0:0:0:
192,0,218046,1,0,0:0:0:0:
64,0,218089,1,0,0:0:0:0:
320,0,218133,128,0,218176:0:0:0:0:
192,0,218219,1,0,0:0:0:0:
448,0,218219,1,0,0:0:0:0:
64,0,218305,1,0,0:0:0:0:
192,0,218362,1,0,0:0:0:0:
320,0,218420,1,0,0:0:0:0:
64,0,218477,1,0,0:0:0:0:
448,0,218477,128,0,218521:0:0:0:0:
320,0,218650,128,0,218693:0:0:0:0:
448,0,218650,1,0,0:0:0:0:
64,0,218693,1,0,0:0:0:0:
192,0,218736,1,0,0:0:0:0:
320,0,218779,1,0,0:0:0:0:
448,0,218822,128,0,218865:0:0:0:0:
64,0,218865,1,0,0:0:0:0:
192,0,218908,1,0,0:0:0:0:
320,0,218952,1,0,0:0:0:0:
64,0,218995,128,0,219038:0:0:0:0:
448,0,218995,1,0,0:0:0:0:
192,0,219038,1,0,0:0:0:0:
320,0,219081,1,0,0:0:0:0:
448,0,219124,1,0,0:0:0:0:
192,0,219167,128,0,219210:0:0:0:0:
64,0,219210,1,0,0:0:0:0:
448,0,219253,1,0,0:0:0:0:
320,0,219296,1,0,0:0:0:0:
192,0,219339,128,0,219383:0:0:0:0:
64,0,219383,1,0,0:0:0:0:
448,0,219426,1,0,0:0:0:0:
320,0,219469,1,0,0:0:0:0:
192,0,219512,128,0,219555:0:0:0:0:
448,0,219555,1,0,0:0:0:0:
320,0,219598,1,0,0:0:0:0:
64,0,219641,1,0,0:0:0:0:
448,0,219684,1,0,0:0:0:0:
192,0,219727,1,0,0:0:0:0:
320,0,219771,1,0,0:0:0:0:
64,0,219814,1,0,0:0:0:0:
192,0,219857,128,0,219900:0:0:0:0:
448,0,219900,1,0,0:0:0:0:
320,0,219943,1,0,0:0:0:0:
192,0,219986,1,0,0:0:0:0:
64,0,220029,128,0,220374:0:0:0:0:
192,0,220202,128,0,220245:0:0:0:0:
192,0,220374,128,0,220417:0:0:0:0:
320,0,220417,1,0,0:0:0:0:
448,0,220460,1,0,0:0:0:0:
64,0,220503,1,0,0:0:0:0:
192,0,220546,128,0,220589:0:0:0:0:
320,0,220589,1,0,0:0:0:0:
64,0,220633,1,0,0:0:0:0:
448,0,220676,1,0,0:0:0:0:
192,0,220719,128,0,220762:0:0:0:0:
320,0,220762,1,0,0:0:0:0:
64,0,220805,1,0,0:0:0:0:
448,0,220848,1,0,0:0:0:0:
320,0,220891,128,0,220934:0:0:0:0:
64,0,220934,1,0,0:0:0:0:
192,0,220977,1,0,0:0:0:0:
448,0,221021,1,0,0:0:0:0:
320,0,221064,1,0,0:0:0:0:
64,0,221107,1,0,0:0:0:0:
192,0,221150,1,0,0:0:0:0:
320,0,221193,1,0,0:0:0:0:
448,0,221236,128,0,221279:0:0:0:0:
192,0,221279,1,0,0:0:0:0:
64,0,221322,1,0,0:0:0:0:
448,0,221365,1,0,0:0:0:0:
320,0,221408,128,0,221753:0:0:0:0:
192,0,221581,128,0,221624:0:0:0:0:
64,0,221753,1,0,0:0:0:0:
448,0,221753,1,0,0:0:0:0:
192,0,221796,1,0,0:0:0:0:
64,0,221926,1,0,0:0:0:0:
192,0,221926,1,0,0:0:0:0:
64,0,222098,1,0,0:0:0:0:
448,0,222098,1,0,0:0:0:0:
320,0,222141,1,0,0:0:0:0:
320,0,222271,1,0,0:0:0:0:
448,0,222271,1,0,0:0:0:0:
64,0,222443,1,0,0:0:0:0:
448,0,222443,1,0,0:0:0:0:
192,0,222486,1,0,0:0:0:0:
64,0,222615,1,0,0:0:0:0:
192,0,222615,1,0,0:0:0:0:
64,0,222788,1,0,0:0:0:0:
448,0,222788,1,0,0:0:0:0:
320,0,222831,1,0,0:0:0:0:
320,0,222960,1,0,0:0:0:0:
448,0,222960,1,0,0:0:0:0:
64,0,223133,1,0,0:0:0:0:
192,0,223133,1,0,0:0:0:0:
320,0,223219,1,0,0:0:0:0:
448,0,223219,1,0,0:0:0:0:
320,0,223305,1,0,0:0:0:0:
448,0,223305,1,0,0:0:0:0:
320,0,223391,1,0,0:0:0:0:
448,0,223391,1,0,0:0:0:0:
64,0,223477,1,0,0:0:0:0:
192,0,223477,1,0,0:0:0:0:
320,0,223564,1,0,0:0:0:0:
448,0,223564,1,0,0:0:0:0:
320,0,223650,1,0,0:0:0:0:
448,0,223650,1,0,0:0:0:0:
320,0,223736,1,0,0:0:0:0:
448,0,223736,1,0,0:0:0:0:
64,0,223822,1,0,0:0:0:0:
192,0,223822,1,0,0:0:0:0:
320,0,223908,1,0,0:0:0:0:
448,0,223908,1,0,0:0:0:0:
320,0,223995,1,0,0:0:0:0:
448,0,223995,1,0,0:0:0:0:
320,0,224081,1,0,0:0:0:0:
448,0,224081,1,0,0:0:0:0:
64,0,224167,128,0,224339:0:0:0:0:
192,0,224167,128,0,224512:0:0:0:0:
64,0,224512,1,0,0:0:0:0:
320,0,224512,1,0,0:0:0:0:
448,0,224512,1,0,0:0:0:0:
192,0,224555,1,0,0:0:0:0:
320,0,224598,1,0,0:0:0:0:
192,0,224641,1,0,0:0:0:0:
448,0,224684,1,0,0:0:0:0:
320,0,224727,1,0,0:0:0:0:
192,0,224771,1,0,0:0:0:0:
64,0,224814,1,0,0:0:0:0:
320,0,224857,1,0,0:0:0:0:
448,0,224857,1,0,0:0:0:0:
192,0,225029,1,0,0:0:0:0:
64,0,225115,1,0,0:0:0:0:
192,0,225115,1,0,0:0:0:0:
320,0,225158,1,0,0:0:0:0:
448,0,225202,1,0,0:0:0:0:
192,0,225288,1,0,0:0:0:0:
448,0,225374,1,0,0:0:0:0:
320,0,225417,1,0,0:0:0:0:
192,0,225460,1,0,0:0:0:0:
64,0,225546,1,0,0:0:0:0:
448,0,225546,1,0,0:0:0:0:
320,0,225719,1,0,0:0:0:0:
64,0,225891,1,0,0:0:0:0:
192,0,225891,1,0,0:0:0:0:
320,0,225920,1,0,0:0:0:0:
448,0,225949,1,0,0:0:0:0:
64,0,225977,1,0,0:0:0:0:
192,0,226021,1,0,0:0:0:0:
320,0,226064,1,0,0:0:0:0:
448,0,226121,1,0,0:0:0:0:
64,0,226179,1,0,0:0:0:0:
192,0,226236,1,0,0:0:0:0:
320,0,226236,1,0,0:0:0:0:
448,0,226279,1,0,0:0:0:0:
320,0,226322,1,0,0:0:0:0:
192,0,226365,1,0,0:0:0:0:
64,0,226408,1,0,0:0:0:0:
320,0,226452,1,0,0:0:0:0:
192,0,226495,1,0,0:0:0:0:
448,0,226495,1,0,0:0:0:0:
64,0,226538,1,0,0:0:0:0:
320,0,226581,1,0,0:0:0:0:
448,0,226638,1,0,0:0:0:0:
192,0,226696,1,0,0:0:0:0:
64,0,226753,1,0,0:0:0:0:
320,0,226753,1,0,0:0:0:0:
448,0,226839,1,0,0:0:0:0:
64,0,226926,1,0,0:0:0:0:
192,0,226926,1,0,0:0:0:0:
448,0,226969,1,0,0:0:0:0:
320,0,227012,1,0,0:0:0:0:
192,0,227055,1,0,0:0:0:0:
64,0,227098,1,0,0:0:0:0:
320,0,227184,1,0,0:0:0:0:
192,0,227271,1,0,0:0:0:0:
448,0,227271,1,0,0:0:0:0:
320,0,227314,1,0,0:0:0:0:
320,0,227443,1,0,0:0:0:0:
192,0,227486,1,0,0:0:0:0:
64,0,227615,1,0,0:0:0:0:
320,0,227615,1,0,0:0:0:0:
448,0,227788,1,0,0:0:0:0:
320,0,227874,1,0,0:0:0:0:
448,0,227874,1,0,0:0:0:0:
192,0,227917,1,0,0:0:0:0:
64,0,227960,1,0,0:0:0:0:
320,0,228046,1,0,0:0:0:0:
64,0,228133,1,0,0:0:0:0:
192,0,228176,1,0,0:0:0:0:
320,0,228219,1,0,0:0:0:0:
64,0,228305,1,0,0:0:0:0:
448,0,228305,1,0,0:0:0:0:
192,0,228348,1,0,0:0:0:0:
320,0,228391,1,0,0:0:0:0:
448,0,228434,1,0,0:0:0:0:
64,0,228477,1,0,0:0:0:0:
192,0,228521,1,0,0:0:0:0:
320,0,228564,1,0,0:0:0:0:
448,0,228607,1,0,0:0:0:0:
64,0,228650,1,0,0:0:0:0:
192,0,228650,128,0,228765:0:0:0:0:
320,0,228707,1,0,0:0:0:0:
448,0,228765,1,0,0:0:0:0:
192,0,228822,128,0,228937:0:0:0:0:
320,0,228880,1,0,0:0:0:0:
448,0,228937,1,0,0:0:0:0:
64,0,228995,1,0,0:0:0:0:
320,0,228995,1,0,0:0:0:0:
192,0,229038,1,0,0:0:0:0:
448,0,229081,1,0,0:0:0:0:
320,0,229124,1,0,0:0:0:0:
192,0,229167,1,0,0:0:0:0:
64,0,229253,1,0,0:0:0:0:
448,0,229253,1,0,0:0:0:0:
448,0,229339,1,0,0:0:0:0:
320,0,229426,1,0,0:0:0:0:
192,0,229512,1,0,0:0:0:0:
448,0,229512,1,0,0:0:0:0:
64,0,229598,1,0,0:0:0:0:
192,0,229684,128,0,229943:0:0:0:0:
320,0,229684,128,0,229857:0:0:0:0:
448,0,229684,128,0,229771:0:0:0:0:
64,0,229684,128,0,230029:0:0:0:0:
320,0,230029,1,0,0:0:0:0:
448,0,230029,1,0,0:0:0:0:
192,0,230072,1,0,0:0:0:0:
64,0,230115,1,0,0:0:0:0:
192,0,230158,1,0,0:0:0:0:
320,0,230202,1,0,0:0:0:0:
448,0,230245,1,0,0:0:0:0:
64,0,230288,1,0,0:0:0:0:
192,0,230331,1,0,0:0:0:0:
320,0,230374,1,0,0:0:0:0:
448,0,230374,1,0,0:0:0:0:
64,0,230546,1,0,0:0:0:0:
64,0,230633,1,0,0:0:0:0:
448,0,230633,1,0,0:0:0:0:
192,0,230676,1,0,0:0:0:0:
320,0,230719,1,0,0:0:0:0:
64,0,230805,1,0,0:0:0:0:
192,0,230891,1,0,0:0:0:0:
320,0,230934,1,0,0:0:0:0:
448,0,230977,1,0,0:0:0:0:
192,0,231064,1,0,0:0:0:0:
320,0,231064,1,0,0:0:0:0:
192,0,231236,1,0,0:0:0:0:
64,0,231408,1,0,0:0:0:0:
192,0,231408,1,0,0:0:0:0:
448,0,231437,1,0,0:0:0:0:
320,0,231466,1,0,0:0:0:0:
64,0,231495,1,0,0:0:0:0:
192,0,231538,1,0,0:0:0:0:
448,0,231581,1,0,0:0:0:0:
320,0,231638,1,0,0:0:0:0:
192,0,231696,1,0,0:0:0:0:
64,0,231753,1,0,0:0:0:0:
448,0,231753,1,0,0:0:0:0:
192,0,231796,1,0,0:0:0:0:
320,0,231839,1,0,0:0:0:0:
448,0,231883,1,0,0:0:0:0:
192,0,231926,1,0,0:0:0:0:
320,0,231969,1,0,0:0:0:0:
64,0,232012,1,0,0:0:0:0:
448,0,232012,1,0,0:0:0:0:
192,0,232055,1,0,0:0:0:0:
320,0,232098,1,0,0:0:0:0:
192,0,232156,1,0,0:0:0:0:
320,0,232213,1,0,0:0:0:0:
64,0,232271,1,0,0:0:0:0:
448,0,232271,1,0,0:0:0:0:
320,0,232357,1,0,0:0:0:0:
64,0,232443,1,0,0:0:0:0:
192,0,232443,1,0,0:0:0:0:
320,0,232486,1,0,0:0:0:0:
448,0,232529,1,0,0:0:0:0:
64,0,232572,1,0,0:0:0:0:
192,0,232615,1,0,0:0:0:0:
320,0,232702,1,0,0:0:0:0:
64,0,232788,1,0,0:0:0:0:
448,0,232788,1,0,0:0:0:0:
192,0,232874,1,0,0:0:0:0:
448,0,232917,1,0,0:0:0:0:
320,0,232960,1,0,0:0:0:0:
64,0,233003,1,0,0:0:0:0:
192,0,233046,1,0,0:0:0:0:
64,0,233133,1,0,0:0:0:0:
320,0,233133,1,0,0:0:0:0:
320,0,233219,1,0,0:0:0:0:
192,0,233305,1,0,0:0:0:0:
64,0,233391,1,0,0:0:0:0:
448,0,233391,1,0,0:0:0:0:
320,0,233434,1,0,0:0:0:0:
192,0,233477,1,0,0:0:0:0:
64,0,233564,128,0,233779:0:0:0:0:
192,0,233650,1,0,0:0:0:0:
320,0,233736,1,0,0:0:0:0:
192,0,233822,1,0,0:0:0:0:
448,0,233822,1,0,0:0:0:0:
64,0,233865,1,0,0:0:0:0:
448,0,233995,1,0,0:0:0:0:
320,0,234052,1,0,0:0:0:0:
192,0,234110,1,0,0:0:0:0:
64,0,234167,1,0,0:0:0:0:
448,0,234167,1,0,0:0:0:0:
192,0,234225,1,0,0:0:0:0:
320,0,234282,1,0,0:0:0:0:
448,0,234339,1,0,0:0:0:0:
320,0,234397,1,0,0:0:0:0:
192,0,234454,1,0,0:0:0:0:
64,0,234512,1,0,0:0:0:0:
448,0,234512,1,0,0:0:0:0:
320,0,234598,1,0,0:0:0:0:
320,0,234684,1,0,0:0:0:0:
192,0,234771,1,0,0:0:0:0:
320,0,234771,1,0,0:0:0:0:
64,0,234857,1,0,0:0:0:0:
192,0,234914,1,0,0:0:0:0:
320,0,234972,1,0,0:0:0:0:
64,0,235029,1,0,0:0:0:0:
448,0,235029,1,0,0:0:0:0:
320,0,235087,1,0,0:0:0:0:
192,0,235144,1,0,0:0:0:0:
64,0,235202,1,0,0:0:0:0:
448,0,235202,1,0,0:0:0:0:
64,0,235288,1,0,0:0:0:0:
320,0,235374,1,0,0:0:0:0:
320,0,235460,1,0,0:0:0:0:
64,0,235546,1,0,0:0:0:0:
192,0,235546,1,0,0:0:0:0:
448,0,235546,1,0,0:0:0:0:
320,0,235589,1,0,0:0:0:0:
192,0,235633,1,0,0:0:0:0:
320,0,235676,1,0,0:0:0:0:
64,0,235719,1,0,0:0:0:0:
192,0,235762,1,0,0:0:0:0:
320,0,235805,1,0,0:0:0:0:
448,0,235848,1,0,0:0:0:0:
64,0,235891,1,0,0:0:0:0:
192,0,235891,1,0,0:0:0:0:
448,0,236064,1,0,0:0:0:0:
64,0,236150,1,0,0:0:0:0:
448,0,236150,1,0,0:0:0:0:
320,0,236193,1,0,0:0:0:0:
192,0,236236,1,0,0:0:0:0:
448,0,236322,1,0,0:0:0:0:
320,0,236408,1,0,0:0:0:0:
192,0,236452,1,0,0:0:0:0:
64,0,236495,1,0,0:0:0:0:
320,0,236581,1,0,0:0:0:0:
448,0,236581,1,0,0:0:0:0:
192,0,236753,1,0,0:0:0:0:
64,0,236926,1,0,0:0:0:0:
320,0,236926,1,0,0:0:0:0:
192,0,236954,1,0,0:0:0:0:
448,0,236983,1,0,0:0:0:0:
320,0,237012,1,0,0:0:0:0:
64,0,237055,1,0,0:0:0:0:
192,0,237098,1,0,0:0:0:0:
448,0,237156,1,0,0:0:0:0:
320,0,237213,1,0,0:0:0:0:
64,0,237271,1,0,0:0:0:0:
192,0,237271,1,0,0:0:0:0:
448,0,237314,1,0,0:0:0:0:
320,0,237357,1,0,0:0:0:0:
64,0,237400,1,0,0:0:0:0:
192,0,237443,1,0,0:0:0:0:
448,0,237486,1,0,0:0:0:0:
64,0,237529,1,0,0:0:0:0:
320,0,237529,1,0,0:0:0:0:
192,0,237572,1,0,0:0:0:0:
448,0,237615,1,0,0:0:0:0:
320,0,237673,1,0,0:0:0:0:
64,0,237730,1,0,0:0:0:0:
192,0,237788,1,0,0:0:0:0:
448,0,237788,1,0,0:0:0:0:
320,0,237874,1,0,0:0:0:0:
64,0,237960,1,0,0:0:0:0:
192,0,237960,1,0,0:0:0:0:
448,0,238003,1,0,0:0:0:0:
320,0,238046,1,0,0:0:0:0:
192,0,238089,1,0,0:0:0:0:
64,0,238133,1,0,0:0:0:0:
448,0,238219,1,0,0:0:0:0:
192,0,238305,1,0,0:0:0:0:
320,0,238305,1,0,0:0:0:0:
64,0,238348,1,0,0:0:0:0:
64,0,238477,1,0,0:0:0:0:
192,0,238521,1,0,0:0:0:0:
320,0,238650,1,0,0:0:0:0:
448,0,238650,1,0,0:0:0:0:
64,0,238822,1,0,0:0:0:0:
64,0,238908,1,0,0:0:0:0:
320,0,238908,1,0,0:0:0:0:
192,0,238952,1,0,0:0:0:0:
448,0,238995,1,0,0:0:0:0:
448,0,239167,1,0,0:0:0:0:
192,0,239210,1,0,0:0:0:0:
320,0,239253,1,0,0:0:0:0:
64,0,239339,1,0,0:0:0:0:
192,0,239339,1,0,0:0:0:0:
320,0,239383,1,0,0:0:0:0:
448,0,239426,1,0,0:0:0:0:
192,0,239469,1,0,0:0:0:0:
64,0,239512,1,0,0:0:0:0:
448,0,239555,1,0,0:0:0:0:
320,0,239598,1,0,0:0:0:0:
192,0,239641,1,0,0:0:0:0:
64,0,239684,1,0,0:0:0:0:
448,0,239684,128,0,239799:0:0:0:0:
192,0,239742,1,0,0:0:0:0:
320,0,239799,1,0,0:0:0:0:
448,0,239857,128,0,239972:0:0:0:0:
192,0,239914,1,0,0:0:0:0:
320,0,239972,1,0,0:0:0:0:
64,0,240029,1,0,0:0:0:0:
192,0,240029,1,0,0:0:0:0:
448,0,240072,1,0,0:0:0:0:
320,0,240115,1,0,0:0:0:0:
192,0,240158,1,0,0:0:0:0:
448,0,240202,1,0,0:0:0:0:
64,0,240288,1,0,0:0:0:0:
320,0,240288,1,0,0:0:0:0:
64,0,240374,1,0,0:0:0:0:
192,0,240460,1,0,0:0:0:0:
320,0,240546,1,0,0:0:0:0:
448,0,240546,1,0,0:0:0:0:
64,0,240633,1,0,0:0:0:0:
64,0,240719,128,0,240805:0:0:0:0:
192,0,240719,128,0,240891:0:0:0:0:
320,0,240719,128,0,240977:0:0:0:0:
448,0,240719,128,0,241064:0:0:0:0:
64,0,241064,1,0,0:0:0:0:
192,0,241064,1,0,0:0:0:0:
320,0,241107,1,0,0:0:0:0:
448,0,241150,1,0,0:0:0:0:
320,0,241193,1,0,0:0:0:0:
192,0,241236,1,0,0:0:0:0:
64,0,241279,1,0,0:0:0:0:
448,0,241322,1,0,0:0:0:0:
320,0,241365,1,0,0:0:0:0:
64,0,241408,1,0,0:0:0:0:
192,0,241408,1,0,0:0:0:0:
320,0,241581,1,0,0:0:0:0:
320,0,241667,1,0,0:0:0:0:
448,0,241667,1,0,0:0:0:0:
64,0,241710,1,0,0:0:0:0:
192,0,241753,1,0,0:0:0:0:
320,0,241839,1,0,0:0:0:0:
192,0,241926,1,0,0:0:0:0:
64,0,241969,1,0,0:0:0:0:
320,0,242012,1,0,0:0:0:0:
192,0,242098,1,0,0:0:0:0:
448,0,242098,1,0,0:0:0:0:
192,0,242271,1,0,0:0:0:0:
320,0,242443,1,0,0:0:0:0:
448,0,242443,1,0,0:0:0:0:
64,0,242472,1,0,0:0:0:0:
192,0,242500,1,0,0:0:0:0:
448,0,242529,1,0,0:0:0:0:
320,0,242572,1,0,0:0:0:0:
64,0,242615,1,0,0:0:0:0:
192,0,242673,1,0,0:0:0:0:
320,0,242730,1,0,0:0:0:0:
64,0,242788,1,0,0:0:0:0:
448,0,242788,1,0,0:0:0:0:
192,0,242831,1,0,0:0:0:0:
320,0,242874,1,0,0:0:0:0:
64,0,242917,1,0,0:0:0:0:
448,0,242960,1,0,0:0:0:0:
192,0,243003,1,0,0:0:0:0:
64,0,243046,1,0,0:0:0:0:
320,0,243046,1,0,0:0:0:0:
448,0,243089,1,0,0:0:0:0:
192,0,243133,1,0,0:0:0:0:
320,0,243190,1,0,0:0:0:0:
192,0,243248,1,0,0:0:0:0:
64,0,243305,1,0,0:0:0:0:
448,0,243305,1,0,0:0:0:0:
320,0,243391,1,0,0:0:0:0:
64,0,243477,1,0,0:0:0:0:
192,0,243477,1,0,0:0:0:0:
448,0,243521,1,0,0:0:0:0:
320,0,243564,1,0,0:0:0:0:
64,0,243607,1,0,0:0:0:0:
192,0,243650,1,0,0:0:0:0:
320,0,243736,1,0,0:0:0:0:
448,0,243823,1,0,0:0:0:0:
320,0,243823,1,0,0:0:0:0:
192,0,243823,1,0,0:0:0:0:
64,0,243823,128,0,244512:0:0:0:0:
192,0,244512,128,0,245202:0:0:0:0:
64,0,245202,128,0,245374:0:0:0:0:
448,0,245202,128,0,246581:0:0:0:0:
192,0,245374,128,0,245719:0:0:0:0:
64,0,245719,128,0,245762:0:0:0:0:
192,0,245805,1,0,0:0:0:0:
320,0,245891,1,0,0:0:0:0:
192,0,245977,1,0,0:0:0:0:
64,0,246064,1,0,0:0:0:0:
320,0,246150,1,0,0:0:0:0:
192,0,246236,1,0,0:0:0:0:
64,0,246322,1,0,0:0:0:0:
192,0,246408,128,0,246452:0:0:0:0:
320,0,246495,1,0,0:0:0:0:
64,0,246581,128,0,246667:0:0:0:0:
192,0,246610,128,0,246696:0:0:0:0:
320,0,246638,128,0,246897:0:0:0:0:
448,0,246667,128,0,246926:0:0:0:0:
64,0,246753,1,0,0:0:0:0:
192,0,246926,1,0,0:0:0:0:
448,0,247098,1,0,0:0:0:0:
320,0,247184,1,0,0:0:0:0:
192,0,247242,1,0,0:0:0:0:
64,0,247271,1,0,0:0:0:0:
448,0,247271,1,0,0:0:0:0:
64,0,247443,128,0,247615:0:0:0:0:
192,0,247500,1,0,0:0:0:0:
320,0,247558,1,0,0:0:0:0:
192,0,247615,128,0,247960:0:0:0:0:
320,0,247673,1,0,0:0:0:0:
448,0,247730,1,0,0:0:0:0:
64,0,247788,1,0,0:0:0:0:
320,0,247845,1,0,0:0:0:0:
448,0,247903,1,0,0:0:0:0:
320,0,248305,1,0,0:0:0:0:
448,0,248305,1,0,0:0:0:0:
192,0,248348,1,0,0:0:0:0:
64,0,248391,1,0,0:0:0:0:
320,0,248434,1,0,0:0:0:0:
448,0,248477,1,0,0:0:0:0:
320,0,248564,1,0,0:0:0:0:
64,0,248650,1,0,0:0:0:0:
192,0,248650,1,0,0:0:0:0:
448,0,248822,128,0,248952:0:0:0:0:
320,0,248865,128,0,248952:0:0:0:0:
192,0,248908,128,0,248952:0:0:0:0:
448,0,249081,128,0,249210:0:0:0:0:
320,0,249124,128,0,249210:0:0:0:0:
192,0,249167,128,0,249210:0:0:0:0:
192,0,249339,1,0,0:0:0:0:
320,0,249339,1,0,0:0:0:0:
448,0,249339,1,0,0:0:0:0:
64,0,249383,1,0,0:0:0:0:
192,0,249426,1,0,0:0:0:0:
320,0,249469,1,0,0:0:0:0:
448,0,249512,1,0,0:0:0:0:
64,0,249555,1,0,0:0:0:0:
192,0,249598,1,0,0:0:0:0:
320,0,249641,1,0,0:0:0:0:
448,0,249684,1,0,0:0:0:0:
320,0,249742,1,0,0:0:0:0:
192,0,249799,1,0,0:0:0:0:
64,0,249857,1,0,0:0:0:0:
192,0,249943,1,0,0:0:0:0:
320,0,250029,1,0,0:0:0:0:
448,0,250029,1,0,0:0:0:0:
192,0,250202,128,0,250316:0:0:0:0:
448,0,250259,1,0,0:0:0:0:
320,0,250316,1,0,0:0:0:0:
192,0,250374,128,0,250489:0:0:0:0:
448,0,250431,1,0,0:0:0:0:
320,0,250489,1,0,0:0:0:0:
192,0,250546,128,0,250661:0:0:0:0:
448,0,250604,1,0,0:0:0:0:
320,0,250661,1,0,0:0:0:0:
64,0,250884,128,0,250891:0:0:0:0:
192,0,251064,1,0,0:0:0:0:
320,0,251064,1,0,0:0:0:0:
64,0,251121,1,0,0:0:0:0:
448,0,251150,1,0,0:0:0:0:
192,0,251179,1,0,0:0:0:0:
320,0,251236,1,0,0:0:0:0:
192,0,251293,1,0,0:0:0:0:
448,0,251322,1,0,0:0:0:0:
64,0,251351,1,0,0:0:0:0:
192,0,251408,1,0,0:0:0:0:
320,0,251408,1,0,0:0:0:0:
320,0,251538,1,0,0:0:0:0:
192,0,251581,1,0,0:0:0:0:
64,0,251624,1,0,0:0:0:0:
448,0,251667,1,0,0:0:0:0:
448,0,251753,1,0,0:0:0:0:
320,0,251839,1,0,0:0:0:0:
320,0,251926,128,0,252098:0:0:0:0:
192,0,252012,1,0,0:0:0:0:
64,0,252098,128,0,252271:0:0:0:0:
192,0,252098,128,0,252400:0:0:0:0:
448,0,252098,128,0,252529:0:0:0:0:
320,0,252271,1,0,0:0:0:0:
64,0,252443,1,0,0:0:0:0:
192,0,252615,1,0,0:0:0:0:
448,0,252673,1,0,0:0:0:0:
320,0,252730,1,0,0:0:0:0:
192,0,252788,1,0,0:0:0:0:
448,0,252788,1,0,0:0:0:0:
64,0,252816,1,0,0:0:0:0:
64,0,253046,1,0,0:0:0:0:
192,0,253075,1,0,0:0:0:0:
320,0,253104,1,0,0:0:0:0:
448,0,253133,1,0,0:0:0:0:
64,0,253161,1,0,0:0:0:0:
192,0,253190,1,0,0:0:0:0:
320,0,253219,1,0,0:0:0:0:
448,0,253248,1,0,0:0:0:0:
64,0,253276,1,0,0:0:0:0:
192,0,253305,1,0,0:0:0:0:
320,0,253334,1,0,0:0:0:0:
448,0,253362,1,0,0:0:0:0:
64,0,253391,1,0,0:0:0:0:
192,0,253420,1,0,0:0:0:0:
320,0,253449,1,0,0:0:0:0:
448,0,253477,128,0,254081:0:0:0:0:
192,0,253822,1,0,0:0:0:0:
320,0,253822,128,0,253908:0:0:0:0:
320,0,253995,128,0,254081:0:0:0:0:
64,0,254167,1,0,0:0:0:0:
320,0,254167,1,0,0:0:0:0:
448,0,254167,1,0,0:0:0:0:
192,0,254339,128,0,254469:0:0:0:0:
320,0,254383,128,0,254469:0:0:0:0:
448,0,254426,128,0,254469:0:0:0:0:
448,0,254684,128,0,254814:0:0:0:0:
320,0,254727,128,0,254814:0:0:0:0:
192,0,254771,128,0,254814:0:0:0:0:
320,0,254857,1,0,0:0:0:0:
448,0,254857,1,0,0:0:0:0:
192,0,254914,1,0,0:0:0:0:
64,0,254943,1,0,0:0:0:0:
448,0,254972,1,0,0:0:0:0:
320,0,255029,1,0,0:0:0:0:
64,0,255087,1,0,0:0:0:0:
192,0,255115,1,0,0:0:0:0:
320,0,255144,1,0,0:0:0:0:
448,0,255202,128,0,255374:0:0:0:0:
192,0,255374,1,0,0:0:0:0:
192,0,255546,1,0,0:0:0:0:
448,0,255546,1,0,0:0:0:0:
320,0,255719,128,0,255834:0:0:0:0:
64,0,255776,1,0,0:0:0:0:
192,0,255834,1,0,0:0:0:0:
320,0,255891,128,0,256064:0:0:0:0:
64,0,255949,1,0,0:0:0:0:
192,0,256006,1,0,0:0:0:0:
64,0,256121,1,0,0:0:0:0:
320,0,256150,128,0,256236:0:0:0:0:
192,0,256179,1,0,0:0:0:0:
448,0,256236,1,0,0:0:0:0:
64,0,256293,1,0,0:0:0:0:
192,0,256351,1,0,0:0:0:0:
320,0,256408,1,0,0:0:0:0:
64,0,256466,1,0,0:0:0:0:
192,0,256523,1,0,0:0:0:0:
320,0,256581,1,0,0:0:0:0:
448,0,256581,1,0,0:0:0:0:
64,0,256638,1,0,0:0:0:0:
192,0,256696,1,0,0:0:0:0:
448,0,256753,1,0,0:0:0:0:
320,0,256811,1,0,0:0:0:0:
64,0,256868,1,0,0:0:0:0:
192,0,256926,1,0,0:0:0:0:
448,0,256926,1,0,0:0:0:0:
320,0,256983,1,0,0:0:0:0:
64,0,257041,1,0,0:0:0:0:
448,0,257098,1,0,0:0:0:0:
320,0,257141,1,0,0:0:0:0:
192,0,257184,1,0,0:0:0:0:
64,0,257227,1,0,0:0:0:0:
448,0,257271,1,0,0:0:0:0:
320,0,257314,1,0,0:0:0:0:
192,0,257357,1,0,0:0:0:0:
64,0,257400,1,0,0:0:0:0:
448,0,257443,1,0,0:0:0:0:
320,0,257486,1,0,0:0:0:0:
192,0,257529,1,0,0:0:0:0:
64,0,257572,1,0,0:0:0:0:
448,0,257615,128,0,257960:0:0:0:0:
320,0,257644,128,0,257874:0:0:0:0:
192,0,257673,128,0,257788:0:0:0:0:
64,0,257788,1,0,0:0:0:0:
192,0,257960,1,0,0:0:0:0:
448,0,258133,1,0,0:0:0:0:
320,0,258219,1,0,0:0:0:0:
192,0,258276,1,0,0:0:0:0:
64,0,258305,1,0,0:0:0:0:
448,0,258305,1,0,0:0:0:0:
192,0,258477,128,0,258650:0:0:0:0:
320,0,258535,1,0,0:0:0:0:
448,0,258592,1,0,0:0:0:0:
320,0,258650,128,0,258995:0:0:0:0:
64,0,258707,1,0,0:0:0:0:
192,0,258765,1,0,0:0:0:0:
448,0,258822,1,0,0:0:0:0:
192,0,258880,1,0,0:0:0:0:
64,0,258937,1,0,0:0:0:0:
64,0,259339,1,0,0:0:0:0:
448,0,259339,128,0,259383:0:0:0:0:
192,0,259361,1,0,0:0:0:0:
320,0,259383,1,0,0:0:0:0:
320,0,259512,128,0,259555:0:0:0:0:
192,0,259533,1,0,0:0:0:0:
64,0,259555,1,0,0:0:0:0:
192,0,259684,1,0,0:0:0:0:
320,0,259684,1,0,0:0:0:0:
448,0,259684,1,0,0:0:0:0:
320,0,259857,128,0,259972:0:0:0:0:
64,0,259914,1,0,0:0:0:0:
192,0,259972,1,0,0:0:0:0:
320,0,260029,128,0,260144:0:0:0:0:
192,0,260087,1,0,0:0:0:0:
64,0,260144,1,0,0:0:0:0:
320,0,260202,128,0,260316:0:0:0:0:
64,0,260259,1,0,0:0:0:0:
192,0,260316,1,0,0:0:0:0:
64,0,260374,1,0,0:0:0:0:
320,0,260374,1,0,0:0:0:0:
192,0,260417,1,0,0:0:0:0:
448,0,260460,1,0,0:0:0:0:
320,0,260503,1,0,0:0:0:0:
192,0,260546,1,0,0:0:0:0:
64,0,260589,1,0,0:0:0:0:
448,0,260633,1,0,0:0:0:0:
320,0,260676,1,0,0:0:0:0:
192,0,260719,1,0,0:0:0:0:
64,0,260776,1,0,0:0:0:0:
192,0,260834,1,0,0:0:0:0:
320,0,260891,1,0,0:0:0:0:
448,0,260977,1,0,0:0:0:0:
64,0,261064,1,0,0:0:0:0:
192,0,261064,1,0,0:0:0:0:
192,0,261236,128,0,261351:0:0:0:0:
320,0,261293,1,0,0:0:0:0:
448,0,261351,1,0,0:0:0:0:
192,0,261408,128,0,261523:0:0:0:0:
448,0,261466,1,0,0:0:0:0:
320,0,261523,1,0,0:0:0:0:
192,0,261581,1,0,0:0:0:0:
192,0,261753,1,0,0:0:0:0:
64,0,261918,128,0,261926:0:0:0:0:
320,0,262098,1,0,0:0:0:0:
448,0,262098,128,0,262184:0:0:0:0:
192,0,262141,1,0,0:0:0:0:
64,0,262184,1,0,0:0:0:0:
448,0,262271,128,0,262357:0:0:0:0:
320,0,262314,1,0,0:0:0:0:
192,0,262357,1,0,0:0:0:0:
64,0,262443,1,0,0:0:0:0:
448,0,262443,1,0,0:0:0:0:
320,0,262572,1,0,0:0:0:0:
192,0,262615,1,0,0:0:0:0:
64,0,262658,1,0,0:0:0:0:
448,0,262702,1,0,0:0:0:0:
448,0,262788,1,0,0:0:0:0:
320,0,262874,1,0,0:0:0:0:
320,0,262960,128,0,263133:0:0:0:0:
192,0,263046,1,0,0:0:0:0:
64,0,263133,128,0,263305:0:0:0:0:
192,0,263133,128,0,263434:0:0:0:0:
448,0,263133,128,0,263564:0:0:0:0:
320,0,263305,128,0,263499:0:0:0:0:
64,0,263477,1,0,0:0:0:0:
192,0,263650,128,0,263693:0:0:0:0:
448,0,263736,1,0,0:0:0:0:
320,0,263779,1,0,0:0:0:0:
192,0,263822,1,0,0:0:0:0:
448,0,263822,1,0,0:0:0:0:
64,0,263851,1,0,0:0:0:0:
320,0,264081,1,0,0:0:0:0:
448,0,264110,1,0,0:0:0:0:
64,0,264138,1,0,0:0:0:0:
192,0,264167,1,0,0:0:0:0:
320,0,264196,1,0,0:0:0:0:
448,0,264225,1,0,0:0:0:0:
64,0,264253,1,0,0:0:0:0:
192,0,264282,1,0,0:0:0:0:
320,0,264311,1,0,0:0:0:0:
448,0,264339,1,0,0:0:0:0:
64,0,264368,1,0,0:0:0:0:
192,0,264397,1,0,0:0:0:0:
320,0,264426,1,0,0:0:0:0:
448,0,264454,1,0,0:0:0:0:
64,0,264483,1,0,0:0:0:0:
192,0,264512,128,0,265115:0:0:0:0:
64,0,264857,128,0,264943:0:0:0:0:
448,0,264857,1,0,0:0:0:0:
64,0,265029,128,0,265115:0:0:0:0:
64,0,265202,1,0,0:0:0:0:
192,0,265202,1,0,0:0:0:0:
320,0,265202,1,0,0:0:0:0:
448,0,265288,1,0,0:0:0:0:
320,0,265331,1,0,0:0:0:0:
192,0,265374,1,0,0:0:0:0:
64,0,265417,1,0,0:0:0:0:
448,0,265460,1,0,0:0:0:0:
320,0,265546,1,0,0:0:0:0:
64,0,265719,1,0,0:0:0:0:
192,0,265762,1,0,0:0:0:0:
320,0,265805,1,0,0:0:0:0:
448,0,265848,1,0,0:0:0:0:
64,0,265891,1,0,0:0:0:0:
192,0,265891,1,0,0:0:0:0:
448,0,265934,1,0,0:0:0:0:
320,0,265977,1,0,0:0:0:0:
192,0,266021,1,0,0:0:0:0:
64,0,266064,1,0,0:0:0:0:
448,0,266107,1,0,0:0:0:0:
320,0,266150,1,0,0:0:0:0:
192,0,266193,1,0,0:0:0:0:
64,0,266236,1,0,0:0:0:0:
192,0,266293,1,0,0:0:0:0:
320,0,266351,1,0,0:0:0:0:
448,0,266408,128,0,266495:0:0:0:0:
64,0,266581,1,0,0:0:0:0:
320,0,266581,1,0,0:0:0:0:
192,0,266753,128,0,266868:0:0:0:0:
448,0,266811,1,0,0:0:0:0:
320,0,266868,1,0,0:0:0:0:
192,0,266926,128,0,267041:0:0:0:0:
448,0,266983,1,0,0:0:0:0:
320,0,267041,1,0,0:0:0:0:
192,0,267098,128,0,267213:0:0:0:0:
448,0,267156,1,0,0:0:0:0:
320,0,267213,1,0,0:0:0:0:
192,0,267271,1,0,0:0:0:0:
64,0,267328,1,0,0:0:0:0:
320,0,267385,1,0,0:0:0:0:
192,0,267443,1,0,0:0:0:0:
64,0,267500,1,0,0:0:0:0:
320,0,267558,1,0,0:0:0:0:
192,0,267615,1,0,0:0:0:0:
448,0,267615,1,0,0:0:0:0:
64,0,267673,1,0,0:0:0:0:
320,0,267730,1,0,0:0:0:0:
448,0,267788,1,0,0:0:0:0:
64,0,267845,1,0,0:0:0:0:
192,0,267903,1,0,0:0:0:0:
320,0,267960,1,0,0:0:0:0:
448,0,267960,1,0,0:0:0:0:
64,0,268003,1,0,0:0:0:0:
192,0,268046,1,0,0:0:0:0:
320,0,268089,1,0,0:0:0:0:
64,0,268133,1,0,0:0:0:0:
192,0,268176,1,0,0:0:0:0:
320,0,268219,1,0,0:0:0:0:
448,0,268262,1,0,0:0:0:0:
192,0,268305,1,0,0:0:0:0:
64,0,268348,1,0,0:0:0:0:
448,0,268391,1,0,0:0:0:0:
320,0,268434,1,0,0:0:0:0:
192,0,268477,1,0,0:0:0:0:
64,0,268521,1,0,0:0:0:0:
448,0,268564,1,0,0:0:0:0:
320,0,268607,1,0,0:0:0:0:
64,0,268650,1,0,0:0:0:0:
192,0,268650,1,0,0:0:0:0:
320,0,268822,1,0,0:0:0:0:
64,0,268995,1,0,0:0:0:0:
448,0,269253,1,0,0:0:0:0:
192,0,269512,1,0,0:0:0:0:
448,0,269684,1,0,0:0:0:0:
320,0,269857,1,0,0:0:0:0:
64,0,270202,1,0,0:0:0:0:
192,0,270374,1,0,0:0:0:0:
320,0,270633,1,0,0:0:0:0:
448,0,270805,1,0,0:0:0:0:
192,0,270977,1,0,0:0:0:0:
320,0,271236,1,0,0:0:0:0:
64,0,271581,1,0,0:0:0:0:
192,0,271753,1,0,0:0:0:0:
448,0,272012,1,0,0:0:0:0:
64,0,272271,1,0,0:0:0:0:
192,0,272443,1,0,0:0:0:0:
320,0,272615,1,0,0:0:0:0:
192,0,272960,1,0,0:0:0:0:
64,0,273133,1,0,0:0:0:0:
320,0,273391,1,0,0:0:0:0:
448,0,273564,1,0,0:0:0:0:
192,0,273736,1,0,0:0:0:0:
320,0,273995,1,0,0:0:0:0:
64,0,274339,1,0,0:0:0:0:
192,0,274512,1,0,0:0:0:0:
448,0,274771,1,0,0:0:0:0:
320,0,275029,1,0,0:0:0:0:
64,0,275202,1,0,0:0:0:0:
192,0,275374,1,0,0:0:0:0:
64,0,275719,1,0,0:0:0:0:
192,0,275891,1,0,0:0:0:0:
320,0,276150,1,0,0:0:0:0:
448,0,276322,1,0,0:0:0:0:
192,0,276495,1,0,0:0:0:0:
320,0,276753,1,0,0:0:0:0:
64,0,277098,1,0,0:0:0:0:
192,0,277271,1,0,0:0:0:0:
448,0,277529,1,0,0:0:0:0:
64,0,277788,1,0,0:0:0:0:
192,0,277960,1,0,0:0:0:0:
320,0,278133,1,0,0:0:0:0:
192,0,278477,1,0,0:0:0:0:
64,0,278650,1,0,0:0:0:0:
320,0,278908,1,0,0:0:0:0:
448,0,279081,1,0,0:0:0:0:
64,0,279253,1,0,0:0:0:0:
192,0,279512,1,0,0:0:0:0:
448,0,279684,1,0,0:0:0:0:
448,0,279800,1,0,0:0:0:0:
320,0,280029,1,0,0:0:0:0:
320,0,280374,1,0,0:0:0:0:
320,0,280489,1,0,0:0:0:0:
192,0,280719,1,0,0:0:0:0:
192,0,281064,1,0,0:0:0:0:
192,0,281179,1,0,0:0:0:0:
64,0,281408,1,0,0:0:0:0:
64,0,281753,1,0,0:0:0:0:
64,0,281869,1,0,0:0:0:0:
192,0,282098,1,0,0:0:0:0:
192,0,282443,1,0,0:0:0:0:
192,0,282558,1,0,0:0:0:0:
320,0,282788,1,0,0:0:0:0:
320,0,283133,1,0,0:0:0:0:
320,0,283248,1,0,0:0:0:0:
192,0,283477,1,0,0:0:0:0:
192,0,283822,1,0,0:0:0:0:
192,0,283938,1,0,0:0:0:0:
64,0,284167,1,0,0:0:0:0:
64,0,284512,1,0,0:0:0:0:
64,0,284627,1,0,0:0:0:0:
192,0,284857,1,0,0:0:0:0:
448,0,285202,1,0,0:0:0:0:
320,0,285317,1,0,0:0:0:0:
448,0,285546,1,0,0:0:0:0:
320,0,285891,1,0,0:0:0:0:
192,0,286006,1,0,0:0:0:0:
320,0,286236,1,0,0:0:0:0:
192,0,286581,1,0,0:0:0:0:
64,0,286696,1,0,0:0:0:0:
192,0,286926,1,0,0:0:0:0:
320,0,287271,1,0,0:0:0:0:
192,0,287386,1,0,0:0:0:0:
320,0,287615,1,0,0:0:0:0:
64,0,287960,1,0,0:0:0:0:
192,0,288075,1,0,0:0:0:0:
64,0,288305,1,0,0:0:0:0:
192,0,288650,1,0,0:0:0:0:
320,0,288765,1,0,0:0:0:0:
192,0,288995,1,0,0:0:0:0:
320,0,289339,1,0,0:0:0:0:
448,0,289455,1,0,0:0:0:0:
320,0,289684,1,0,0:0:0:0:
192,0,290029,1,0,0:0:0:0:
320,0,290144,1,0,0:0:0:0:
192,0,290374,1,0,0:0:0:0:
64,0,290719,128,0,291408:0:0:0:0:
320,0,291365,1,0,0:0:0:0:
448,0,291408,1,0,0:0:0:0:
192,0,291753,128,0,293391:0:0:0:0:
320,0,296236,128,0,296926:0:0:0:0:
64,0,296839,1,0,0:0:0:0:
192,0,296883,1,0,0:0:0:0:
448,0,296969,1,0,0:0:0:0:
192,0,297271,128,0,298908:0:0:0:0:
64,0,301753,128,0,302443:0:0:0:0:
320,0,302400,1,0,0:0:0:0:
448,0,302443,1,0,0:0:0:0:
192,0,302788,128,0,304426:0:0:0:0:
320,0,307271,128,0,307960:0:0:0:0:
64,0,307874,1,0,0:0:0:0:
192,0,307917,1,0,0:0:0:0:
448,0,308003,1,0,0:0:0:0:
192,0,308305,128,0,309943:0:0:0:0:
