osu file format v14

[General]
AudioFilename: audio.mp3
AudioLeadIn: 0
PreviewTime: 107557
Countdown: 0
SampleSet: None
StackLeniency: 0.7
Mode: 3
LetterboxInBreaks: 0
SpecialStyle: 0
WidescreenStoryboard: 1

[Editor]
DistanceSpacing: 0.8
BeatDivisor: 4
GridSize: 16
TimelineZoom: 1.4

[Metadata]
Title:crystallized
TitleUnicode:crystallized
Artist:Camellia
ArtistUnicode:かめりあ
Creator:Blocko
Version:Hard
Source:
Tags:C89 Comiket 89 CTCD-012 KamelCamellia cametek
BeatmapID:1149076
BeatmapSetID:472088

[Difficulty]
HPDrainRate:7.5
CircleSize:7
OverallDifficulty:7.5
ApproachRate:7.5
SliderMultiplier:1
SliderTickRate:1

[Events]
//Background and Video events
0,0,"crystals.jpg",0,0
//Break Periods
//Storyboard Layer 0 (Background)
//Storyboard Layer 1 (Fail)
//Storyboard Layer 2 (Pass)
//Storyboard Layer 3 (Foreground)
//Storyboard Sound Samples

[TimingPoints]
8937,344.827586206897,4,2,0,5,1,0

[HitObjects]
36,192,8937,5,0,0:0:0:0:
329,192,8937,1,0,0:0:0:0:
182,192,8937,1,0,0:0:0:0:
109,192,11695,1,0,0:0:0:0:
329,192,11695,1,0,0:0:0:0:
402,192,11695,1,0,0:0:0:0:
182,192,13074,1,0,0:0:0:0:
256,192,13074,1,0,0:0:0:0:
402,192,13074,1,0,0:0:0:0:
109,192,13764,1,0,0:0:0:0:
256,192,13764,1,0,0:0:0:0:
329,192,14454,1,0,0:0:0:0:
475,192,14454,1,0,0:0:0:0:
182,192,14454,1,0,0:0:0:0:
109,192,17212,1,0,0:0:0:0:
36,192,17212,1,0,0:0:0:0:
329,192,17212,1,0,0:0:0:0:
109,192,18592,1,0,0:0:0:0:
256,192,18592,1,0,0:0:0:0:
475,192,18592,1,0,0:0:0:0:
36,192,19971,1,0,0:0:0:0:
329,192,19971,1,0,0:0:0:0:
182,192,19971,1,0,0:0:0:0:
182,192,20316,1,0,0:0:0:0:
182,192,20661,1,0,0:0:0:0:
182,192,21005,1,0,0:0:0:0:
182,192,21350,1,0,0:0:0:0:
329,192,21523,1,0,0:0:0:0:
182,192,21695,1,0,0:0:0:0:
182,192,22040,1,0,0:0:0:0:
182,192,22385,1,0,0:0:0:0:
109,192,22730,1,0,0:0:0:0:
329,192,22730,1,0,0:0:0:0:
402,192,22730,1,0,0:0:0:0:
329,192,23074,1,0,0:0:0:0:
329,192,23419,1,0,0:0:0:0:
182,192,23592,1,0,0:0:0:0:
329,192,23764,1,0,0:0:0:0:
182,192,24109,1,0,0:0:0:0:
256,192,24109,1,0,0:0:0:0:
402,192,24109,1,0,0:0:0:0:
402,192,24454,1,0,0:0:0:0:
109,192,24799,1,0,0:0:0:0:
256,192,24799,1,0,0:0:0:0:
109,192,25143,1,0,0:0:0:0:
329,192,25488,1,0,0:0:0:0:
475,192,25488,1,0,0:0:0:0:
182,192,25488,1,0,0:0:0:0:
36,192,25661,1,0,0:0:0:0:
329,192,25833,1,0,0:0:0:0:
329,192,26178,1,0,0:0:0:0:
329,192,26523,1,0,0:0:0:0:
329,192,26868,1,0,0:0:0:0:
329,192,27212,1,0,0:0:0:0:
329,192,27557,1,0,0:0:0:0:
182,192,27730,1,0,0:0:0:0:
329,192,27902,1,0,0:0:0:0:
109,192,28247,1,0,0:0:0:0:
36,192,28247,1,0,0:0:0:0:
329,192,28247,1,0,0:0:0:0:
36,192,28592,1,0,0:0:0:0:
36,192,28937,1,0,0:0:0:0:
36,192,29281,1,0,0:0:0:0:
329,192,29454,1,0,0:0:0:0:
36,192,29626,1,0,0:0:0:0:
475,192,29626,1,0,0:0:0:0:
256,192,29626,128,0,31005:0:0:0:0:
182,192,29799,1,0,0:0:0:0:
475,192,29971,1,0,0:0:0:0:
475,192,30316,1,0,0:0:0:0:
475,192,30661,1,0,0:0:0:0:
36,192,31005,1,0,0:0:0:0:
475,192,31005,1,0,0:0:0:0:
109,192,31005,1,0,0:0:0:0:
182,192,31178,1,0,0:0:0:0:
329,192,31350,1,0,0:0:0:0:
402,192,31350,1,0,0:0:0:0:
109,192,31868,1,0,0:0:0:0:
402,192,32040,1,0,0:0:0:0:
329,192,32040,1,0,0:0:0:0:
109,192,32385,1,0,0:0:0:0:
182,192,32557,1,0,0:0:0:0:
329,192,32902,1,0,0:0:0:0:
402,192,32902,1,0,0:0:0:0:
109,192,33247,1,0,0:0:0:0:
329,192,33419,1,0,0:0:0:0:
402,192,33419,1,0,0:0:0:0:
182,192,33592,1,0,0:0:0:0:
36,192,33764,1,0,0:0:0:0:
109,192,33937,1,0,0:0:0:0:
256,192,34109,1,0,0:0:0:0:
402,192,34109,1,0,0:0:0:0:
36,192,34454,1,0,0:0:0:0:
256,192,34626,1,0,0:0:0:0:
402,192,34626,1,0,0:0:0:0:
36,192,35143,1,0,0:0:0:0:
109,192,35316,1,0,0:0:0:0:
256,192,35488,1,0,0:0:0:0:
402,192,35488,1,0,0:0:0:0:
36,192,35747,1,0,0:0:0:0:
109,192,36005,1,0,0:0:0:0:
256,192,36178,1,0,0:0:0:0:
402,192,36178,1,0,0:0:0:0:
182,192,36350,1,0,0:0:0:0:
109,192,36523,1,0,0:0:0:0:
182,192,36695,1,0,0:0:0:0:
329,192,36868,1,0,0:0:0:0:
475,192,36868,1,0,0:0:0:0:
109,192,37385,1,0,0:0:0:0:
329,192,37557,1,0,0:0:0:0:
475,192,37557,1,0,0:0:0:0:
109,192,37902,1,0,0:0:0:0:
182,192,38074,1,0,0:0:0:0:
329,192,38419,1,0,0:0:0:0:
475,192,38419,1,0,0:0:0:0:
109,192,38764,1,0,0:0:0:0:
329,192,38937,1,0,0:0:0:0:
475,192,38937,1,0,0:0:0:0:
256,192,39109,1,0,0:0:0:0:
36,192,39281,1,0,0:0:0:0:
182,192,39454,1,0,0:0:0:0:
402,192,39626,1,0,0:0:0:0:
475,192,39626,1,0,0:0:0:0:
36,192,40143,1,0,0:0:0:0:
402,192,40316,1,0,0:0:0:0:
475,192,40316,1,0,0:0:0:0:
402,192,40661,1,0,0:0:0:0:
475,192,40661,1,0,0:0:0:0:
182,192,40833,1,0,0:0:0:0:
36,192,41005,1,0,0:0:0:0:
475,192,41178,1,0,0:0:0:0:
402,192,41178,1,0,0:0:0:0:
402,192,41437,1,0,0:0:0:0:
475,192,41437,1,0,0:0:0:0:
182,192,41523,1,0,0:0:0:0:
402,192,41695,1,0,0:0:0:0:
475,192,41695,1,0,0:0:0:0:
182,192,41868,1,0,0:0:0:0:
402,192,41954,1,0,0:0:0:0:
475,192,41954,1,0,0:0:0:0:
109,192,42040,1,0,0:0:0:0:
329,192,42212,1,0,0:0:0:0:
36,192,42385,1,0,0:0:0:0:
182,192,42385,1,0,0:0:0:0:
402,192,42902,1,0,0:0:0:0:
182,192,43074,1,0,0:0:0:0:
36,192,43074,1,0,0:0:0:0:
402,192,43419,1,0,0:0:0:0:
329,192,43592,1,0,0:0:0:0:
182,192,43937,1,0,0:0:0:0:
36,192,43937,1,0,0:0:0:0:
402,192,44281,1,0,0:0:0:0:
182,192,44454,1,0,0:0:0:0:
36,192,44454,1,0,0:0:0:0:
475,192,44799,1,0,0:0:0:0:
402,192,44971,1,0,0:0:0:0:
256,192,45143,1,0,0:0:0:0:
109,192,45143,1,0,0:0:0:0:
475,192,45661,1,0,0:0:0:0:
256,192,45833,1,0,0:0:0:0:
109,192,45833,1,0,0:0:0:0:
475,192,46178,1,0,0:0:0:0:
402,192,46350,1,0,0:0:0:0:
109,192,46523,1,0,0:0:0:0:
256,192,46523,1,0,0:0:0:0:
475,192,46781,1,0,0:0:0:0:
402,192,47040,1,0,0:0:0:0:
256,192,47212,1,0,0:0:0:0:
109,192,47212,1,0,0:0:0:0:
402,192,47385,1,0,0:0:0:0:
475,192,47557,1,0,0:0:0:0:
329,192,47730,1,0,0:0:0:0:
109,192,47902,1,0,0:0:0:0:
182,192,47902,1,0,0:0:0:0:
402,192,48419,1,0,0:0:0:0:
182,192,48592,1,0,0:0:0:0:
109,192,48592,1,0,0:0:0:0:
402,192,48937,1,0,0:0:0:0:
329,192,49109,1,0,0:0:0:0:
256,192,49281,1,0,0:0:0:0:
182,192,49454,1,0,0:0:0:0:
109,192,49454,1,0,0:0:0:0:
402,192,49799,1,0,0:0:0:0:
182,192,49971,1,0,0:0:0:0:
109,192,49971,1,0,0:0:0:0:
329,192,50143,1,0,0:0:0:0:
36,192,50316,1,0,0:0:0:0:
109,192,50402,1,0,0:0:0:0:
182,192,50488,1,0,0:0:0:0:
256,192,50574,1,0,0:0:0:0:
475,192,50661,1,0,0:0:0:0:
402,192,50747,1,0,0:0:0:0:
329,192,50833,1,0,0:0:0:0:
256,192,50919,1,0,0:0:0:0:
36,192,51005,1,0,0:0:0:0:
109,192,51092,1,0,0:0:0:0:
182,192,51178,1,0,0:0:0:0:
256,192,51264,1,0,0:0:0:0:
475,192,51350,1,0,0:0:0:0:
402,192,51437,1,0,0:0:0:0:
329,192,51523,1,0,0:0:0:0:
256,192,51609,1,0,0:0:0:0:
109,192,51695,128,0,52385:0:0:0:0:
182,192,51695,128,0,52385:0:0:0:0:
329,192,52040,128,0,52385:0:0:0:0:
402,192,52040,128,0,52385:0:0:0:0:
256,192,52385,128,0,53074:0:0:0:0:
182,192,53074,128,0,53764:0:0:0:0:
36,192,53074,128,0,53764:0:0:0:0:
475,192,53074,128,0,53764:0:0:0:0:
256,192,53764,128,0,54454:0:0:0:0:
36,192,54454,128,0,54971:0:0:0:0:
329,192,54454,128,0,54971:0:0:0:0:
109,192,54454,1,0,0:0:0:0:
182,192,54971,128,0,55488:0:0:0:0:
475,192,54971,128,0,55488:0:0:0:0:
402,192,54971,1,0,0:0:0:0:
109,192,55488,128,0,56178:0:0:0:0:
256,192,55488,128,0,56178:0:0:0:0:
402,192,55488,128,0,56178:0:0:0:0:
329,192,56178,1,0,0:0:0:0:
182,192,56350,1,0,0:0:0:0:
402,192,56523,1,0,0:0:0:0:
109,192,56695,1,0,0:0:0:0:
36,192,57212,128,0,57730:0:0:0:0:
182,192,57212,128,0,57730:0:0:0:0:
256,192,57212,1,0,0:0:0:0:
329,192,57730,128,0,58247:0:0:0:0:
475,192,57730,128,0,58247:0:0:0:0:
256,192,57730,1,0,0:0:0:0:
109,192,58247,128,0,58937:0:0:0:0:
256,192,58247,128,0,58937:0:0:0:0:
402,192,58247,128,0,58937:0:0:0:0:
329,192,58937,128,0,59109:0:0:0:0:
36,192,59109,128,0,59281:0:0:0:0:
475,192,59281,128,0,59454:0:0:0:0:
182,192,59454,128,0,59626:0:0:0:0:
256,192,59626,128,0,59971:0:0:0:0:
36,192,59971,128,0,60488:0:0:0:0:
109,192,59971,128,0,60488:0:0:0:0:
329,192,59971,1,0,0:0:0:0:
402,192,60488,128,0,61005:0:0:0:0:
475,192,60488,128,0,61005:0:0:0:0:
182,192,60488,1,0,0:0:0:0:
329,192,61005,128,0,61695:0:0:0:0:
256,192,61005,128,0,61695:0:0:0:0:
182,192,61005,128,0,61695:0:0:0:0:
36,192,61695,128,0,62040:0:0:0:0:
475,192,62040,128,0,62212:0:0:0:0:
182,192,62212,128,0,62730:0:0:0:0:
256,192,62212,1,0,0:0:0:0:
402,192,62385,1,0,0:0:0:0:
329,192,62385,1,0,0:0:0:0:
36,192,62730,128,0,63419:0:0:0:0:
109,192,62730,128,0,63419:0:0:0:0:
475,192,62730,1,0,0:0:0:0:
329,192,63074,1,0,0:0:0:0:
475,192,63419,128,0,64109:0:0:0:0:
402,192,63419,128,0,64109:0:0:0:0:
182,192,63592,1,0,0:0:0:0:
256,192,63764,1,0,0:0:0:0:
109,192,64109,128,0,64799:0:0:0:0:
329,192,64109,128,0,64799:0:0:0:0:
36,192,64109,128,0,64799:0:0:0:0:
256,192,64799,128,0,65057:0:0:0:0:
256,192,65143,128,0,65230:0:0:0:0:
256,192,65316,128,0,65402:0:0:0:0:
109,192,65488,128,0,66005:0:0:0:0:
402,192,65488,128,0,66005:0:0:0:0:
36,192,65488,1,0,0:0:0:0:
182,192,66005,128,0,66523:0:0:0:0:
475,192,66005,128,0,66523:0:0:0:0:
256,192,66005,1,0,0:0:0:0:
256,192,66523,128,0,67212:0:0:0:0:
329,192,66523,128,0,67212:0:0:0:0:
36,192,66523,128,0,67212:0:0:0:0:
475,192,67212,128,0,67902:0:0:0:0:
402,192,67212,128,0,67902:0:0:0:0:
329,192,67902,128,0,68074:0:0:0:0:
182,192,68074,128,0,68247:0:0:0:0:
36,192,68247,128,0,68764:0:0:0:0:
402,192,68247,128,0,68764:0:0:0:0:
256,192,68247,1,0,0:0:0:0:
109,192,68764,128,0,69281:0:0:0:0:
475,192,68764,128,0,69281:0:0:0:0:
256,192,68764,1,0,0:0:0:0:
182,192,69281,128,0,69971:0:0:0:0:
256,192,69281,128,0,69971:0:0:0:0:
329,192,69281,128,0,69971:0:0:0:0:
36,192,69971,128,0,70316:0:0:0:0:
329,192,70316,128,0,70488:0:0:0:0:
182,192,70488,128,0,70833:0:0:0:0:
475,192,70833,1,0,0:0:0:0:
109,192,71005,128,0,71523:0:0:0:0:
402,192,71005,128,0,71523:0:0:0:0:
256,192,71005,1,0,0:0:0:0:
475,192,71523,128,0,72040:0:0:0:0:
36,192,71523,128,0,72040:0:0:0:0:
256,192,71523,1,0,0:0:0:0:
182,192,72040,128,0,75143:0:0:0:0:
329,192,72040,128,0,75143:0:0:0:0:
256,192,72040,1,0,0:0:0:0:
109,192,72557,1,0,0:0:0:0:
256,192,72730,1,0,0:0:0:0:
402,192,73247,1,0,0:0:0:0:
256,192,73419,1,0,0:0:0:0:
109,192,73937,1,0,0:0:0:0:
256,192,74109,1,0,0:0:0:0:
402,192,74626,1,0,0:0:0:0:
256,192,74799,1,0,0:0:0:0:
36,192,75143,1,0,0:0:0:0:
256,192,75143,1,0,0:0:0:0:
475,192,75143,1,0,0:0:0:0:
329,192,75488,1,0,0:0:0:0:
475,192,75488,1,0,0:0:0:0:
182,192,75833,1,0,0:0:0:0:
36,192,75833,1,0,0:0:0:0:
256,192,76005,1,0,0:0:0:0:
329,192,76178,1,0,0:0:0:0:
475,192,76178,1,0,0:0:0:0:
36,192,76523,1,0,0:0:0:0:
109,192,76523,1,0,0:0:0:0:
402,192,76868,1,0,0:0:0:0:
475,192,76868,1,0,0:0:0:0:
36,192,77212,1,0,0:0:0:0:
109,192,77212,1,0,0:0:0:0:
256,192,77385,1,0,0:0:0:0:
402,192,77557,1,0,0:0:0:0:
475,192,77557,1,0,0:0:0:0:
109,192,77902,1,0,0:0:0:0:
182,192,77902,1,0,0:0:0:0:
329,192,78247,1,0,0:0:0:0:
402,192,78247,1,0,0:0:0:0:
109,192,78592,1,0,0:0:0:0:
182,192,78592,1,0,0:0:0:0:
256,192,78764,1,0,0:0:0:0:
329,192,78937,1,0,0:0:0:0:
402,192,78937,1,0,0:0:0:0:
36,192,79281,1,0,0:0:0:0:
182,192,79281,1,0,0:0:0:0:
329,192,79626,1,0,0:0:0:0:
475,192,79626,1,0,0:0:0:0:
36,192,79971,1,0,0:0:0:0:
182,192,79971,1,0,0:0:0:0:
256,192,80143,1,0,0:0:0:0:
329,192,80316,1,0,0:0:0:0:
475,192,80316,1,0,0:0:0:0:
36,192,80661,1,0,0:0:0:0:
182,192,80661,1,0,0:0:0:0:
329,192,80833,1,0,0:0:0:0:
109,192,81005,1,0,0:0:0:0:
256,192,81005,1,0,0:0:0:0:
402,192,81178,1,0,0:0:0:0:
182,192,81350,1,0,0:0:0:0:
329,192,81350,1,0,0:0:0:0:
475,192,81523,1,0,0:0:0:0:
402,192,81695,1,0,0:0:0:0:
256,192,81695,1,0,0:0:0:0:
109,192,81868,1,0,0:0:0:0:
329,192,82040,1,0,0:0:0:0:
475,192,82040,1,0,0:0:0:0:
182,192,82212,1,0,0:0:0:0:
402,192,82385,1,0,0:0:0:0:
256,192,82385,1,0,0:0:0:0:
109,192,82471,1,0,0:0:0:0:
182,192,82730,1,0,0:0:0:0:
329,192,82730,1,0,0:0:0:0:
36,192,82902,1,0,0:0:0:0:
256,192,83074,1,0,0:0:0:0:
109,192,83074,1,0,0:0:0:0:
402,192,83247,1,0,0:0:0:0:
36,192,83419,1,0,0:0:0:0:
475,192,83419,1,0,0:0:0:0:
109,192,83505,1,0,0:0:0:0:
182,192,83592,1,0,0:0:0:0:
256,192,83678,1,0,0:0:0:0:
475,192,83764,1,0,0:0:0:0:
36,192,83764,1,0,0:0:0:0:
402,192,83850,1,0,0:0:0:0:
329,192,83937,1,0,0:0:0:0:
256,192,84023,1,0,0:0:0:0:
36,192,84109,128,0,84799:0:0:0:0:
109,192,84109,128,0,84799:0:0:0:0:
475,192,84109,1,0,0:0:0:0:
402,192,84454,128,0,84799:0:0:0:0:
475,192,84454,128,0,84799:0:0:0:0:
182,192,84799,128,0,85661:0:0:0:0:
256,192,84799,128,0,85661:0:0:0:0:
329,192,84799,128,0,85661:0:0:0:0:
475,192,85661,1,0,0:0:0:0:
402,192,85747,1,0,0:0:0:0:
329,192,85833,1,0,0:0:0:0:
109,192,85919,1,0,0:0:0:0:
182,192,86005,1,0,0:0:0:0:
256,192,86092,1,0,0:0:0:0:
402,192,86178,1,0,0:0:0:0:
475,192,86178,1,0,0:0:0:0:
329,192,86178,1,0,0:0:0:0:
36,192,86178,1,0,0:0:0:0:
256,192,86350,1,0,0:0:0:0:
36,192,86523,1,0,0:0:0:0:
109,192,86523,1,0,0:0:0:0:
329,192,86695,1,0,0:0:0:0:
402,192,86695,1,0,0:0:0:0:
182,192,86868,1,0,0:0:0:0:
109,192,87040,1,0,0:0:0:0:
36,192,87040,1,0,0:0:0:0:
329,192,87212,1,0,0:0:0:0:
402,192,87212,1,0,0:0:0:0:
256,192,87385,1,0,0:0:0:0:
109,192,87557,1,0,0:0:0:0:
36,192,87557,1,0,0:0:0:0:
329,192,87730,1,0,0:0:0:0:
402,192,87730,1,0,0:0:0:0:
182,192,87902,1,0,0:0:0:0:
109,192,88074,1,0,0:0:0:0:
36,192,88074,1,0,0:0:0:0:
329,192,88247,1,0,0:0:0:0:
402,192,88247,1,0,0:0:0:0:
256,192,88419,1,0,0:0:0:0:
182,192,88592,1,0,0:0:0:0:
109,192,88592,1,0,0:0:0:0:
402,192,88764,1,0,0:0:0:0:
475,192,88764,1,0,0:0:0:0:
36,192,88937,128,0,89281:0:0:0:0:
109,192,88937,128,0,89281:0:0:0:0:
329,192,88937,1,0,0:0:0:0:
329,192,89109,1,0,0:0:0:0:
256,192,89281,1,0,0:0:0:0:
182,192,89281,1,0,0:0:0:0:
475,192,89281,128,0,89454:0:0:0:0:
402,192,89454,128,0,89626:0:0:0:0:
329,192,89626,128,0,89799:0:0:0:0:
256,192,89799,128,0,89971:0:0:0:0:
109,192,89799,1,0,0:0:0:0:
36,192,89971,128,0,90143:0:0:0:0:
402,192,89971,1,0,0:0:0:0:
475,192,89971,1,0,0:0:0:0:
109,192,90143,128,0,90316:0:0:0:0:
182,192,90316,128,0,90488:0:0:0:0:
256,192,90488,128,0,90661:0:0:0:0:
402,192,90488,1,0,0:0:0:0:
36,192,90661,1,0,0:0:0:0:
329,192,90661,1,0,0:0:0:0:
475,192,90661,1,0,0:0:0:0:
109,192,90747,1,0,0:0:0:0:
182,192,90833,1,0,0:0:0:0:
256,192,90919,1,0,0:0:0:0:
475,192,91005,1,0,0:0:0:0:
402,192,91092,1,0,0:0:0:0:
329,192,91178,1,0,0:0:0:0:
256,192,91264,1,0,0:0:0:0:
182,192,91350,128,0,91695:0:0:0:0:
36,192,91350,128,0,91695:0:0:0:0:
475,192,91350,1,0,0:0:0:0:
329,192,91523,1,0,0:0:0:0:
475,192,91695,1,0,0:0:0:0:
256,192,91695,1,0,0:0:0:0:
402,192,91695,1,0,0:0:0:0:
329,192,91868,1,0,0:0:0:0:
182,192,92040,1,0,0:0:0:0:
36,192,92040,1,0,0:0:0:0:
475,192,92212,1,0,0:0:0:0:
402,192,92212,1,0,0:0:0:0:
256,192,92385,1,0,0:0:0:0:
182,192,92557,1,0,0:0:0:0:
36,192,92557,1,0,0:0:0:0:
475,192,92730,1,0,0:0:0:0:
402,192,92730,1,0,0:0:0:0:
329,192,92902,1,0,0:0:0:0:
182,192,93074,1,0,0:0:0:0:
36,192,93074,1,0,0:0:0:0:
402,192,93247,1,0,0:0:0:0:
475,192,93247,1,0,0:0:0:0:
256,192,93419,1,0,0:0:0:0:
182,192,93592,1,0,0:0:0:0:
36,192,93592,1,0,0:0:0:0:
402,192,93764,1,0,0:0:0:0:
475,192,93764,1,0,0:0:0:0:
329,192,93937,1,0,0:0:0:0:
475,192,94109,1,0,0:0:0:0:
256,192,94109,1,0,0:0:0:0:
109,192,94281,1,0,0:0:0:0:
36,192,94281,1,0,0:0:0:0:
475,192,94454,128,0,94799:0:0:0:0:
402,192,94454,128,0,94799:0:0:0:0:
182,192,94454,1,0,0:0:0:0:
182,192,94626,1,0,0:0:0:0:
36,192,94799,128,0,95143:0:0:0:0:
109,192,94799,128,0,95143:0:0:0:0:
329,192,94799,1,0,0:0:0:0:
402,192,95143,1,0,0:0:0:0:
329,192,95230,1,0,0:0:0:0:
109,192,95316,1,0,0:0:0:0:
182,192,95402,1,0,0:0:0:0:
256,192,95488,1,0,0:0:0:0:
475,192,95488,128,0,95661:0:0:0:0:
36,192,95488,1,0,0:0:0:0:
402,192,95661,128,0,95833:0:0:0:0:
329,192,95833,128,0,96178:0:0:0:0:
109,192,96005,1,0,0:0:0:0:
36,192,96178,128,0,96350:0:0:0:0:
256,192,96178,128,0,96350:0:0:0:0:
475,192,96178,128,0,96350:0:0:0:0:
182,192,96523,128,0,96695:0:0:0:0:
36,192,96523,128,0,96695:0:0:0:0:
475,192,96695,1,0,0:0:0:0:
329,192,96781,1,0,0:0:0:0:
109,192,96868,128,0,97040:0:0:0:0:
182,192,96868,128,0,97040:0:0:0:0:
329,192,97040,128,0,97212:0:0:0:0:
402,192,97040,128,0,97212:0:0:0:0:
36,192,97212,1,0,0:0:0:0:
109,192,97212,1,0,0:0:0:0:
182,192,97212,1,0,0:0:0:0:
475,192,97212,1,0,0:0:0:0:
256,192,97385,1,0,0:0:0:0:
36,192,97557,1,0,0:0:0:0:
329,192,97557,1,0,0:0:0:0:
402,192,97730,1,0,0:0:0:0:
109,192,97730,1,0,0:0:0:0:
182,192,97902,1,0,0:0:0:0:
329,192,98074,1,0,0:0:0:0:
36,192,98074,1,0,0:0:0:0:
402,192,98247,1,0,0:0:0:0:
109,192,98247,1,0,0:0:0:0:
256,192,98419,1,0,0:0:0:0:
36,192,98592,1,0,0:0:0:0:
329,192,98592,1,0,0:0:0:0:
402,192,98764,1,0,0:0:0:0:
109,192,98764,1,0,0:0:0:0:
182,192,98937,1,0,0:0:0:0:
329,192,99109,1,0,0:0:0:0:
36,192,99109,1,0,0:0:0:0:
109,192,99281,1,0,0:0:0:0:
402,192,99281,1,0,0:0:0:0:
256,192,99454,1,0,0:0:0:0:
109,192,99626,1,0,0:0:0:0:
402,192,99626,1,0,0:0:0:0:
475,192,99799,1,0,0:0:0:0:
182,192,99799,1,0,0:0:0:0:
36,192,99971,128,0,100316:0:0:0:0:
109,192,99971,128,0,100316:0:0:0:0:
329,192,99971,1,0,0:0:0:0:
329,192,100143,1,0,0:0:0:0:
182,192,100316,1,0,0:0:0:0:
256,192,100316,128,0,100488:0:0:0:0:
329,192,100488,128,0,100661:0:0:0:0:
402,192,100661,128,0,100833:0:0:0:0:
475,192,100833,128,0,101005:0:0:0:0:
182,192,100833,1,0,0:0:0:0:
36,192,101005,128,0,101178:0:0:0:0:
256,192,101005,1,0,0:0:0:0:
329,192,101005,1,0,0:0:0:0:
109,192,101178,128,0,101350:0:0:0:0:
182,192,101350,128,0,101523:0:0:0:0:
256,192,101523,128,0,101695:0:0:0:0:
402,192,101523,1,0,0:0:0:0:
36,192,101695,1,0,0:0:0:0:
109,192,101695,1,0,0:0:0:0:
475,192,101695,1,0,0:0:0:0:
402,192,101781,1,0,0:0:0:0:
329,192,101868,1,0,0:0:0:0:
256,192,101954,1,0,0:0:0:0:
36,192,102040,1,0,0:0:0:0:
109,192,102126,1,0,0:0:0:0:
182,192,102212,1,0,0:0:0:0:
402,192,102212,1,0,0:0:0:0:
256,192,102299,1,0,0:0:0:0:
475,192,102385,128,0,102730:0:0:0:0:
329,192,102385,128,0,102730:0:0:0:0:
36,192,102385,1,0,0:0:0:0:
36,192,102557,1,0,0:0:0:0:
109,192,102730,1,0,0:0:0:0:
182,192,102730,1,0,0:0:0:0:
329,192,103074,1,0,0:0:0:0:
109,192,103074,1,0,0:0:0:0:
475,192,103074,1,0,0:0:0:0:
182,192,103247,1,0,0:0:0:0:
402,192,103247,1,0,0:0:0:0:
36,192,103419,1,0,0:0:0:0:
109,192,103592,1,0,0:0:0:0:
329,192,103592,1,0,0:0:0:0:
182,192,103764,1,0,0:0:0:0:
402,192,103764,1,0,0:0:0:0:
256,192,103937,1,0,0:0:0:0:
109,192,104109,1,0,0:0:0:0:
329,192,104109,1,0,0:0:0:0:
182,192,104281,1,0,0:0:0:0:
402,192,104281,1,0,0:0:0:0:
36,192,104454,1,0,0:0:0:0:
109,192,104626,1,0,0:0:0:0:
329,192,104626,1,0,0:0:0:0:
182,192,104799,1,0,0:0:0:0:
402,192,104799,1,0,0:0:0:0:
256,192,104971,1,0,0:0:0:0:
329,192,105143,1,0,0:0:0:0:
475,192,105143,1,0,0:0:0:0:
182,192,105316,1,0,0:0:0:0:
402,192,105316,1,0,0:0:0:0:
329,192,105488,1,0,0:0:0:0:
36,192,105488,128,0,105833:0:0:0:0:
109,192,105488,1,0,0:0:0:0:
256,192,105661,1,0,0:0:0:0:
402,192,105833,1,0,0:0:0:0:
182,192,105833,1,0,0:0:0:0:
475,192,105833,128,0,106178:0:0:0:0:
36,192,106178,128,0,106523:0:0:0:0:
256,192,106178,1,0,0:0:0:0:
329,192,106350,1,0,0:0:0:0:
475,192,106523,128,0,106868:0:0:0:0:
109,192,106523,1,0,0:0:0:0:
182,192,106523,1,0,0:0:0:0:
36,192,106868,128,0,107126:0:0:0:0:
329,192,106868,1,0,0:0:0:0:
329,192,107040,1,0,0:0:0:0:
109,192,107126,128,0,107385:0:0:0:0:
402,192,107212,1,0,0:0:0:0:
475,192,107212,1,0,0:0:0:0:
182,192,107385,128,0,107557:0:0:0:0:
329,192,107385,1,0,0:0:0:0:
36,192,107557,1,0,0:0:0:0:
256,192,107557,1,0,0:0:0:0:
475,192,107557,1,0,0:0:0:0:
36,192,108247,128,0,108937:0:0:0:0:
256,192,108247,128,0,108937:0:0:0:0:
475,192,108247,128,0,108937:0:0:0:0:
109,192,108937,1,0,0:0:0:0:
182,192,108937,1,0,0:0:0:0:
402,192,108937,128,0,109454:0:0:0:0:
256,192,109109,1,0,0:0:0:0:
182,192,109281,1,0,0:0:0:0:
109,192,109454,128,0,109971:0:0:0:0:
329,192,109454,1,0,0:0:0:0:
256,192,109626,1,0,0:0:0:0:
329,192,109799,1,0,0:0:0:0:
402,192,109971,128,0,110316:0:0:0:0:
182,192,109971,1,0,0:0:0:0:
256,192,110143,1,0,0:0:0:0:
36,192,110316,128,0,111005:0:0:0:0:
475,192,110316,128,0,111005:0:0:0:0:
109,192,110316,1,0,0:0:0:0:
182,192,111005,1,0,0:0:0:0:
329,192,111005,1,0,0:0:0:0:
256,192,111005,128,0,111350:0:0:0:0:
36,192,111695,128,0,111868:0:0:0:0:
402,192,111695,1,0,0:0:0:0:
475,192,111695,1,0,0:0:0:0:
182,192,111868,128,0,112040:0:0:0:0:
329,192,112040,128,0,112385:0:0:0:0:
109,192,112385,1,0,0:0:0:0:
36,192,112385,1,0,0:0:0:0:
475,192,112385,128,0,112557:0:0:0:0:
182,192,112557,1,0,0:0:0:0:
256,192,112730,1,0,0:0:0:0:
329,192,112902,1,0,0:0:0:0:
182,192,112988,1,0,0:0:0:0:
36,192,113074,1,0,0:0:0:0:
475,192,113074,1,0,0:0:0:0:
36,192,113419,1,0,0:0:0:0:
475,192,113419,1,0,0:0:0:0:
329,192,113592,1,0,0:0:0:0:
182,192,113592,1,0,0:0:0:0:
109,192,113764,128,0,114454:0:0:0:0:
256,192,113764,128,0,114454:0:0:0:0:
402,192,113764,128,0,114454:0:0:0:0:
36,192,114454,128,0,114971:0:0:0:0:
329,192,114454,1,0,0:0:0:0:
475,192,114454,1,0,0:0:0:0:
256,192,114626,1,0,0:0:0:0:
402,192,114799,1,0,0:0:0:0:
475,192,114971,128,0,115488:0:0:0:0:
182,192,114971,1,0,0:0:0:0:
256,192,115143,1,0,0:0:0:0:
109,192,115316,1,0,0:0:0:0:
36,192,115488,128,0,115833:0:0:0:0:
329,192,115488,1,0,0:0:0:0:
256,192,115661,1,0,0:0:0:0:
182,192,115833,1,0,0:0:0:0:
109,192,115833,128,0,116523:0:0:0:0:
402,192,115833,128,0,116523:0:0:0:0:
256,192,116523,1,0,0:0:0:0:
329,192,116523,128,0,116868:0:0:0:0:
256,192,116868,1,0,0:0:0:0:
182,192,116868,128,0,117212:0:0:0:0:
36,192,117212,1,0,0:0:0:0:
109,192,117212,1,0,0:0:0:0:
402,192,117212,1,0,0:0:0:0:
329,192,117385,1,0,0:0:0:0:
256,192,117557,1,0,0:0:0:0:
182,192,117730,1,0,0:0:0:0:
109,192,117902,1,0,0:0:0:0:
475,192,117902,128,0,118419:0:0:0:0:
402,192,117902,128,0,118419:0:0:0:0:
182,192,118419,128,0,118937:0:0:0:0:
329,192,118419,128,0,118937:0:0:0:0:
256,192,118419,1,0,0:0:0:0:
402,192,118937,1,0,0:0:0:0:
109,192,118937,128,0,119281:0:0:0:0:
36,192,118937,128,0,119281:0:0:0:0:
256,192,119281,1,0,0:0:0:0:
475,192,119281,1,0,0:0:0:0:
475,192,119971,128,0,120488:0:0:0:0:
36,192,119971,1,0,0:0:0:0:
402,192,119971,1,0,0:0:0:0:
256,192,120143,1,0,0:0:0:0:
109,192,120316,1,0,0:0:0:0:
402,192,120488,128,0,121005:0:0:0:0:
329,192,120488,1,0,0:0:0:0:
36,192,120488,1,0,0:0:0:0:
182,192,120661,1,0,0:0:0:0:
109,192,120833,1,0,0:0:0:0:
36,192,120833,1,0,0:0:0:0:
329,192,121005,128,0,121350:0:0:0:0:
182,192,121005,1,0,0:0:0:0:
256,192,121005,1,0,0:0:0:0:
109,192,121178,1,0,0:0:0:0:
36,192,121350,1,0,0:0:0:0:
256,192,121350,1,0,0:0:0:0:
475,192,121350,1,0,0:0:0:0:
109,192,121523,1,0,0:0:0:0:
182,192,121523,1,0,0:0:0:0:
329,192,121781,1,0,0:0:0:0:
402,192,121781,1,0,0:0:0:0:
109,192,122040,1,0,0:0:0:0:
36,192,122040,1,0,0:0:0:0:
182,192,122385,1,0,0:0:0:0:
402,192,122385,128,0,122730:0:0:0:0:
475,192,122385,128,0,122730:0:0:0:0:
109,192,122730,1,0,0:0:0:0:
256,192,122730,1,0,0:0:0:0:
329,192,122730,128,0,122902:0:0:0:0:
182,192,122902,128,0,123074:0:0:0:0:
329,192,123074,128,0,123247:0:0:0:0:
182,192,123247,128,0,123419:0:0:0:0:
36,192,123419,128,0,123592:0:0:0:0:
475,192,123419,1,0,0:0:0:0:
402,192,123419,1,0,0:0:0:0:
329,192,123592,1,0,0:0:0:0:
256,192,123764,1,0,0:0:0:0:
182,192,123937,1,0,0:0:0:0:
329,192,124023,1,0,0:0:0:0:
475,192,124109,1,0,0:0:0:0:
36,192,124109,1,0,0:0:0:0:
36,192,124454,1,0,0:0:0:0:
475,192,124454,1,0,0:0:0:0:
109,192,124626,1,0,0:0:0:0:
402,192,124626,1,0,0:0:0:0:
256,192,124799,128,0,125488:0:0:0:0:
182,192,124799,128,0,125488:0:0:0:0:
329,192,124799,128,0,125488:0:0:0:0:
475,192,125488,1,0,0:0:0:0:
36,192,125488,128,0,126005:0:0:0:0:
109,192,125488,1,0,0:0:0:0:
256,192,125661,1,0,0:0:0:0:
402,192,125833,1,0,0:0:0:0:
182,192,126005,1,0,0:0:0:0:
109,192,126005,128,0,126523:0:0:0:0:
475,192,126005,1,0,0:0:0:0:
329,192,126178,1,0,0:0:0:0:
402,192,126350,1,0,0:0:0:0:
475,192,126523,1,0,0:0:0:0:
256,192,126523,1,0,0:0:0:0:
182,192,126523,128,0,126868:0:0:0:0:
329,192,126695,1,0,0:0:0:0:
402,192,126868,1,0,0:0:0:0:
36,192,126868,128,0,127557:0:0:0:0:
109,192,126868,1,0,0:0:0:0:
475,192,127212,128,0,127557:0:0:0:0:
109,192,127557,1,0,0:0:0:0:
329,192,127557,1,0,0:0:0:0:
182,192,127730,1,0,0:0:0:0:
256,192,127902,1,0,0:0:0:0:
329,192,128074,1,0,0:0:0:0:
402,192,128247,1,0,0:0:0:0:
182,192,128247,1,0,0:0:0:0:
256,192,128419,1,0,0:0:0:0:
329,192,128592,1,0,0:0:0:0:
402,192,128764,1,0,0:0:0:0:
36,192,128937,1,0,0:0:0:0:
109,192,129023,1,0,0:0:0:0:
182,192,129109,1,0,0:0:0:0:
256,192,129195,1,0,0:0:0:0:
475,192,129281,1,0,0:0:0:0:
402,192,129368,1,0,0:0:0:0:
329,192,129454,1,0,0:0:0:0:
256,192,129540,1,0,0:0:0:0:
36,192,129626,1,0,0:0:0:0:
109,192,129712,1,0,0:0:0:0:
329,192,129799,1,0,0:0:0:0:
475,192,129799,1,0,0:0:0:0:
182,192,129885,1,0,0:0:0:0:
402,192,129971,1,0,0:0:0:0:
256,192,129971,1,0,0:0:0:0:
109,192,130057,1,0,0:0:0:0:
329,192,130143,1,0,0:0:0:0:
182,192,130143,1,0,0:0:0:0:
36,192,130230,1,0,0:0:0:0:
256,192,130316,1,0,0:0:0:0:
109,192,130316,1,0,0:0:0:0:
402,192,130316,1,0,0:0:0:0:
475,192,130316,1,0,0:0:0:0:
109,192,132730,1,0,0:0:0:0:
475,192,133074,1,0,0:0:0:0:
256,192,133074,1,0,0:0:0:0:
402,192,134971,1,0,0:0:0:0:
36,192,135488,1,0,0:0:0:0:
475,192,135833,1,0,0:0:0:0:
256,192,135833,1,0,0:0:0:0:
109,192,138247,1,0,0:0:0:0:
402,192,138592,1,0,0:0:0:0:
256,192,138592,1,0,0:0:0:0:
475,192,139626,1,0,0:0:0:0:
182,192,139971,1,0,0:0:0:0:
329,192,139971,1,0,0:0:0:0:
36,192,140661,1,0,0:0:0:0:
182,192,140661,1,0,0:0:0:0:
109,192,141350,1,0,0:0:0:0:
329,192,141350,1,0,0:0:0:0:
475,192,141350,1,0,0:0:0:0:
36,192,143764,1,0,0:0:0:0:
256,192,143764,1,0,0:0:0:0:
475,192,144109,1,0,0:0:0:0:
329,192,144109,1,0,0:0:0:0:
109,192,144109,1,0,0:0:0:0:
256,192,146005,1,0,0:0:0:0:
402,192,146005,1,0,0:0:0:0:
182,192,146350,1,0,0:0:0:0:
36,192,146350,1,0,0:0:0:0:
109,192,146868,1,0,0:0:0:0:
475,192,146868,1,0,0:0:0:0:
329,192,146868,1,0,0:0:0:0:
36,192,147385,1,0,0:0:0:0:
182,192,147557,1,0,0:0:0:0:
36,192,147730,1,0,0:0:0:0:
256,192,147902,1,0,0:0:0:0:
109,192,148074,1,0,0:0:0:0:
329,192,148247,1,0,0:0:0:0:
182,192,148419,1,0,0:0:0:0:
402,192,148592,1,0,0:0:0:0:
256,192,148764,1,0,0:0:0:0:
475,192,148937,1,0,0:0:0:0:
329,192,149109,1,0,0:0:0:0:
475,192,149281,1,0,0:0:0:0:
36,192,149281,1,0,0:0:0:0:
182,192,149454,1,0,0:0:0:0:
256,192,149626,1,0,0:0:0:0:
329,192,149712,1,0,0:0:0:0:
402,192,149799,1,0,0:0:0:0:
475,192,149885,1,0,0:0:0:0:
256,192,149971,1,0,0:0:0:0:
182,192,150057,1,0,0:0:0:0:
109,192,150143,1,0,0:0:0:0:
36,192,150230,1,0,0:0:0:0:
256,192,150316,1,0,0:0:0:0:
329,192,150402,1,0,0:0:0:0:
402,192,150488,1,0,0:0:0:0:
475,192,150574,1,0,0:0:0:0:
256,192,150661,1,0,0:0:0:0:
182,192,150747,1,0,0:0:0:0:
109,192,150833,1,0,0:0:0:0:
36,192,150919,1,0,0:0:0:0:
475,192,151005,128,0,151695:0:0:0:0:
402,192,151005,128,0,151695:0:0:0:0:
329,192,151350,128,0,151695:0:0:0:0:
109,192,151695,1,0,0:0:0:0:
182,192,151824,1,0,0:0:0:0:
256,192,151925,1,0,0:0:0:0:
329,192,152040,1,0,0:0:0:0:
402,192,152234,1,0,0:0:0:0:
182,192,152385,128,0,153074:0:0:0:0:
36,192,152385,128,0,153074:0:0:0:0:
475,192,152385,128,0,153074:0:0:0:0:
256,192,153074,128,0,153764:0:0:0:0:
36,192,153764,128,0,154281:0:0:0:0:
329,192,153764,128,0,154281:0:0:0:0:
109,192,153764,1,0,0:0:0:0:
182,192,154281,128,0,154799:0:0:0:0:
475,192,154281,128,0,154799:0:0:0:0:
402,192,154281,1,0,0:0:0:0:
256,192,154799,128,0,155488:0:0:0:0:
109,192,154799,128,0,155488:0:0:0:0:
402,192,154799,128,0,155488:0:0:0:0:
329,192,155488,1,0,0:0:0:0:
182,192,155661,1,0,0:0:0:0:
402,192,155833,1,0,0:0:0:0:
109,192,156005,1,0,0:0:0:0:
182,192,156523,128,0,157040:0:0:0:0:
36,192,156523,128,0,157040:0:0:0:0:
256,192,156523,1,0,0:0:0:0:
256,192,157040,1,0,0:0:0:0:
475,192,157040,128,0,157557:0:0:0:0:
329,192,157040,128,0,157557:0:0:0:0:
256,192,157557,128,0,158247:0:0:0:0:
402,192,157557,128,0,158247:0:0:0:0:
109,192,157557,128,0,158247:0:0:0:0:
329,192,158247,128,0,158419:0:0:0:0:
36,192,158419,128,0,158592:0:0:0:0:
475,192,158592,128,0,158764:0:0:0:0:
182,192,158764,128,0,158937:0:0:0:0:
256,192,158937,128,0,159195:0:0:0:0:
109,192,159281,128,0,159799:0:0:0:0:
329,192,159281,1,0,0:0:0:0:
36,192,159281,128,0,159799:0:0:0:0:
475,192,159799,128,0,160316:0:0:0:0:
182,192,159799,1,0,0:0:0:0:
402,192,159799,128,0,160316:0:0:0:0:
329,192,160316,128,0,161005:0:0:0:0:
256,192,160316,128,0,161005:0:0:0:0:
182,192,160316,128,0,161005:0:0:0:0:
36,192,161178,1,0,0:0:0:0:
109,192,161264,1,0,0:0:0:0:
329,192,161350,1,0,0:0:0:0:
256,192,161437,1,0,0:0:0:0:
182,192,161523,1,0,0:0:0:0:
109,192,161609,1,0,0:0:0:0:
402,192,161695,1,0,0:0:0:0:
329,192,161781,1,0,0:0:0:0:
256,192,161868,1,0,0:0:0:0:
182,192,161954,1,0,0:0:0:0:
36,192,162040,128,0,162730:0:0:0:0:
109,192,162040,128,0,162730:0:0:0:0:
475,192,162040,1,0,0:0:0:0:
329,192,162385,1,0,0:0:0:0:
402,192,162730,128,0,163419:0:0:0:0:
475,192,162730,128,0,163419:0:0:0:0:
182,192,162902,1,0,0:0:0:0:
256,192,163074,1,0,0:0:0:0:
36,192,163419,1,0,0:0:0:0:
109,192,163419,1,0,0:0:0:0:
329,192,163419,1,0,0:0:0:0:
182,192,163764,1,0,0:0:0:0:
475,192,163764,1,0,0:0:0:0:
36,192,164109,1,0,0:0:0:0:
329,192,164109,1,0,0:0:0:0:
256,192,164281,1,0,0:0:0:0:
182,192,164454,1,0,0:0:0:0:
475,192,164454,1,0,0:0:0:0:
109,192,164799,1,0,0:0:0:0:
329,192,164799,1,0,0:0:0:0:
182,192,165143,1,0,0:0:0:0:
402,192,165143,1,0,0:0:0:0:
109,192,165488,1,0,0:0:0:0:
329,192,165488,1,0,0:0:0:0:
256,192,165661,1,0,0:0:0:0:
182,192,165833,1,0,0:0:0:0:
402,192,165833,1,0,0:0:0:0:
36,192,166178,1,0,0:0:0:0:
402,192,166178,1,0,0:0:0:0:
109,192,166523,1,0,0:0:0:0:
475,192,166523,1,0,0:0:0:0:
36,192,166868,1,0,0:0:0:0:
402,192,166868,1,0,0:0:0:0:
256,192,167040,1,0,0:0:0:0:
109,192,167212,1,0,0:0:0:0:
475,192,167212,1,0,0:0:0:0:
36,192,167557,1,0,0:0:0:0:
329,192,167557,1,0,0:0:0:0:
182,192,167902,1,0,0:0:0:0:
475,192,167902,1,0,0:0:0:0:
329,192,168247,1,0,0:0:0:0:
36,192,168247,1,0,0:0:0:0:
256,192,168419,1,0,0:0:0:0:
182,192,168592,1,0,0:0:0:0:
475,192,168592,1,0,0:0:0:0:
36,192,168937,1,0,0:0:0:0:
329,192,168937,1,0,0:0:0:0:
182,192,169109,1,0,0:0:0:0:
109,192,169281,1,0,0:0:0:0:
402,192,169281,1,0,0:0:0:0:
256,192,169454,1,0,0:0:0:0:
182,192,169626,1,0,0:0:0:0:
475,192,169626,1,0,0:0:0:0:
329,192,169799,1,0,0:0:0:0:
402,192,169971,1,0,0:0:0:0:
109,192,169971,1,0,0:0:0:0:
256,192,170143,1,0,0:0:0:0:
329,192,170316,1,0,0:0:0:0:
36,192,170316,1,0,0:0:0:0:
182,192,170488,1,0,0:0:0:0:
109,192,170661,1,0,0:0:0:0:
402,192,170661,1,0,0:0:0:0:
256,192,170833,1,0,0:0:0:0:
182,192,171005,1,0,0:0:0:0:
475,192,171005,1,0,0:0:0:0:
329,192,171178,1,0,0:0:0:0:
402,192,171350,1,0,0:0:0:0:
109,192,171350,1,0,0:0:0:0:
256,192,171523,1,0,0:0:0:0:
36,192,171695,1,0,0:0:0:0:
182,192,171695,1,0,0:0:0:0:
256,192,171781,1,0,0:0:0:0:
329,192,171868,1,0,0:0:0:0:
402,192,171954,1,0,0:0:0:0:
109,192,172040,1,0,0:0:0:0:
475,192,172040,1,0,0:0:0:0:
182,192,172126,1,0,0:0:0:0:
256,192,172212,1,0,0:0:0:0:
329,192,172299,1,0,0:0:0:0:
475,192,172385,128,0,173074:0:0:0:0:
402,192,172385,128,0,173074:0:0:0:0:
109,192,172730,128,0,173074:0:0:0:0:
36,192,172730,128,0,173074:0:0:0:0:
329,192,173074,128,0,173937:0:0:0:0:
256,192,173074,128,0,173937:0:0:0:0:
182,192,173074,128,0,173937:0:0:0:0:
36,192,173937,1,0,0:0:0:0:
109,192,174023,1,0,0:0:0:0:
182,192,174109,1,0,0:0:0:0:
402,192,174195,1,0,0:0:0:0:
329,192,174281,1,0,0:0:0:0:
256,192,174368,1,0,0:0:0:0:
475,192,174454,1,0,0:0:0:0:
182,192,174454,1,0,0:0:0:0:
109,192,174454,1,0,0:0:0:0:
36,192,174454,1,0,0:0:0:0:
329,192,174626,1,0,0:0:0:0:
182,192,174799,1,0,0:0:0:0:
109,192,174799,1,0,0:0:0:0:
402,192,174971,1,0,0:0:0:0:
36,192,175143,1,0,0:0:0:0:
475,192,175143,1,0,0:0:0:0:
329,192,175316,1,0,0:0:0:0:
256,192,175488,1,0,0:0:0:0:
182,192,175488,1,0,0:0:0:0:
475,192,175661,1,0,0:0:0:0:
36,192,175833,1,0,0:0:0:0:
182,192,175833,1,0,0:0:0:0:
402,192,176005,1,0,0:0:0:0:
329,192,176178,1,0,0:0:0:0:
109,192,176178,1,0,0:0:0:0:
256,192,176350,1,0,0:0:0:0:
36,192,176523,1,0,0:0:0:0:
182,192,176523,1,0,0:0:0:0:
402,192,176695,1,0,0:0:0:0:
109,192,176868,1,0,0:0:0:0:
256,192,176868,1,0,0:0:0:0:
475,192,177040,1,0,0:0:0:0:
36,192,177212,1,0,0:0:0:0:
329,192,177212,1,0,0:0:0:0:
402,192,177385,1,0,0:0:0:0:
256,192,177557,1,0,0:0:0:0:
182,192,177557,1,0,0:0:0:0:
475,192,177730,1,0,0:0:0:0:
36,192,177902,1,0,0:0:0:0:
329,192,177902,1,0,0:0:0:0:
402,192,178074,1,0,0:0:0:0:
109,192,178247,1,0,0:0:0:0:
182,192,178247,1,0,0:0:0:0:
329,192,178419,1,0,0:0:0:0:
36,192,178592,1,0,0:0:0:0:
475,192,178592,1,0,0:0:0:0:
402,192,178764,1,0,0:0:0:0:
182,192,178937,1,0,0:0:0:0:
109,192,178937,1,0,0:0:0:0:
329,192,179109,1,0,0:0:0:0:
36,192,179281,1,0,0:0:0:0:
256,192,179281,1,0,0:0:0:0:
475,192,179454,1,0,0:0:0:0:
402,192,179626,128,0,179971:0:0:0:0:
329,192,179626,128,0,179971:0:0:0:0:
182,192,179626,1,0,0:0:0:0:
109,192,179799,1,0,0:0:0:0:
36,192,179971,1,0,0:0:0:0:
256,192,179971,1,0,0:0:0:0:
402,192,180143,1,0,0:0:0:0:
182,192,180316,1,0,0:0:0:0:
109,192,180316,1,0,0:0:0:0:
329,192,180488,1,0,0:0:0:0:
36,192,180661,1,0,0:0:0:0:
402,192,180661,1,0,0:0:0:0:
256,192,180833,1,0,0:0:0:0:
329,192,181005,1,0,0:0:0:0:
109,192,181005,1,0,0:0:0:0:
475,192,181178,1,0,0:0:0:0:
36,192,181350,1,0,0:0:0:0:
256,192,181350,1,0,0:0:0:0:
402,192,181523,1,0,0:0:0:0:
182,192,181695,1,0,0:0:0:0:
329,192,181695,1,0,0:0:0:0:
109,192,181868,1,0,0:0:0:0:
36,192,182040,1,0,0:0:0:0:
256,192,182040,1,0,0:0:0:0:
402,192,182212,1,0,0:0:0:0:
182,192,182385,1,0,0:0:0:0:
329,192,182385,1,0,0:0:0:0:
475,192,182557,1,0,0:0:0:0:
109,192,182730,1,0,0:0:0:0:
36,192,182730,1,0,0:0:0:0:
329,192,182902,1,0,0:0:0:0:
182,192,183074,1,0,0:0:0:0:
256,192,183074,1,0,0:0:0:0:
402,192,183247,1,0,0:0:0:0:
109,192,183419,1,0,0:0:0:0:
36,192,183419,1,0,0:0:0:0:
329,192,183592,1,0,0:0:0:0:
182,192,183764,1,0,0:0:0:0:
402,192,183764,1,0,0:0:0:0:
475,192,183937,1,0,0:0:0:0:
36,192,184109,1,0,0:0:0:0:
182,192,184109,1,0,0:0:0:0:
402,192,184281,1,0,0:0:0:0:
256,192,184454,1,0,0:0:0:0:
109,192,184454,128,0,184626:0:0:0:0:
329,192,184626,1,0,0:0:0:0:
182,192,184712,1,0,0:0:0:0:
36,192,184799,1,0,0:0:0:0:
402,192,184799,128,0,184971:0:0:0:0:
329,192,184971,128,0,185143:0:0:0:0:
109,192,185143,128,0,185488:0:0:0:0:
329,192,185316,1,0,0:0:0:0:
36,192,185488,1,0,0:0:0:0:
256,192,185488,1,0,0:0:0:0:
475,192,185488,1,0,0:0:0:0:
402,192,185488,1,0,0:0:0:0:
182,192,185661,1,0,0:0:0:0:
475,192,185833,1,0,0:0:0:0:
109,192,185833,1,0,0:0:0:0:
329,192,185833,1,0,0:0:0:0:
256,192,186005,1,0,0:0:0:0:
36,192,186178,1,0,0:0:0:0:
402,192,186178,1,0,0:0:0:0:
182,192,186350,1,0,0:0:0:0:
475,192,186523,1,0,0:0:0:0:
329,192,186523,1,0,0:0:0:0:
109,192,186523,1,0,0:0:0:0:
256,192,186695,1,0,0:0:0:0:
36,192,186868,1,0,0:0:0:0:
402,192,186868,1,0,0:0:0:0:
329,192,187040,1,0,0:0:0:0:
109,192,187212,1,0,0:0:0:0:
475,192,187212,1,0,0:0:0:0:
182,192,187212,1,0,0:0:0:0:
256,192,187385,1,0,0:0:0:0:
36,192,187557,1,0,0:0:0:0:
109,192,187557,1,0,0:0:0:0:
329,192,187730,1,0,0:0:0:0:
256,192,187902,1,0,0:0:0:0:
182,192,187902,1,0,0:0:0:0:
475,192,187902,1,0,0:0:0:0:
402,192,188074,1,0,0:0:0:0:
36,192,188247,1,0,0:0:0:0:
329,192,188247,1,0,0:0:0:0:
109,192,188419,1,0,0:0:0:0:
475,192,188592,1,0,0:0:0:0:
182,192,188592,1,0,0:0:0:0:
402,192,188592,1,0,0:0:0:0:
329,192,188764,1,0,0:0:0:0:
36,192,188937,1,0,0:0:0:0:
256,192,188937,1,0,0:0:0:0:
402,192,189109,1,0,0:0:0:0:
475,192,189281,1,0,0:0:0:0:
182,192,189281,1,0,0:0:0:0:
109,192,189281,1,0,0:0:0:0:
256,192,189454,1,0,0:0:0:0:
36,192,189626,1,0,0:0:0:0:
329,192,189626,1,0,0:0:0:0:
402,192,189799,1,0,0:0:0:0:
475,192,189971,1,0,0:0:0:0:
256,192,189971,1,0,0:0:0:0:
182,192,189971,1,0,0:0:0:0:
109,192,190143,1,0,0:0:0:0:
36,192,190316,1,0,0:0:0:0:
329,192,190316,1,0,0:0:0:0:
402,192,190488,1,0,0:0:0:0:
109,192,190488,1,0,0:0:0:0:
182,192,190661,128,0,191005:0:0:0:0:
475,192,190661,128,0,191005:0:0:0:0:
329,192,191005,1,0,0:0:0:0:
109,192,191005,1,0,0:0:0:0:
36,192,191005,1,0,0:0:0:0:
256,192,191005,1,0,0:0:0:0:
402,192,191178,1,0,0:0:0:0:
182,192,191350,1,0,0:0:0:0:
256,192,191350,1,0,0:0:0:0:
475,192,191350,1,0,0:0:0:0:
109,192,191523,1,0,0:0:0:0:
36,192,191695,1,0,0:0:0:0:
256,192,191695,1,0,0:0:0:0:
329,192,191695,1,0,0:0:0:0:
402,192,191868,1,0,0:0:0:0:
182,192,192040,1,0,0:0:0:0:
256,192,192040,1,0,0:0:0:0:
475,192,192040,1,0,0:0:0:0:
109,192,192212,1,0,0:0:0:0:
329,192,192385,1,0,0:0:0:0:
36,192,192385,1,0,0:0:0:0:
256,192,192385,1,0,0:0:0:0:
402,192,192557,1,0,0:0:0:0:
182,192,192730,1,0,0:0:0:0:
256,192,192730,1,0,0:0:0:0:
475,192,192730,1,0,0:0:0:0:
109,192,192902,1,0,0:0:0:0:
402,192,193074,128,0,193419:0:0:0:0:
475,192,193074,128,0,193419:0:0:0:0:
256,192,193074,1,0,0:0:0:0:
182,192,193247,1,0,0:0:0:0:
36,192,193419,128,0,193764:0:0:0:0:
109,192,193419,128,0,193764:0:0:0:0:
329,192,193419,1,0,0:0:0:0:
256,192,193592,1,0,0:0:0:0:
182,192,193764,1,0,0:0:0:0:
402,192,193764,1,0,0:0:0:0:
475,192,193764,1,0,0:0:0:0:
329,192,193764,1,0,0:0:0:0:
109,192,193937,1,0,0:0:0:0:
36,192,193937,1,0,0:0:0:0:
329,192,194109,1,0,0:0:0:0:
475,192,194109,1,0,0:0:0:0:
182,192,194281,1,0,0:0:0:0:
36,192,194281,1,0,0:0:0:0:
256,192,194454,1,0,0:0:0:0:
402,192,194454,1,0,0:0:0:0:
36,192,194626,1,0,0:0:0:0:
182,192,194626,1,0,0:0:0:0:
329,192,194799,1,0,0:0:0:0:
475,192,194799,1,0,0:0:0:0:
109,192,194971,1,0,0:0:0:0:
256,192,194971,1,0,0:0:0:0:
36,192,195143,1,0,0:0:0:0:
475,192,195143,1,0,0:0:0:0:
402,192,195230,1,0,0:0:0:0:
329,192,195316,1,0,0:0:0:0:
256,192,195402,1,0,0:0:0:0:
36,192,195488,1,0,0:0:0:0:
475,192,195488,1,0,0:0:0:0:
109,192,195574,1,0,0:0:0:0:
182,192,195661,1,0,0:0:0:0:
256,192,195747,1,0,0:0:0:0:
329,192,195833,1,0,0:0:0:0:
475,192,195833,1,0,0:0:0:0:
36,192,195833,128,0,196178:0:0:0:0:
182,192,196178,1,0,0:0:0:0:
329,192,196178,1,0,0:0:0:0:
256,192,196350,1,0,0:0:0:0:
36,192,196523,1,0,0:0:0:0:
109,192,196523,1,0,0:0:0:0:
402,192,196523,1,0,0:0:0:0:
475,192,196523,1,0,0:0:0:0:
256,192,196868,128,0,197040:0:0:0:0:
109,192,196868,1,0,0:0:0:0:
182,192,196868,1,0,0:0:0:0:
475,192,197040,128,0,197212:0:0:0:0:
402,192,197040,1,0,0:0:0:0:
36,192,197212,1,0,0:0:0:0:
109,192,197385,1,0,0:0:0:0:
256,192,197385,128,0,197557:0:0:0:0:
402,192,197557,1,0,0:0:0:0:
475,192,197557,128,0,197730:0:0:0:0:
182,192,197557,1,0,0:0:0:0:
109,192,197902,1,0,0:0:0:0:
256,192,197902,128,0,198074:0:0:0:0:
36,192,197902,1,0,0:0:0:0:
402,192,198074,1,0,0:0:0:0:
475,192,198074,128,0,198247:0:0:0:0:
182,192,198247,1,0,0:0:0:0:
109,192,198419,1,0,0:0:0:0:
256,192,198419,128,0,198592:0:0:0:0:
402,192,198592,1,0,0:0:0:0:
475,192,198592,128,0,198764:0:0:0:0:
36,192,198592,1,0,0:0:0:0:
182,192,198937,1,0,0:0:0:0:
109,192,198937,128,0,199109:0:0:0:0:
402,192,198937,1,0,0:0:0:0:
256,192,199109,1,0,0:0:0:0:
329,192,199109,128,0,199281:0:0:0:0:
36,192,199281,128,0,199626:0:0:0:0:
475,192,199281,1,0,0:0:0:0:
182,192,199281,1,0,0:0:0:0:
182,192,199626,1,0,0:0:0:0:
475,192,199626,128,0,199799:0:0:0:0:
256,192,199626,1,0,0:0:0:0:
402,192,199799,128,0,199971:0:0:0:0:
256,192,199971,128,0,200143:0:0:0:0:
109,192,199971,1,0,0:0:0:0:
182,192,200143,128,0,200316:0:0:0:0:
36,192,200316,128,0,200488:0:0:0:0:
329,192,200316,1,0,0:0:0:0:
475,192,200316,1,0,0:0:0:0:
109,192,200488,128,0,200661:0:0:0:0:
256,192,200661,128,0,200833:0:0:0:0:
402,192,200661,1,0,0:0:0:0:
329,192,200833,128,0,201005:0:0:0:0:
182,192,201005,1,0,0:0:0:0:
475,192,201005,1,0,0:0:0:0:
36,192,201005,1,0,0:0:0:0:
256,192,201092,1,0,0:0:0:0:
329,192,201178,1,0,0:0:0:0:
402,192,201264,1,0,0:0:0:0:
475,192,201350,1,0,0:0:0:0:
36,192,201350,1,0,0:0:0:0:
109,192,201437,1,0,0:0:0:0:
182,192,201523,1,0,0:0:0:0:
256,192,201609,1,0,0:0:0:0:
329,192,201695,128,0,202040:0:0:0:0:
475,192,201695,128,0,202040:0:0:0:0:
109,192,201695,1,0,0:0:0:0:
36,192,202040,1,0,0:0:0:0:
182,192,202040,1,0,0:0:0:0:
256,192,202040,128,0,202212:0:0:0:0:
36,192,202385,128,0,202557:0:0:0:0:
402,192,202385,1,0,0:0:0:0:
329,192,202385,1,0,0:0:0:0:
256,192,202557,128,0,202730:0:0:0:0:
182,192,202557,1,0,0:0:0:0:
475,192,202730,1,0,0:0:0:0:
36,192,202902,128,0,203074:0:0:0:0:
402,192,202902,1,0,0:0:0:0:
182,192,203074,1,0,0:0:0:0:
256,192,203074,128,0,203247:0:0:0:0:
329,192,203074,1,0,0:0:0:0:
402,192,203419,1,0,0:0:0:0:
36,192,203419,128,0,203592:0:0:0:0:
475,192,203419,1,0,0:0:0:0:
182,192,203592,1,0,0:0:0:0:
256,192,203592,128,0,203764:0:0:0:0:
329,192,203764,1,0,0:0:0:0:
36,192,203937,128,0,204109:0:0:0:0:
402,192,203937,1,0,0:0:0:0:
182,192,204109,1,0,0:0:0:0:
256,192,204109,128,0,204281:0:0:0:0:
475,192,204109,1,0,0:0:0:0:
329,192,204454,128,0,204626:0:0:0:0:
256,192,204454,1,0,0:0:0:0:
36,192,204454,1,0,0:0:0:0:
182,192,204626,1,0,0:0:0:0:
109,192,204626,128,0,204799:0:0:0:0:
36,192,204799,1,0,0:0:0:0:
402,192,204799,1,0,0:0:0:0:
475,192,204799,128,0,205143:0:0:0:0:
182,192,205143,128,0,205488:0:0:0:0:
36,192,205143,128,0,205488:0:0:0:0:
256,192,205143,1,0,0:0:0:0:
402,192,205488,1,0,0:0:0:0:
475,192,205488,1,0,0:0:0:0:
329,192,205574,1,0,0:0:0:0:
109,192,205661,1,0,0:0:0:0:
182,192,205747,1,0,0:0:0:0:
256,192,205833,1,0,0:0:0:0:
36,192,205833,1,0,0:0:0:0:
475,192,205833,128,0,206005:0:0:0:0:
329,192,206005,128,0,206178:0:0:0:0:
182,192,206178,128,0,206523:0:0:0:0:
402,192,206178,1,0,0:0:0:0:
109,192,206178,1,0,0:0:0:0:
256,192,206523,128,0,206695:0:0:0:0:
475,192,206523,128,0,206695:0:0:0:0:
36,192,206523,128,0,206695:0:0:0:0:
475,192,206868,128,0,207040:0:0:0:0:
329,192,206868,128,0,207040:0:0:0:0:
36,192,207040,1,0,0:0:0:0:
182,192,207040,1,0,0:0:0:0:
256,192,207126,1,0,0:0:0:0:
402,192,207212,128,0,207385:0:0:0:0:
329,192,207212,128,0,207385:0:0:0:0:
182,192,207385,128,0,207557:0:0:0:0:
109,192,207385,128,0,207557:0:0:0:0:
256,192,207557,1,0,0:0:0:0:
36,192,207557,1,0,0:0:0:0:
475,192,207557,1,0,0:0:0:0:
402,192,207730,1,0,0:0:0:0:
329,192,207816,1,0,0:0:0:0:
256,192,207902,1,0,0:0:0:0:
109,192,207988,1,0,0:0:0:0:
182,192,208074,1,0,0:0:0:0:
256,192,208161,1,0,0:0:0:0:
402,192,208247,1,0,0:0:0:0:
36,192,208247,1,0,0:0:0:0:
109,192,208247,1,0,0:0:0:0:
475,192,208247,128,0,208419:0:0:0:0:
182,192,208419,1,0,0:0:0:0:
329,192,208419,128,0,208592:0:0:0:0:
36,192,208592,1,0,0:0:0:0:
256,192,208592,1,0,0:0:0:0:
475,192,208592,128,0,208764:0:0:0:0:
36,192,208937,1,0,0:0:0:0:
402,192,208937,1,0,0:0:0:0:
109,192,208937,128,0,209109:0:0:0:0:
329,192,209109,1,0,0:0:0:0:
256,192,209109,128,0,209281:0:0:0:0:
475,192,209281,1,0,0:0:0:0:
36,192,209454,1,0,0:0:0:0:
109,192,209454,128,0,209626:0:0:0:0:
329,192,209626,1,0,0:0:0:0:
402,192,209626,1,0,0:0:0:0:
256,192,209626,128,0,209799:0:0:0:0:
182,192,209971,1,0,0:0:0:0:
36,192,209971,1,0,0:0:0:0:
256,192,209971,128,0,210143:0:0:0:0:
475,192,210143,1,0,0:0:0:0:
402,192,210143,128,0,210316:0:0:0:0:
109,192,210316,1,0,0:0:0:0:
329,192,210316,1,0,0:0:0:0:
36,192,210316,128,0,210661:0:0:0:0:
182,192,210661,128,0,210833:0:0:0:0:
402,192,210661,1,0,0:0:0:0:
475,192,210661,1,0,0:0:0:0:
329,192,210833,128,0,211005:0:0:0:0:
256,192,211005,128,0,211178:0:0:0:0:
109,192,211005,1,0,0:0:0:0:
402,192,211178,128,0,211350:0:0:0:0:
109,192,211350,128,0,211523:0:0:0:0:
36,192,211350,1,0,0:0:0:0:
329,192,211350,1,0,0:0:0:0:
256,192,211523,128,0,211695:0:0:0:0:
182,192,211695,128,0,211868:0:0:0:0:
402,192,211695,1,0,0:0:0:0:
329,192,211868,128,0,212040:0:0:0:0:
36,192,212040,1,0,0:0:0:0:
109,192,212040,1,0,0:0:0:0:
475,192,212040,1,0,0:0:0:0:
402,192,212126,1,0,0:0:0:0:
329,192,212212,1,0,0:0:0:0:
182,192,212299,1,0,0:0:0:0:
36,192,212385,1,0,0:0:0:0:
475,192,212385,1,0,0:0:0:0:
329,192,212471,1,0,0:0:0:0:
182,192,212557,1,0,0:0:0:0:
109,192,212643,1,0,0:0:0:0:
36,192,212730,128,0,213074:0:0:0:0:
475,192,212730,128,0,213074:0:0:0:0:
329,192,212730,128,0,213074:0:0:0:0:
109,192,213074,1,0,0:0:0:0:
182,192,213074,1,0,0:0:0:0:
256,192,213074,1,0,0:0:0:0:
402,192,213247,1,0,0:0:0:0:
36,192,213419,128,0,213592:0:0:0:0:
329,192,213419,1,0,0:0:0:0:
109,192,213592,128,0,213764:0:0:0:0:
475,192,213592,1,0,0:0:0:0:
256,192,213592,1,0,0:0:0:0:
402,192,213764,1,0,0:0:0:0:
329,192,213937,1,0,0:0:0:0:
109,192,213937,128,0,214109:0:0:0:0:
475,192,214109,1,0,0:0:0:0:
256,192,214109,1,0,0:0:0:0:
182,192,214109,128,0,214281:0:0:0:0:
402,192,214281,1,0,0:0:0:0:
36,192,214454,1,0,0:0:0:0:
256,192,214454,1,0,0:0:0:0:
329,192,214454,128,0,214626:0:0:0:0:
109,192,214626,1,0,0:0:0:0:
402,192,214626,128,0,214799:0:0:0:0:
182,192,214799,1,0,0:0:0:0:
36,192,214971,1,0,0:0:0:0:
256,192,214971,1,0,0:0:0:0:
402,192,214971,128,0,215143:0:0:0:0:
109,192,215143,1,0,0:0:0:0:
475,192,215143,128,0,215316:0:0:0:0:
182,192,215316,1,0,0:0:0:0:
256,192,215488,1,0,0:0:0:0:
475,192,215488,128,0,215661:0:0:0:0:
36,192,215488,1,0,0:0:0:0:
109,192,215574,1,0,0:0:0:0:
182,192,215661,1,0,0:0:0:0:
402,192,215661,128,0,215833:0:0:0:0:
256,192,215747,1,0,0:0:0:0:
36,192,215833,1,0,0:0:0:0:
109,192,215833,1,0,0:0:0:0:
329,192,215833,1,0,0:0:0:0:
475,192,216005,1,0,0:0:0:0:
402,192,216092,1,0,0:0:0:0:
329,192,216178,1,0,0:0:0:0:
182,192,216178,1,0,0:0:0:0:
36,192,216350,1,0,0:0:0:0:
109,192,216437,1,0,0:0:0:0:
182,192,216523,1,0,0:0:0:0:
329,192,216523,1,0,0:0:0:0:
475,192,216695,1,0,0:0:0:0:
402,192,216781,1,0,0:0:0:0:
329,192,216868,1,0,0:0:0:0:
182,192,216868,1,0,0:0:0:0:
36,192,217040,1,0,0:0:0:0:
109,192,217126,1,0,0:0:0:0:
182,192,217212,1,0,0:0:0:0:
256,192,217212,1,0,0:0:0:0:
475,192,217212,1,0,0:0:0:0:
402,192,217299,1,0,0:0:0:0:
329,192,217385,1,0,0:0:0:0:
256,192,217471,1,0,0:0:0:0:
36,192,217557,1,0,0:0:0:0:
402,192,217557,1,0,0:0:0:0:
109,192,217643,1,0,0:0:0:0:
182,192,217730,1,0,0:0:0:0:
256,192,217816,1,0,0:0:0:0:
475,192,217902,1,0,0:0:0:0:
109,192,217902,1,0,0:0:0:0:
402,192,217988,1,0,0:0:0:0:
329,192,218074,1,0,0:0:0:0:
256,192,218161,1,0,0:0:0:0:
36,192,218592,1,0,0:0:0:0:
402,192,218592,1,0,0:0:0:0:
475,192,218592,1,0,0:0:0:0:
109,192,218592,1,0,0:0:0:0:
329,192,218937,1,0,0:0:0:0:
475,192,218937,1,0,0:0:0:0:
256,192,219281,1,0,0:0:0:0:
109,192,219454,1,0,0:0:0:0:
36,192,219454,1,0,0:0:0:0:
329,192,219626,1,0,0:0:0:0:
475,192,219626,1,0,0:0:0:0:
182,192,219971,1,0,0:0:0:0:
109,192,220143,1,0,0:0:0:0:
36,192,220143,1,0,0:0:0:0:
329,192,220316,1,0,0:0:0:0:
475,192,220316,1,0,0:0:0:0:
256,192,220661,1,0,0:0:0:0:
109,192,220833,1,0,0:0:0:0:
36,192,220833,1,0,0:0:0:0:
329,192,221005,1,0,0:0:0:0:
475,192,221005,1,0,0:0:0:0:
182,192,221350,1,0,0:0:0:0:
36,192,221350,1,0,0:0:0:0:
36,192,221523,1,0,0:0:0:0:
182,192,221523,1,0,0:0:0:0:
402,192,221695,1,0,0:0:0:0:
475,192,221695,1,0,0:0:0:0:
256,192,222040,1,0,0:0:0:0:
182,192,222212,1,0,0:0:0:0:
36,192,222212,1,0,0:0:0:0:
402,192,222385,1,0,0:0:0:0:
475,192,222385,1,0,0:0:0:0:
329,192,222730,1,0,0:0:0:0:
182,192,222902,1,0,0:0:0:0:
36,192,222902,1,0,0:0:0:0:
402,192,223074,1,0,0:0:0:0:
475,192,223074,1,0,0:0:0:0:
256,192,223419,1,0,0:0:0:0:
182,192,223592,1,0,0:0:0:0:
36,192,223592,1,0,0:0:0:0:
402,192,223764,1,0,0:0:0:0:
475,192,223764,1,0,0:0:0:0:
109,192,223937,1,0,0:0:0:0:
36,192,223937,1,0,0:0:0:0:
36,192,224109,1,0,0:0:0:0:
109,192,224109,1,0,0:0:0:0:
329,192,224454,1,0,0:0:0:0:
402,192,224454,1,0,0:0:0:0:
256,192,224799,1,0,0:0:0:0:
109,192,224971,1,0,0:0:0:0:
36,192,224971,1,0,0:0:0:0:
329,192,225143,1,0,0:0:0:0:
402,192,225143,1,0,0:0:0:0:
182,192,225488,1,0,0:0:0:0:
109,192,225661,1,0,0:0:0:0:
36,192,225661,1,0,0:0:0:0:
329,192,225833,1,0,0:0:0:0:
402,192,225833,1,0,0:0:0:0:
256,192,226178,1,0,0:0:0:0:
109,192,226350,1,0,0:0:0:0:
36,192,226350,1,0,0:0:0:0:
329,192,226523,1,0,0:0:0:0:
402,192,226523,1,0,0:0:0:0:
182,192,226868,1,0,0:0:0:0:
109,192,226868,1,0,0:0:0:0:
109,192,227040,1,0,0:0:0:0:
182,192,227040,1,0,0:0:0:0:
402,192,227212,1,0,0:0:0:0:
475,192,227212,1,0,0:0:0:0:
329,192,227557,1,0,0:0:0:0:
182,192,227730,1,0,0:0:0:0:
109,192,227730,1,0,0:0:0:0:
402,192,227902,1,0,0:0:0:0:
475,192,227902,1,0,0:0:0:0:
256,192,228247,1,0,0:0:0:0:
182,192,228419,1,0,0:0:0:0:
109,192,228419,1,0,0:0:0:0:
402,192,228592,1,0,0:0:0:0:
475,192,228592,1,0,0:0:0:0:
182,192,228764,1,0,0:0:0:0:
109,192,228764,1,0,0:0:0:0:
329,192,228937,1,0,0:0:0:0:
36,192,229109,1,0,0:0:0:0:
109,192,229109,1,0,0:0:0:0:
182,192,229195,1,0,0:0:0:0:
256,192,229195,1,0,0:0:0:0:
402,192,229281,1,0,0:0:0:0:
475,192,229281,1,0,0:0:0:0:
329,192,229454,1,0,0:0:0:0:
256,192,229454,1,0,0:0:0:0:
36,192,229626,1,0,0:0:0:0:
182,192,229626,1,0,0:0:0:0:
402,192,229971,1,0,0:0:0:0:
329,192,229971,1,0,0:0:0:0:
475,192,230316,1,0,0:0:0:0:
182,192,230488,1,0,0:0:0:0:
36,192,230488,1,0,0:0:0:0:
329,192,230661,1,0,0:0:0:0:
402,192,230661,1,0,0:0:0:0:
256,192,231005,1,0,0:0:0:0:
182,192,231178,1,0,0:0:0:0:
36,192,231178,1,0,0:0:0:0:
329,192,231350,1,0,0:0:0:0:
402,192,231350,1,0,0:0:0:0:
475,192,231695,1,0,0:0:0:0:
182,192,231868,1,0,0:0:0:0:
36,192,231868,1,0,0:0:0:0:
402,192,232040,1,0,0:0:0:0:
329,192,232040,1,0,0:0:0:0:
109,192,232385,1,0,0:0:0:0:
182,192,232385,1,0,0:0:0:0:
182,192,232557,1,0,0:0:0:0:
109,192,232557,1,0,0:0:0:0:
329,192,232730,1,0,0:0:0:0:
475,192,232730,1,0,0:0:0:0:
256,192,233074,1,0,0:0:0:0:
182,192,233247,1,0,0:0:0:0:
109,192,233247,1,0,0:0:0:0:
475,192,233419,1,0,0:0:0:0:
329,192,233419,1,0,0:0:0:0:
402,192,233764,1,0,0:0:0:0:
182,192,233937,1,0,0:0:0:0:
109,192,233937,1,0,0:0:0:0:
329,192,234109,1,0,0:0:0:0:
475,192,234109,1,0,0:0:0:0:
182,192,234368,1,0,0:0:0:0:
109,192,234368,1,0,0:0:0:0:
182,192,234626,1,0,0:0:0:0:
109,192,234626,1,0,0:0:0:0:
329,192,234799,1,0,0:0:0:0:
475,192,234799,1,0,0:0:0:0:
182,192,234971,1,0,0:0:0:0:
109,192,234971,1,0,0:0:0:0:
36,192,235143,1,0,0:0:0:0:
475,192,235488,1,0,0:0:0:0:
256,192,235488,1,0,0:0:0:0:
36,192,236005,1,0,0:0:0:0:
256,192,236178,1,0,0:0:0:0:
475,192,236178,1,0,0:0:0:0:
36,192,236695,1,0,0:0:0:0:
256,192,236868,1,0,0:0:0:0:
475,192,236868,1,0,0:0:0:0:
36,192,237385,1,0,0:0:0:0:
475,192,237557,1,0,0:0:0:0:
256,192,237557,1,0,0:0:0:0:
109,192,237902,1,0,0:0:0:0:
182,192,238074,1,0,0:0:0:0:
402,192,238247,1,0,0:0:0:0:
109,192,238764,1,0,0:0:0:0:
402,192,238937,1,0,0:0:0:0:
475,192,239281,128,0,240661:0:0:0:0:
109,192,239454,1,0,0:0:0:0:
182,192,239626,1,0,0:0:0:0:
329,192,239799,1,0,0:0:0:0:
36,192,239971,128,0,240661:0:0:0:0:
402,192,239971,1,0,0:0:0:0:
182,192,240143,1,0,0:0:0:0:
256,192,240230,1,0,0:0:0:0:
329,192,240316,1,0,0:0:0:0:
109,192,240488,1,0,0:0:0:0:
256,192,240661,1,0,0:0:0:0:
36,192,243074,5,0,0:0:0:0:
475,192,243419,1,0,0:0:0:0:
182,192,243419,1,0,0:0:0:0:
402,192,244799,1,0,0:0:0:0:
256,192,244799,1,0,0:0:0:0:
109,192,245316,1,0,0:0:0:0:
329,192,245488,1,0,0:0:0:0:
182,192,245488,1,0,0:0:0:0:
36,192,245833,1,0,0:0:0:0:
182,192,246178,1,0,0:0:0:0:
475,192,246178,1,0,0:0:0:0:
36,192,248592,1,0,0:0:0:0:
402,192,248937,1,0,0:0:0:0:
182,192,248937,1,0,0:0:0:0:
475,192,249971,1,0,0:0:0:0:
109,192,250316,1,0,0:0:0:0:
329,192,250316,1,0,0:0:0:0:
256,192,251005,1,0,0:0:0:0:
182,192,251695,1,0,0:0:0:0:
475,192,251695,1,0,0:0:0:0:
182,192,254454,1,0,0:0:0:0:
36,192,254454,1,0,0:0:0:0:
182,192,255833,1,0,0:0:0:0:
402,192,255833,1,0,0:0:0:0:
329,192,256523,1,0,0:0:0:0:
109,192,256523,1,0,0:0:0:0:
329,192,257212,1,0,0:0:0:0:
475,192,257212,1,0,0:0:0:0:
329,192,259971,1,0,0:0:0:0:
36,192,259971,1,0,0:0:0:0:
475,192,261350,1,0,0:0:0:0:
182,192,261350,1,0,0:0:0:0:
