osu file format v14

[General]
AudioFilename: audio.mp3
AudioLeadIn: 0
PreviewTime: 107557
Countdown: 0
SampleSet: Soft
StackLeniency: 0.7
Mode: 3
LetterboxInBreaks: 0
SpecialStyle: 0
WidescreenStoryboard: 1

[Editor]
DistanceSpacing: 0.8
BeatDivisor: 4
GridSize: 16
TimelineZoom: 0.8

[Metadata]
Title:crystallized
TitleUnicode:crystallized
Artist:Camellia
ArtistUnicode:かめりあ
Creator:Blocko
Version:Easy
Source:
Tags:C89 Comiket 89 CTCD-012 KamelCamellia cametek
BeatmapID:1149075
BeatmapSetID:472088

[Difficulty]
HPDrainRate:6.5
CircleSize:7
OverallDifficulty:6.5
ApproachRate:6.5
SliderMultiplier:1
SliderTickRate:1

[Events]
//Background and Video events
0,0,"crystals.jpg",0,0
//Break Periods
//Storyboard Layer 0 (Background)
//Storyboard Layer 1 (Fail)
//Storyboard Layer 2 (Pass)
//Storyboard Layer 3 (Foreground)
//Storyboard Sound Samples

[TimingPoints]
8937,344.827586206897,4,2,0,5,1,0

[HitObjects]
36,192,8937,5,0,0:0:0:0:
329,192,11695,1,0,0:0:0:0:
402,192,13074,1,0,0:0:0:0:
182,192,13764,1,0,0:0:0:0:
475,192,14454,1,0,0:0:0:0:
109,192,17212,1,0,0:0:0:0:
256,192,18592,1,0,0:0:0:0:
36,192,19971,1,0,0:0:0:0:
329,192,22730,1,0,0:0:0:0:
402,192,24109,1,0,0:0:0:0:
182,192,24799,1,0,0:0:0:0:
475,192,25488,1,0,0:0:0:0:
109,192,28247,1,0,0:0:0:0:
256,192,29626,128,0,31005:0:0:0:0:
475,192,31005,1,0,0:0:0:0:
36,192,31005,1,0,0:0:0:0:
182,192,33419,1,0,0:0:0:0:
475,192,33764,1,0,0:0:0:0:
329,192,35661,1,0,0:0:0:0:
182,192,36178,1,0,0:0:0:0:
475,192,36523,1,0,0:0:0:0:
36,192,38937,1,0,0:0:0:0:
182,192,39281,1,0,0:0:0:0:
402,192,40316,1,0,0:0:0:0:
256,192,40661,1,0,0:0:0:0:
109,192,41350,1,0,0:0:0:0:
475,192,42040,1,0,0:0:0:0:
182,192,44454,1,0,0:0:0:0:
475,192,44799,1,0,0:0:0:0:
329,192,46695,1,0,0:0:0:0:
182,192,47212,1,0,0:0:0:0:
475,192,47557,1,0,0:0:0:0:
36,192,49971,1,0,0:0:0:0:
182,192,50316,1,0,0:0:0:0:
402,192,51350,1,0,0:0:0:0:
109,192,51695,1,0,0:0:0:0:
256,192,52385,128,0,53074:0:0:0:0:
475,192,53074,128,0,53764:0:0:0:0:
36,192,53074,128,0,53764:0:0:0:0:
329,192,54454,1,0,0:0:0:0:
182,192,54454,1,0,0:0:0:0:
475,192,54971,1,0,0:0:0:0:
36,192,54971,1,0,0:0:0:0:
109,192,55488,128,0,56178:0:0:0:0:
402,192,55488,128,0,56178:0:0:0:0:
109,192,57212,1,0,0:0:0:0:
402,192,57212,1,0,0:0:0:0:
475,192,57730,1,0,0:0:0:0:
36,192,57730,1,0,0:0:0:0:
182,192,58247,128,0,58937:0:0:0:0:
329,192,58247,128,0,58937:0:0:0:0:
182,192,59971,1,0,0:0:0:0:
329,192,59971,1,0,0:0:0:0:
475,192,60488,1,0,0:0:0:0:
36,192,60488,1,0,0:0:0:0:
109,192,61005,128,0,61695:0:0:0:0:
402,192,61005,128,0,61695:0:0:0:0:
329,192,62730,128,0,63419:0:0:0:0:
182,192,62730,128,0,63419:0:0:0:0:
402,192,63419,128,0,64109:0:0:0:0:
109,192,63419,128,0,64109:0:0:0:0:
36,192,64109,128,0,64799:0:0:0:0:
475,192,64109,128,0,64799:0:0:0:0:
402,192,65488,1,0,0:0:0:0:
109,192,65488,1,0,0:0:0:0:
475,192,66005,1,0,0:0:0:0:
36,192,66005,1,0,0:0:0:0:
182,192,66523,128,0,67212:0:0:0:0:
329,192,66523,128,0,67212:0:0:0:0:
329,192,68247,1,0,0:0:0:0:
182,192,68247,1,0,0:0:0:0:
475,192,68764,1,0,0:0:0:0:
36,192,68764,1,0,0:0:0:0:
109,192,69281,128,0,69971:0:0:0:0:
402,192,69281,128,0,69971:0:0:0:0:
402,192,71005,1,0,0:0:0:0:
109,192,71005,1,0,0:0:0:0:
475,192,71523,1,0,0:0:0:0:
36,192,71523,1,0,0:0:0:0:
182,192,72040,128,0,75143:0:0:0:0:
329,192,72040,128,0,75143:0:0:0:0:
36,192,75143,1,0,0:0:0:0:
475,192,75143,1,0,0:0:0:0:
329,192,75488,1,0,0:0:0:0:
36,192,75833,1,0,0:0:0:0:
329,192,76178,1,0,0:0:0:0:
109,192,76523,1,0,0:0:0:0:
402,192,76868,1,0,0:0:0:0:
109,192,77212,1,0,0:0:0:0:
402,192,77557,1,0,0:0:0:0:
182,192,77902,1,0,0:0:0:0:
475,192,78247,1,0,0:0:0:0:
182,192,78592,1,0,0:0:0:0:
475,192,78937,1,0,0:0:0:0:
109,192,79281,1,0,0:0:0:0:
402,192,79626,1,0,0:0:0:0:
109,192,79971,1,0,0:0:0:0:
402,192,80316,1,0,0:0:0:0:
36,192,80661,1,0,0:0:0:0:
182,192,81005,1,0,0:0:0:0:
329,192,81350,1,0,0:0:0:0:
475,192,81695,1,0,0:0:0:0:
36,192,82040,1,0,0:0:0:0:
182,192,82385,1,0,0:0:0:0:
329,192,82730,1,0,0:0:0:0:
475,192,83074,1,0,0:0:0:0:
36,192,83419,128,0,83764:0:0:0:0:
182,192,83764,128,0,84109:0:0:0:0:
329,192,84109,128,0,84454:0:0:0:0:
475,192,84454,128,0,84799:0:0:0:0:
36,192,84799,1,0,0:0:0:0:
109,192,84799,1,0,0:0:0:0:
256,192,85661,1,0,0:0:0:0:
36,192,86178,1,0,0:0:0:0:
475,192,86178,1,0,0:0:0:0:
256,192,86523,1,0,0:0:0:0:
109,192,87040,1,0,0:0:0:0:
402,192,87212,1,0,0:0:0:0:
109,192,87730,1,0,0:0:0:0:
402,192,87902,1,0,0:0:0:0:
109,192,88419,1,0,0:0:0:0:
402,192,88592,1,0,0:0:0:0:
36,192,88937,1,0,0:0:0:0:
256,192,89109,1,0,0:0:0:0:
475,192,89281,1,0,0:0:0:0:
36,192,89799,1,0,0:0:0:0:
475,192,89971,1,0,0:0:0:0:
36,192,90488,1,0,0:0:0:0:
475,192,90661,1,0,0:0:0:0:
36,192,91178,1,0,0:0:0:0:
475,192,91350,1,0,0:0:0:0:
256,192,91523,1,0,0:0:0:0:
182,192,91695,1,0,0:0:0:0:
329,192,92040,1,0,0:0:0:0:
182,192,92557,1,0,0:0:0:0:
329,192,92730,1,0,0:0:0:0:
182,192,93247,1,0,0:0:0:0:
329,192,93419,1,0,0:0:0:0:
182,192,93937,1,0,0:0:0:0:
329,192,94109,1,0,0:0:0:0:
109,192,94454,1,0,0:0:0:0:
256,192,94626,1,0,0:0:0:0:
402,192,94799,1,0,0:0:0:0:
109,192,95316,1,0,0:0:0:0:
402,192,95488,1,0,0:0:0:0:
109,192,96005,1,0,0:0:0:0:
402,192,96178,1,0,0:0:0:0:
256,192,96350,1,0,0:0:0:0:
109,192,96695,1,0,0:0:0:0:
402,192,96868,1,0,0:0:0:0:
256,192,97040,1,0,0:0:0:0:
36,192,97212,1,0,0:0:0:0:
329,192,97557,1,0,0:0:0:0:
36,192,98074,1,0,0:0:0:0:
329,192,98247,1,0,0:0:0:0:
36,192,98764,1,0,0:0:0:0:
329,192,98937,1,0,0:0:0:0:
36,192,99454,1,0,0:0:0:0:
329,192,99626,1,0,0:0:0:0:
182,192,99971,1,0,0:0:0:0:
329,192,100143,1,0,0:0:0:0:
475,192,100316,1,0,0:0:0:0:
182,192,100833,1,0,0:0:0:0:
475,192,101005,1,0,0:0:0:0:
182,192,101523,1,0,0:0:0:0:
475,192,101695,1,0,0:0:0:0:
182,192,102212,1,0,0:0:0:0:
475,192,102385,1,0,0:0:0:0:
329,192,102557,1,0,0:0:0:0:
182,192,102730,1,0,0:0:0:0:
402,192,103074,1,0,0:0:0:0:
109,192,103074,1,0,0:0:0:0:
109,192,103592,1,0,0:0:0:0:
402,192,103764,1,0,0:0:0:0:
109,192,104281,1,0,0:0:0:0:
402,192,104454,1,0,0:0:0:0:
109,192,104971,1,0,0:0:0:0:
402,192,105143,1,0,0:0:0:0:
182,192,105488,128,0,105833:0:0:0:0:
329,192,105833,128,0,106178:0:0:0:0:
182,192,106178,128,0,106523:0:0:0:0:
329,192,106523,128,0,106868:0:0:0:0:
109,192,106868,1,0,0:0:0:0:
256,192,107126,1,0,0:0:0:0:
402,192,107385,1,0,0:0:0:0:
182,192,107557,1,0,0:0:0:0:
36,192,108247,128,0,108937:0:0:0:0:
475,192,108247,128,0,108937:0:0:0:0:
329,192,108937,1,0,0:0:0:0:
256,192,109454,1,0,0:0:0:0:
182,192,109971,1,0,0:0:0:0:
109,192,110316,128,0,111005:0:0:0:0:
402,192,110316,128,0,111005:0:0:0:0:
256,192,111005,128,0,111350:0:0:0:0:
36,192,111695,128,0,112385:0:0:0:0:
475,192,111695,128,0,112385:0:0:0:0:
256,192,112385,128,0,112730:0:0:0:0:
329,192,113074,1,0,0:0:0:0:
182,192,113419,1,0,0:0:0:0:
109,192,113764,128,0,114454:0:0:0:0:
402,192,113764,128,0,114454:0:0:0:0:
182,192,114454,1,0,0:0:0:0:
256,192,114971,1,0,0:0:0:0:
329,192,115488,1,0,0:0:0:0:
36,192,115833,128,0,116523:0:0:0:0:
475,192,115833,128,0,116523:0:0:0:0:
329,192,116523,128,0,116868:0:0:0:0:
182,192,116868,128,0,117212:0:0:0:0:
256,192,117212,1,0,0:0:0:0:
402,192,117902,128,0,118419:0:0:0:0:
256,192,118419,128,0,118937:0:0:0:0:
109,192,118937,128,0,119281:0:0:0:0:
36,192,119281,1,0,0:0:0:0:
402,192,119971,1,0,0:0:0:0:
109,192,120488,1,0,0:0:0:0:
329,192,120833,1,0,0:0:0:0:
182,192,121005,1,0,0:0:0:0:
402,192,121350,1,0,0:0:0:0:
109,192,121523,1,0,0:0:0:0:
329,192,121781,1,0,0:0:0:0:
182,192,122040,1,0,0:0:0:0:
36,192,122385,1,0,0:0:0:0:
475,192,122730,1,0,0:0:0:0:
256,192,123419,128,0,123764:0:0:0:0:
329,192,124109,1,0,0:0:0:0:
182,192,124454,1,0,0:0:0:0:
36,192,124799,128,0,125488:0:0:0:0:
475,192,124799,128,0,125488:0:0:0:0:
329,192,125488,1,0,0:0:0:0:
256,192,126005,1,0,0:0:0:0:
182,192,126523,1,0,0:0:0:0:
109,192,126868,1,0,0:0:0:0:
402,192,126868,1,0,0:0:0:0:
256,192,127212,128,0,127557:0:0:0:0:
36,192,127557,128,0,128247:0:0:0:0:
182,192,128247,128,0,128937:0:0:0:0:
329,192,128937,128,0,129626:0:0:0:0:
475,192,129626,128,0,130316:0:0:0:0:
36,192,130316,1,0,0:0:0:0:
256,192,130316,1,0,0:0:0:0:
182,192,132730,1,0,0:0:0:0:
475,192,133074,1,0,0:0:0:0:
329,192,134971,1,0,0:0:0:0:
182,192,135488,1,0,0:0:0:0:
475,192,135833,1,0,0:0:0:0:
36,192,138247,1,0,0:0:0:0:
182,192,138592,1,0,0:0:0:0:
402,192,139626,1,0,0:0:0:0:
256,192,139971,1,0,0:0:0:0:
109,192,140661,1,0,0:0:0:0:
475,192,141350,1,0,0:0:0:0:
182,192,143764,1,0,0:0:0:0:
475,192,144109,1,0,0:0:0:0:
329,192,146005,1,0,0:0:0:0:
182,192,146523,1,0,0:0:0:0:
475,192,146868,1,0,0:0:0:0:
36,192,149281,1,0,0:0:0:0:
182,192,149626,1,0,0:0:0:0:
402,192,150661,1,0,0:0:0:0:
109,192,151005,1,0,0:0:0:0:
256,192,151695,128,0,152385:0:0:0:0:
36,192,152385,128,0,153074:0:0:0:0:
475,192,152385,128,0,153074:0:0:0:0:
329,192,153764,1,0,0:0:0:0:
182,192,153764,1,0,0:0:0:0:
36,192,154281,1,0,0:0:0:0:
475,192,154281,1,0,0:0:0:0:
109,192,154799,128,0,155488:0:0:0:0:
402,192,154799,128,0,155488:0:0:0:0:
109,192,156523,1,0,0:0:0:0:
402,192,156523,1,0,0:0:0:0:
475,192,157040,1,0,0:0:0:0:
36,192,157040,1,0,0:0:0:0:
182,192,157557,128,0,158247:0:0:0:0:
329,192,157557,128,0,158247:0:0:0:0:
329,192,159281,1,0,0:0:0:0:
182,192,159281,1,0,0:0:0:0:
475,192,159799,1,0,0:0:0:0:
36,192,159799,1,0,0:0:0:0:
109,192,160316,128,0,161005:0:0:0:0:
402,192,160316,128,0,161005:0:0:0:0:
329,192,162040,128,0,162730:0:0:0:0:
182,192,162040,128,0,162730:0:0:0:0:
402,192,162730,128,0,163419:0:0:0:0:
109,192,162730,128,0,163419:0:0:0:0:
36,192,163419,1,0,0:0:0:0:
329,192,163764,1,0,0:0:0:0:
36,192,164109,1,0,0:0:0:0:
329,192,164454,1,0,0:0:0:0:
109,192,164799,1,0,0:0:0:0:
402,192,165143,1,0,0:0:0:0:
109,192,165488,1,0,0:0:0:0:
402,192,165833,1,0,0:0:0:0:
182,192,166178,1,0,0:0:0:0:
475,192,166523,1,0,0:0:0:0:
182,192,166868,1,0,0:0:0:0:
475,192,167212,1,0,0:0:0:0:
109,192,167557,1,0,0:0:0:0:
402,192,167902,1,0,0:0:0:0:
109,192,168247,1,0,0:0:0:0:
402,192,168592,1,0,0:0:0:0:
256,192,168937,1,0,0:0:0:0:
36,192,169281,1,0,0:0:0:0:
329,192,169626,1,0,0:0:0:0:
109,192,169971,1,0,0:0:0:0:
402,192,170316,1,0,0:0:0:0:
182,192,170661,1,0,0:0:0:0:
475,192,171005,1,0,0:0:0:0:
256,192,171350,1,0,0:0:0:0:
36,192,171695,128,0,172040:0:0:0:0:
182,192,172040,128,0,172385:0:0:0:0:
329,192,172385,128,0,172730:0:0:0:0:
475,192,172730,128,0,173074:0:0:0:0:
36,192,173074,1,0,0:0:0:0:
109,192,173074,1,0,0:0:0:0:
329,192,174109,1,0,0:0:0:0:
109,192,174454,1,0,0:0:0:0:
256,192,174454,1,0,0:0:0:0:
402,192,174799,1,0,0:0:0:0:
109,192,175143,1,0,0:0:0:0:
402,192,175488,1,0,0:0:0:0:
109,192,175833,1,0,0:0:0:0:
402,192,176178,1,0,0:0:0:0:
109,192,176523,1,0,0:0:0:0:
402,192,176868,1,0,0:0:0:0:
36,192,177212,1,0,0:0:0:0:
329,192,177557,1,0,0:0:0:0:
36,192,177902,1,0,0:0:0:0:
329,192,178247,1,0,0:0:0:0:
182,192,178592,1,0,0:0:0:0:
475,192,178937,1,0,0:0:0:0:
109,192,179281,1,0,0:0:0:0:
402,192,179626,1,0,0:0:0:0:
36,192,179971,1,0,0:0:0:0:
256,192,180316,1,0,0:0:0:0:
475,192,180661,1,0,0:0:0:0:
256,192,181005,1,0,0:0:0:0:
36,192,181350,1,0,0:0:0:0:
256,192,181695,1,0,0:0:0:0:
475,192,182040,1,0,0:0:0:0:
256,192,182385,1,0,0:0:0:0:
109,192,182730,1,0,0:0:0:0:
329,192,183074,1,0,0:0:0:0:
109,192,183419,1,0,0:0:0:0:
329,192,183764,1,0,0:0:0:0:
182,192,184109,1,0,0:0:0:0:
402,192,184454,1,0,0:0:0:0:
182,192,184799,1,0,0:0:0:0:
402,192,185316,1,0,0:0:0:0:
36,192,185488,1,0,0:0:0:0:
109,192,185488,1,0,0:0:0:0:
402,192,185833,1,0,0:0:0:0:
475,192,185833,1,0,0:0:0:0:
182,192,186178,1,0,0:0:0:0:
402,192,186523,1,0,0:0:0:0:
475,192,186523,1,0,0:0:0:0:
182,192,186868,1,0,0:0:0:0:
402,192,187212,1,0,0:0:0:0:
475,192,187212,1,0,0:0:0:0:
182,192,187557,1,0,0:0:0:0:
402,192,187902,1,0,0:0:0:0:
475,192,187902,1,0,0:0:0:0:
329,192,188247,1,0,0:0:0:0:
36,192,188592,1,0,0:0:0:0:
109,192,188592,1,0,0:0:0:0:
329,192,188937,1,0,0:0:0:0:
109,192,189281,1,0,0:0:0:0:
36,192,189281,1,0,0:0:0:0:
402,192,189626,1,0,0:0:0:0:
182,192,189971,1,0,0:0:0:0:
109,192,189971,1,0,0:0:0:0:
402,192,190316,1,0,0:0:0:0:
329,192,190488,1,0,0:0:0:0:
256,192,190661,128,0,191005:0:0:0:0:
182,192,191005,1,0,0:0:0:0:
109,192,191005,1,0,0:0:0:0:
329,192,191350,1,0,0:0:0:0:
402,192,191350,1,0,0:0:0:0:
182,192,191695,1,0,0:0:0:0:
109,192,191695,1,0,0:0:0:0:
329,192,192040,1,0,0:0:0:0:
402,192,192040,1,0,0:0:0:0:
36,192,192385,1,0,0:0:0:0:
109,192,192385,1,0,0:0:0:0:
402,192,192730,1,0,0:0:0:0:
475,192,192730,1,0,0:0:0:0:
109,192,193074,1,0,0:0:0:0:
36,192,193074,1,0,0:0:0:0:
402,192,193419,1,0,0:0:0:0:
475,192,193419,1,0,0:0:0:0:
182,192,193764,128,0,194109:0:0:0:0:
256,192,193764,1,0,0:0:0:0:
329,192,194109,128,0,194454:0:0:0:0:
109,192,194454,128,0,194799:0:0:0:0:
402,192,194799,128,0,195143:0:0:0:0:
36,192,195143,128,0,195488:0:0:0:0:
475,192,195488,128,0,195833:0:0:0:0:
256,192,195833,1,0,0:0:0:0:
402,192,196178,1,0,0:0:0:0:
329,192,196350,1,0,0:0:0:0:
182,192,196523,1,0,0:0:0:0:
109,192,196523,1,0,0:0:0:0:
329,192,196868,1,0,0:0:0:0:
256,192,196868,1,0,0:0:0:0:
36,192,197212,1,0,0:0:0:0:
329,192,197557,1,0,0:0:0:0:
256,192,197557,1,0,0:0:0:0:
36,192,197902,1,0,0:0:0:0:
256,192,198247,1,0,0:0:0:0:
329,192,198247,1,0,0:0:0:0:
36,192,198592,1,0,0:0:0:0:
329,192,198937,1,0,0:0:0:0:
256,192,198937,1,0,0:0:0:0:
109,192,199281,1,0,0:0:0:0:
402,192,199626,1,0,0:0:0:0:
329,192,199626,1,0,0:0:0:0:
109,192,199971,1,0,0:0:0:0:
329,192,200316,1,0,0:0:0:0:
402,192,200316,1,0,0:0:0:0:
182,192,200661,1,0,0:0:0:0:
402,192,201005,1,0,0:0:0:0:
475,192,201005,1,0,0:0:0:0:
36,192,201350,1,0,0:0:0:0:
329,192,201695,1,0,0:0:0:0:
256,192,201695,1,0,0:0:0:0:
475,192,202040,1,0,0:0:0:0:
256,192,202385,1,0,0:0:0:0:
182,192,202385,1,0,0:0:0:0:
475,192,202730,1,0,0:0:0:0:
256,192,203074,1,0,0:0:0:0:
182,192,203074,1,0,0:0:0:0:
475,192,203419,1,0,0:0:0:0:
256,192,203764,1,0,0:0:0:0:
182,192,203764,1,0,0:0:0:0:
475,192,204109,1,0,0:0:0:0:
256,192,204454,1,0,0:0:0:0:
182,192,204454,1,0,0:0:0:0:
402,192,204799,1,0,0:0:0:0:
182,192,205143,1,0,0:0:0:0:
109,192,205143,1,0,0:0:0:0:
402,192,205488,1,0,0:0:0:0:
182,192,205833,1,0,0:0:0:0:
109,192,205833,1,0,0:0:0:0:
329,192,206178,1,0,0:0:0:0:
109,192,206523,1,0,0:0:0:0:
36,192,206523,1,0,0:0:0:0:
329,192,206868,1,0,0:0:0:0:
402,192,206868,1,0,0:0:0:0:
182,192,207212,128,0,207557:0:0:0:0:
256,192,207557,1,0,0:0:0:0:
109,192,208247,1,0,0:0:0:0:
36,192,208247,1,0,0:0:0:0:
402,192,208592,1,0,0:0:0:0:
475,192,208592,1,0,0:0:0:0:
256,192,208937,1,0,0:0:0:0:
109,192,209281,1,0,0:0:0:0:
36,192,209281,1,0,0:0:0:0:
256,192,209626,1,0,0:0:0:0:
402,192,209971,1,0,0:0:0:0:
475,192,209971,1,0,0:0:0:0:
256,192,210316,1,0,0:0:0:0:
182,192,210661,1,0,0:0:0:0:
109,192,210661,1,0,0:0:0:0:
256,192,211005,1,0,0:0:0:0:
329,192,211350,1,0,0:0:0:0:
402,192,211350,1,0,0:0:0:0:
256,192,211695,1,0,0:0:0:0:
109,192,212040,1,0,0:0:0:0:
36,192,212040,1,0,0:0:0:0:
256,192,212385,1,0,0:0:0:0:
475,192,212730,1,0,0:0:0:0:
402,192,212730,1,0,0:0:0:0:
182,192,213074,1,0,0:0:0:0:
36,192,213074,1,0,0:0:0:0:
329,192,213592,1,0,0:0:0:0:
475,192,213592,1,0,0:0:0:0:
182,192,214109,1,0,0:0:0:0:
36,192,214109,1,0,0:0:0:0:
329,192,214454,1,0,0:0:0:0:
475,192,214454,1,0,0:0:0:0:
36,192,214971,1,0,0:0:0:0:
182,192,214971,1,0,0:0:0:0:
329,192,215488,1,0,0:0:0:0:
475,192,215488,1,0,0:0:0:0:
256,192,215661,1,0,0:0:0:0:
182,192,215833,1,0,0:0:0:0:
36,192,215833,1,0,0:0:0:0:
329,192,216178,1,0,0:0:0:0:
182,192,216523,1,0,0:0:0:0:
329,192,216868,1,0,0:0:0:0:
109,192,217212,1,0,0:0:0:0:
402,192,217557,1,0,0:0:0:0:
256,192,217902,1,0,0:0:0:0:
36,192,218592,1,0,0:0:0:0:
475,192,218592,1,0,0:0:0:0:
329,192,218937,1,0,0:0:0:0:
36,192,219454,1,0,0:0:0:0:
329,192,219626,1,0,0:0:0:0:
36,192,220143,1,0,0:0:0:0:
329,192,220316,1,0,0:0:0:0:
36,192,220833,1,0,0:0:0:0:
329,192,221005,1,0,0:0:0:0:
109,192,221350,1,0,0:0:0:0:
256,192,221523,1,0,0:0:0:0:
402,192,221695,1,0,0:0:0:0:
109,192,222212,1,0,0:0:0:0:
402,192,222385,1,0,0:0:0:0:
109,192,222902,1,0,0:0:0:0:
402,192,223074,1,0,0:0:0:0:
109,192,223592,1,0,0:0:0:0:
402,192,223764,1,0,0:0:0:0:
256,192,223937,1,0,0:0:0:0:
182,192,224109,1,0,0:0:0:0:
475,192,224454,1,0,0:0:0:0:
182,192,224971,1,0,0:0:0:0:
475,192,225143,1,0,0:0:0:0:
182,192,225661,1,0,0:0:0:0:
475,192,225833,1,0,0:0:0:0:
182,192,226350,1,0,0:0:0:0:
475,192,226523,1,0,0:0:0:0:
109,192,226868,1,0,0:0:0:0:
256,192,227040,1,0,0:0:0:0:
402,192,227212,1,0,0:0:0:0:
109,192,227730,1,0,0:0:0:0:
402,192,227902,1,0,0:0:0:0:
109,192,228419,1,0,0:0:0:0:
402,192,228592,1,0,0:0:0:0:
256,192,228764,1,0,0:0:0:0:
109,192,229109,1,0,0:0:0:0:
402,192,229281,1,0,0:0:0:0:
256,192,229454,1,0,0:0:0:0:
182,192,229626,1,0,0:0:0:0:
329,192,229971,1,0,0:0:0:0:
182,192,230488,1,0,0:0:0:0:
329,192,230661,1,0,0:0:0:0:
182,192,231178,1,0,0:0:0:0:
329,192,231350,1,0,0:0:0:0:
182,192,231868,1,0,0:0:0:0:
329,192,232040,1,0,0:0:0:0:
109,192,232385,1,0,0:0:0:0:
256,192,232557,1,0,0:0:0:0:
402,192,232730,1,0,0:0:0:0:
109,192,233247,1,0,0:0:0:0:
402,192,233419,1,0,0:0:0:0:
109,192,233937,1,0,0:0:0:0:
402,192,234109,1,0,0:0:0:0:
109,192,234626,1,0,0:0:0:0:
402,192,234799,1,0,0:0:0:0:
36,192,235143,1,0,0:0:0:0:
329,192,235488,1,0,0:0:0:0:
329,192,236178,1,0,0:0:0:0:
182,192,236868,1,0,0:0:0:0:
182,192,237557,1,0,0:0:0:0:
109,192,237902,1,0,0:0:0:0:
402,192,238247,1,0,0:0:0:0:
402,192,238937,1,0,0:0:0:0:
475,192,239281,128,0,239971:0:0:0:0:
36,192,239971,128,0,240661:0:0:0:0:
256,192,240661,5,0,0:0:0:0:
182,192,243074,5,0,0:0:0:0:
475,192,243419,1,0,0:0:0:0:
329,192,245316,1,0,0:0:0:0:
182,192,245833,1,0,0:0:0:0:
475,192,246178,1,0,0:0:0:0:
36,192,248592,1,0,0:0:0:0:
182,192,248937,1,0,0:0:0:0:
402,192,249971,1,0,0:0:0:0:
256,192,250316,1,0,0:0:0:0:
109,192,251005,1,0,0:0:0:0:
475,192,251695,1,0,0:0:0:0:
109,192,254454,1,0,0:0:0:0:
329,192,255833,1,0,0:0:0:0:
182,192,256523,1,0,0:0:0:0:
402,192,257212,1,0,0:0:0:0:
36,192,259971,1,0,0:0:0:0:
475,192,261350,1,0,0:0:0:0:
