osu file format v14

[General]
AudioFilename: 04. Towards the Horizon.mp3
AudioLeadIn: 0
PreviewTime: 79146
Countdown: 0
SampleSet: Soft
StackLeniency: 0.7
Mode: 2
LetterboxInBreaks: 0
WidescreenStoryboard: 0

[Editor]
Bookmarks: 64768
DistanceSpacing: 1.1
BeatDivisor: 4
GridSize: 4
TimelineZoom: 2

[Metadata]
Title:Towards The Horizon
TitleUnicode:Towards The Horizon
Artist:Camellia
ArtistUnicode:かめりあ
Creator:Sinnoh
Version:Salad
Source:REFLEC BEAT 悠久のリフレシア
Tags:The Reflesia of Eternity 6th KONAMI Arcade Championship kac BEMANI Illusiya イルシヤ
BeatmapID:1382726
BeatmapSetID:629384

[Difficulty]
HPDrainRate:4
CircleSize:2.5
OverallDifficulty:7
ApproachRate:7
SliderMultiplier:1.4
SliderTickRate:1

[Events]
//Background and Video events
0,0,"audio.jpg",0,0
//Break Periods
2,64976,70086
//Storyboard Layer 0 (Background)
//Storyboard Layer 1 (Fail)
//Storyboard Layer 2 (Pass)
//Storyboard Layer 3 (Foreground)
//Storyboard Sound Samples

[TimingPoints]
1038,388.60103626943,4,2,2,60,1,0
15027,-100,4,2,1,60,0,0
27462,-100,4,2,1,80,0,1
36789,-100,4,2,1,70,0,0
39898,-100,4,2,1,80,0,1
52333,-100,4,2,1,60,0,0
64768,-100,4,2,2,60,0,0
75649,-100,4,2,1,40,0,0
76426,-100,4,2,1,60,0,0
77203,-100,4,2,1,70,0,0
79924,-100,4,2,1,20,0,0
80312,-100,4,2,1,80,0,1
98965,-100,4,2,1,60,0,0
102074,-100,4,2,1,40,0,0
102851,-100,4,2,1,60,0,0
103628,-100,4,2,1,40,0,0
105183,-100,4,2,1,80,0,1
111400,-100,4,2,1,60,0,0
111789,-100,4,2,1,90,0,1
111983,-100,4,2,1,80,0,1
114120,-100,4,2,1,80,0,0
114509,-100,4,2,1,60,0,1
116646,-100,4,2,1,100,0,0
116743,-100,4,2,1,50,0,0
118201,-100,4,2,1,38,0,0
118784,-100,4,2,1,26,0,0
119172,-100,4,2,1,14,0,0
119561,-100,4,2,1,5,0,0

[Colours]
Combo1 : 192,192,192
Combo2 : 255,89,89
Combo3 : 87,87,255
Combo4 : 0,198,99

[HitObjects]
192,260,1038,5,2,0:0:0:0:
358,304,2592,6,0,L|359:154,1,140,2|0,0:0|0:0,0:0:0:0:
202,135,3369,2,0,L|108:138,2,70,10|0|0,0:0|0:0|0:0,0:0:0:0:
388,258,4146,2,0,P|430:211|373:192,1,140,2|0,0:0|0:0,0:0:0:0:
223,184,4924,2,0,L|61:188,1,140,2|0,0:0|0:0,0:0:0:0:
239,279,5701,5,2,0:0:0:0:
401,249,6089,2,0,P|469:228|492:156,2,140,0|2|0,0:0|0:0|0:0,0:0:0:0:
229,323,7255,2,0,P|157:296|171:223,1,140,2|0,0:0|0:0,0:0:0:0:
332,204,8032,2,0,L|414:186,2,70,2|0|0,0:0|0:0|0:0,0:0:0:0:
23,292,8810,6,0,P|20:214|86:165,1,140,2|0,0:0|0:0,0:0:0:0:
222,161,9587,2,0,L|315:155,2,70,10|0|0,0:0|0:0|0:0,0:0:0:0:
72,220,10364,2,0,L|233:225,1,140,2|0,0:0|0:0,0:0:0:0:
384,220,11141,2,0,L|230:208,1,140,2|0,0:0|0:0,0:0:0:0:
428,159,11918,1,2,0:0:0:0:
248,170,12307,6,0,P|167:142|148:73,2,140,0|2|0,0:0|0:0|0:0,0:0:0:0:
438,264,13473,2,0,P|470:190|412:179,1,140,2|0,0:0|0:0,0:0:0:0:
291,181,14250,1,10,0:0:0:0:
347,139,14444,1,0,0:0:0:0:
404,98,14639,1,0,0:0:0:0:
103,231,15027,6,0,P|93:133|142:117,1,140,2|8,3:2|3:2,3:2:0:0:
223,128,15610,1,0,0:0:0:0:
317,187,15804,2,0,P|379:159|384:82,1,140,2|8,0:0|0:0,0:0:0:0:
239,63,16582,2,0,L|385:60,2,140,2|8|2,3:2|0:0|0:2,0:0:0:0:
136,71,17553,2,0,L|51:72,2,70,0|8|0,3:0|0:0|0:0,0:0:0:0:
328,272,18136,6,0,P|400:248|392:180,1,140,2|8,3:2|0:0,0:0:0:0:
299,131,18719,1,0,0:0:0:0:
206,220,18913,2,0,L|155:134,2,70,2|0|8,0:2|3:0|0:0,0:0:0:0:
378,189,19690,6,0,L|224:185,1,140,2|8,3:2|0:0,0:0:0:0:
379,134,20370,2,0,L|383:56,1,70,0|0,3:0|3:0,0:0:0:0:
492,149,20759,2,0,L|513:104,2,35,0|8|0,3:0|0:0|3:0,0:0:0:0:
232,276,21245,6,0,P|180:224|217:184,1,140,2|8,3:2|0:0,0:0:0:0:
324,182,21828,1,0,0:0:0:0:
217,184,22022,2,0,L|58:184,1,140,2|8,0:2|0:0,0:0:0:0:
279,280,22799,6,0,P|350:262|359:180,1,140,2|8,3:2|0:0,0:0:0:0:
279,189,23382,1,0,0:0:0:0:
188,167,23576,2,0,L|181:81,1,70,2|0,0:2|3:0,0:0:0:0:
287,89,23965,1,8,0:0:0:0:
256,192,24354,12,0,25908,3:0:0:0:
357,246,27462,6,0,L|184:242,1,140,4|8,3:2|0:0,0:0:0:0:
288,181,28045,1,2,0:0:0:0:
371,125,28240,1,2,0:0:0:0:
206,174,28628,2,0,L|194:90,1,70,10|2,0:0|0:0,0:0:0:0:
400,197,29017,6,0,P|445:161|384:128,1,140,0|8,3:0|0:0,0:0:0:0:
314,196,29600,1,2,0:0:0:0:
189,230,29794,2,0,L|177:135,1,70,2|0,0:0|3:0,0:0:0:0:
293,141,30183,2,0,L|375:142,1,70,8|0,0:0|0:0,0:0:0:0:
168,264,30571,6,0,P|119:220|172:186,1,140,0|8,3:0|0:0,0:0:0:0:
261,160,31154,1,2,0:3:0:0:
371,143,31348,1,2,0:3:0:0:
246,130,31737,2,0,L|239:47,1,70,10|2,0:3|0:3,0:0:0:0:
420,139,32126,6,0,P|462:100|401:46,1,140,0|8,3:0|0:0,0:0:0:0:
236,265,32903,1,0,0:0:0:0:
135,248,33098,1,0,0:0:0:0:
110,170,33292,1,8,0:0:0:0:
187,132,33486,1,0,0:0:0:0:
351,329,33680,6,0,P|427:330|497:319,1,140,4|8,3:2|0:0,0:0:0:0:
428,106,34263,1,2,0:0:0:0:
344,87,34457,1,2,0:0:0:0:
170,124,34846,2,0,L|119:46,1,70,10|2,0:0|0:0,0:0:0:0:
328,202,35234,6,0,B|392:175|394:146|315:79,1,140,0|8,3:0|0:0,0:0:0:0:
241,87,35817,1,2,0:0:0:0:
162,237,36012,2,0,L|69:234,1,70,2|0,0:0|3:0,0:0:0:0:
169,183,36400,2,0,L|90:184,1,70,8|0,0:0|0:0,0:0:0:0:
284,263,36789,6,0,B|366:263|366:263|395:184,1,140,0|0,3:0|0:0,0:0:0:0:
196,183,37566,2,0,P|148:166|207:124,1,140,8|0,0:0|0:0,0:0:0:0:
334,60,38343,2,0,L|173:57,1,140,0|0,3:0|0:0,0:0:0:0:
496,121,39120,1,10,0:0:0:0:
109,156,39898,6,0,L|260:127,1,140,4|8,3:2|0:0,0:0:0:0:
68,85,40675,2,0,L|-13:50,2,70,2|0|10,0:3|3:0|0:3,0:0:0:0:
229,183,41452,6,0,P|252:130|177:83,1,140,0|8,3:0|0:0,0:0:0:0:
47,52,42229,1,0,0:0:0:0:
122,66,42424,1,0,3:0:0:0:
198,80,42618,1,8,0:0:0:0:
487,208,43006,6,0,P|486:273|397:306,1,140,0|8,3:0|0:0,0:0:0:0:
268,310,43784,1,2,0:3:0:0:
425,304,44172,1,10,0:3:0:0:
123,332,44561,6,0,P|101:272|161:204,1,140,0|8,3:0|0:0,0:0:0:0:
287,211,45338,2,0,L|201:178,1,70,0|0,0:0|0:0,0:0:0:0:
116,163,45727,2,0,L|196:120,1,70,8|0,0:0|0:0,0:0:0:0:
371,244,46115,6,0,P|415:219|359:170,1,140,4|8,3:2|0:0,0:0:0:0:
206,155,46892,2,0,L|277:121,2,70,2|0|10,0:3|3:0|0:3,0:0:0:0:
35,219,47670,1,0,3:0:0:0:
14,152,47864,1,0,0:0:0:0:
58,100,48058,1,8,0:0:0:0:
156,100,48253,1,0,0:0:0:0:
263,99,48447,2,0,L|110:72,1,140,0|8,0:0|0:0,0:0:0:0:
419,180,49224,6,0,P|457:232|415:282,1,140,0|8,3:0|0:0,0:0:0:0:
234,221,50001,2,0,L|375:212,1,140,2|10,0:3|0:3,0:0:0:0:
75,143,50778,5,8,0:0:0:0:
216,130,51167,1,8,0:0:0:0:
124,325,51361,2,0,L|112:243,1,70,8|0,0:0|3:0,0:0:0:0:
294,256,51944,2,0,L|303:175,1,70,8|8,0:0|0:0,0:0:0:0:
108,104,52333,5,4,3:2:0:0:
345,308,53110,2,0,L|222:311,2,105,10|0|0,0:0|0:0|0:0,0:0:0:0:
251,253,53887,1,0,0:0:0:0:
155,321,54082,2,0,P|124:269|164:240,1,105,0|0,3:0|3:0,0:0:0:0:
287,214,54664,2,0,L|277:130,1,70,10|0,0:0|3:0,0:0:0:0:
177,118,55053,2,0,L|167:22,1,70,2|0,0:0|0:0,0:0:0:0:
375,41,55442,5,2,3:2:0:0:
126,263,56219,2,0,L|249:266,2,105,8|0|0,0:0|0:0|0:0,0:0:0:0:
30,232,56996,2,0,P|26:185|80:167,1,105,0|0,3:0|3:0,0:0:0:0:
208,160,57579,1,0,3:0:0:0:
400,176,57773,2,0,L|424:122,2,35,8|0|0,0:0|3:0|3:0,0:0:0:0:
282,185,58162,1,8,0:0:0:0:
128,304,58550,6,0,L|122:139,1,140,0|0,0:0|3:0,0:0:0:0:
301,144,59328,2,0,L|437:142,2,105,10|0|0,0:0|0:0|0:0,0:0:0:0:
213,150,60105,1,0,0:0:0:0:
124,151,60299,2,0,L|253:152,1,105,0|0,3:0|3:0,0:0:0:0:
362,210,60882,2,0,L|370:122,1,70,10|0,0:0|0:0,0:0:0:0:
266,143,61271,2,0,L|275:69,1,70,2|2,0:0|0:0,0:0:0:0:
93,63,61659,5,2,3:2:0:0:
328,232,62436,2,0,L|448:232,2,105,8|0|2,0:0|0:0|0:0,0:0:0:0:
209,229,63214,6,0,L|97:232,2,105,2|0|0,3:2|3:0|3:0,0:0:0:0:
313,197,63991,2,0,L|191:196,2,105,8|8|10,0:0|0:0|0:0,0:0:0:0:
496,196,64768,1,10,0:0:0:0:
256,192,70986,12,2,73706,0:0:0:0:
379,244,74094,6,0,P|378:179|318:123,1,140,2|0,0:0|0:0,0:0:0:0:
133,244,74872,2,0,P|134:179|194:123,1,140,2|0,0:0|0:0,0:0:0:0:
368,108,75649,2,0,L|201:104,1,140,2|0,3:2|3:0,0:0:0:0:
49,116,76426,2,0,L|196:103,1,140,2|0,3:2|3:0,0:0:0:0:
495,122,77203,5,2,3:2:0:0:
256,192,77592,12,0,78758,3:0:0:0:
115,184,79146,6,0,L|265:179,2,140,2|2|6,0:2|0:2|0:2,0:0:0:0:
424,264,80312,6,0,B|476:264|476:264|376:232,1,140,4|10,3:2|0:2,0:0:0:0:
292,208,80895,1,2,0:2:0:0:
193,222,81089,2,0,L|117:162,1,70,0|0,0:2|3:2,0:0:0:0:
207,218,81478,2,0,L|298:220,1,70,10|2,0:2|0:2,0:0:0:0:
384,188,81867,6,0,L|224:192,1,140,0|8,3:2|0:2,0:0:0:0:
64,252,82644,2,0,L|76:164,1,70,2|2,0:2|3:2,0:0:0:0:
204,180,83032,2,0,L|216:92,1,70,10|2,0:2|0:2,0:0:0:0:
412,296,83421,6,0,B|472:296|472:296|404:228,1,140,0|10,3:2|0:2,0:0:0:0:
221,159,84004,2,0,L|137:151,2,70,2|0|0,0:2|0:2|3:2,0:0:0:0:
337,168,84587,2,0,P|340:116|308:104,1,70,10|2,0:2|0:2,0:0:0:0:
216,92,84975,5,2,3:2:0:0:
120,44,85170,2,0,L|212:44,1,70,2|10,0:2|0:2,0:0:0:0:
392,260,85753,2,0,L|400:180,1,70,2|2,0:2|0:2,0:0:0:0:
296,180,86141,2,0,L|304:96,1,70,10|2,0:2|0:2,0:0:0:0:
104,306,86530,6,0,P|60:286|112:218,1,140,4|10,3:2|0:2,0:0:0:0:
187,206,87113,1,2,0:2:0:0:
270,187,87307,2,0,L|363:151,1,70,0|0,0:2|3:2,0:0:0:0:
250,124,87696,2,0,L|177:92,1,70,8|2,0:2|0:2,0:0:0:0:
295,170,88084,6,0,L|435:226,1,140,0|10,3:2|0:2,0:0:0:0:
257,315,88861,2,0,L|269:225,1,70,2|2,0:2|3:2,0:0:0:0:
387,233,89250,2,0,L|395:147,1,70,10|0,0:2|0:2,0:0:0:0:
202,203,89639,6,0,P|157:160|224:126,1,140,0|8,3:2|0:2,0:0:0:0:
363,133,90416,2,0,L|284:134,2,70,2|0|10,0:2|3:2|0:2,0:0:0:0:
445,136,90999,1,0,0:2:0:0:
246,105,91193,6,0,P|200:126|249:171,1,140,8|8,0:0|0:0,0:0:0:0:
383,172,91970,2,0,L|269:171,2,105,10|10|8,0:2|0:2|0:2,0:0:0:0:
185,174,92747,6,0,B|98:176|98:176|99:100,1,140,4|10,3:2|0:2,0:0:0:0:
192,85,93330,1,2,0:2:0:0:
289,101,93525,2,0,L|277:28,1,70,0|0,0:2|3:2,0:0:0:0:
163,141,93913,2,0,L|171:60,1,70,10|2,0:2|0:2,0:0:0:0:
281,258,94302,6,0,L|431:250,1,140,0|8,3:2|0:2,0:0:0:0:
227,221,95079,2,0,L|235:141,1,70,2|2,0:2|3:2,0:0:0:0:
120,139,95468,2,0,L|132:56,1,70,10|2,0:2|0:2,0:0:0:0:
320,52,95856,6,0,P|370:84|328:145,1,140,2|10,3:2|0:2,0:0:0:0:
148,74,96439,2,0,L|69:68,2,70,2|0|0,0:2|0:2|3:2,0:0:0:0:
265,83,97022,2,0,L|186:104,1,70,10|2,0:2|0:2,0:0:0:0:
300,216,97411,5,2,3:2:0:0:
383,167,97605,2,0,L|364:82,1,70,2|10,0:2|0:2,0:0:0:0:
220,96,98188,2,0,L|292:93,1,70,2|2,0:2|0:2,0:0:0:0:
392,88,98576,2,0,L|376:160,1,70,10|2,0:2|0:2,0:0:0:0:
180,176,98965,6,0,B|108:176|108:176|148:232,1,140,2|8,3:2|0:2,0:0:0:0:
331,232,99742,1,0,0:2:0:0:
162,223,100131,1,8,0:2:0:0:
332,149,100519,2,0,L|186:139,1,140,2|8,3:2|0:2,0:0:0:0:
40,123,101297,1,0,0:0:0:0:
216,172,101685,1,8,0:0:0:0:
256,192,102074,12,0,103628,3:0:0:0:
135,151,105183,6,0,L|280:153,1,140,4|2,3:2|0:2,0:0:0:0:
112,268,105960,2,0,L|40:216,2,70,8|2|0,3:2|0:2|0:2,0:0:0:0:
420,296,106737,2,0,L|408:156,1,140,0|2,3:2|0:2,0:0:0:0:
224,96,107514,2,0,L|312:96,1,70,8|2,0:2|0:3,0:0:0:0:
376,92,107903,1,2,0:3:0:0:
172,308,108097,6,0,P|128:272|180:216,1,140,4|0,3:2|3:2,0:0:0:0:
304,208,108777,1,0,3:2:0:0:
48,208,109069,2,0,P|16:156|84:92,1,140,8|2,0:2|0:3,0:0:0:0:
191,104,109846,6,0,L|55:104,2,105,0|0|0,3:2|3:2|3:2,0:0:0:0:
367,232,110623,2,0,B|447:228|427:196|431:160,1,105,8|8,0:2|0:2,0:0:0:0:
343,111,111109,1,0,3:2:0:0:
431,91,111303,1,2,3:3:0:0:
108,232,111789,6,0,P|64:172|112:152,1,140,4|8,3:2|0:2,0:0:0:0:
220,148,112372,2,0,L|292:148,2,70,2|0|0,0:2|0:2|0:2,0:0:0:0:
396,232,112955,6,0,B|472:228|472:228|472:176,2,105,0|0|0,3:2|3:2|3:2,0:0:0:0:
204,243,113732,2,0,L|188:163,1,70,8|8,0:2|0:2,0:0:0:0:
92,161,114120,1,0,3:2:0:0:
336,96,114509,6,0,L|208:92,1,105,4|12,3:2|3:2,0:0:0:0:
312,48,114995,1,8,0:2:0:0:
92,96,115286,2,0,L|220:92,1,105,4|4,3:2|3:2,0:0:0:0:
116,48,115772,1,8,0:2:0:0:
365,296,116063,6,0,P|393:248|357:196,1,105,4|8,3:2|0:2,0:0:0:0:
112,200,116646,1,4,0:2:0:0:
256,192,117035,12,0,119949,0:0:0:0:
